VERSION	0.00.00	1.03.00
FES_MODE	0
BPM_DEF	164.000	164.000	164.000	164.000
MET_DEF	4	4
RESOLUTION	384
CLK_DEF	384
COMPATIBLE_CODE	MA2

BPM	0	0	164.000
MET	0	0	4	4

HLD	2	0	1	192
TAP	2	0	5
HLD	2	192	2	192
HLD	3	0	3	192
HLD	3	192	4	192
HLD	4	0	5	192
HLD	4	192	4	192
HLD	5	0	3	192
TAP	6	0	2
TAP	6	96	2
TAP	6	96	3
TAP	6	192	5
TAP	6	288	4
TAP	6	288	5
HLD	7	0	3	96
TAP	7	96	4
TAP	7	192	3
TAP	7	192	4
TAP	7	288	2
TAP	7	288	5
XTP	8	0	1
XTP	8	0	4
XTP	8	48	1
XTP	8	48	4
XTP	8	192	3
XTP	8	192	6
XHO	8	240	3	192
XTP	8	240	6
TAP	9	48	4
TAP	9	144	1
TAP	9	144	5
BRK	9	192	1
BRK	9	192	5
TAP	10	0	5
TAP	10	96	6
TAP	10	192	0
TAP	10	288	1
TAP	10	288	7
TAP	11	0	2
TAP	11	96	1
TAP	11	192	7
TAP	11	288	0
TAP	11	288	6
TAP	12	0	5
TAP	12	96	4
TAP	12	96	5
TAP	12	192	2
TAP	12	288	2
TAP	12	288	3
TAP	13	0	5
TAP	13	48	5
TAP	13	96	4
TAP	13	192	3
TAP	13	192	6
TAP	14	0	5
TAP	14	96	6
TAP	14	192	0
TAP	14	288	1
TAP	14	288	7
TAP	15	0	2
TAP	15	96	1
TAP	15	192	7
TAP	15	288	0
TAP	15	288	6
TAP	16	0	5
TAP	16	96	4
TAP	16	96	5
TAP	16	192	2
TAP	16	288	2
TAP	16	288	3
TAP	17	0	0
TAP	17	48	0
TAP	17	96	0
XTP	17	192	1
XTP	17	192	7
HLD	18	0	2	672
XTP	18	0	5
TAP	18	96	5
TAP	18	192	3
TAP	18	288	3
TAP	19	0	4
TAP	19	96	4
TAP	19	192	3
TAP	19	288	3
HLD	20	0	5	96
TAP	20	96	4
HLD	20	192	2	96
TAP	20	288	3
TAP	21	0	4
TAP	21	96	3
TAP	21	96	5
TAP	21	192	3
TAP	21	192	5
XTP	22	0	2
HLD	22	0	5	1056
XTP	22	96	2
TAP	22	192	4
TAP	22	288	4
TAP	23	0	3
TAP	23	96	3
TAP	23	192	4
TAP	23	288	4
TAP	24	0	6
TAP	24	96	6
TAP	24	192	4
TAP	24	288	4
TAP	25	0	3
TAP	25	0	4
TAP	25	96	3
TAP	25	96	4
BRK	25	192	2
BRK	25	192	6
XTP	25	288	1
XTP	25	336	1
XTP	26	0	3
TAP	26	96	2
TAP	26	96	3
TAP	26	192	1
TAP	26	192	4
TAP	26	240	1
TAP	26	240	4
TAP	26	336	6
TAP	27	0	6
TAP	27	96	4
TAP	27	96	5
TAP	27	192	3
TAP	27	192	6
TAP	27	240	3
TAP	27	240	6
TAP	27	336	2
TAP	28	0	2
TAP	28	96	1
TAP	28	96	3
TAP	28	192	5
TAP	28	288	4
TAP	28	288	6
TAP	29	0	3
TAP	29	48	3
TAP	29	96	4
XTP	29	192	1
XTP	29	192	5
TAP	29	336	2
TAP	30	0	2
TAP	30	96	1
TAP	30	96	4
TAP	30	192	2
TAP	30	192	3
TAP	30	240	2
TAP	30	240	3
TAP	30	336	5
TAP	31	0	5
TAP	31	96	3
TAP	31	96	6
TAP	31	192	4
TAP	31	192	5
TAP	31	240	4
TAP	31	240	5
TAP	31	336	3
TAP	32	0	3
TAP	32	96	2
TAP	32	96	3
TAP	32	192	4
TAP	32	288	4
STR	32	288	5
SCL	32	288	5	96	96	2
XTP	33	192	0
XTP	33	192	4
TAP	34	0	1
TAP	34	0	3
TAP	34	72	2
TAP	34	72	4
TAP	34	144	3
TAP	34	144	5
TAP	34	192	3
TAP	34	192	5
HLD	34	288	6	96
TAP	35	0	4
TAP	35	72	3
TAP	35	72	5
TAP	35	144	2
TAP	35	144	4
TAP	35	192	2
TAP	35	192	4
HLD	35	288	1	96
TAP	36	0	3
TAP	36	72	2
TAP	36	72	4
TAP	36	144	3
TAP	36	144	5
TAP	36	192	3
TAP	36	192	5
TAP	36	288	2
HLD	36	288	6	96
TAP	37	0	4
TAP	37	48	4
TAP	37	96	4
TAP	37	144	4
TAP	37	192	4
TAP	37	192	5
TAP	37	288	3
STR	37	288	6
SCL	37	288	6	96	288	1
TAP	39	48	0
TAP	39	48	7
TAP	39	96	0
TAP	39	96	7
TAP	39	192	1
TAP	39	192	6
TAP	39	288	2
TAP	39	288	5
TTP	40	0	2	B	0	M1
TTP	40	0	3	B	0	M1
TTP	40	0	4	B	0	M1
TTP	40	0	4	E	0	M1
TTP	40	0	5	B	0	M1
BRK	40	96	1
BRK	40	96	7
TAP	40	192	0
TAP	40	264	6
XTP	40	336	1
XTP	40	336	5
TAP	41	48	2
TAP	41	48	4
TAP	41	144	5
TAP	41	192	5
TAP	41	264	3
XTP	41	336	2
XTP	41	336	4
TAP	42	48	1
TAP	42	96	1
TAP	42	144	3
TAP	42	192	2
TAP	42	192	3
TAP	42	264	3
TAP	42	264	4
XTP	42	336	2
XTP	42	336	6
TAP	43	48	7
TAP	43	96	7
TAP	43	144	0
XTP	43	192	1
XTP	43	192	5
XTP	43	240	1
XTP	43	240	5
XTP	43	288	1
XTP	43	288	5
TTP	44	0	0	B	0	M1
TTP	44	0	1	B	0	M1
TTP	44	0	2	B	0	M1
TTP	44	0	2	E	0	M1
TTP	44	0	3	B	0	M1
BRK	44	96	6
BRK	44	96	7
XTP	44	240	4
XTP	44	240	5
TAP	44	336	0
TAP	44	336	1
TAP	45	48	2
TAP	45	48	7
TAP	45	96	2
TAP	45	96	7
TAP	45	192	4
TAP	45	192	5
TAP	45	288	2
TAP	45	288	3
TAP	46	0	0
TAP	46	0	1
TAP	46	96	6
TAP	46	96	7
TAP	46	192	4
TAP	46	192	5
XTP	46	288	3
XTP	46	288	6
XTP	46	336	3
XTP	46	336	6
TAP	47	48	2
TAP	47	48	5
TAP	47	144	0
TAP	47	192	0
TAP	47	288	1
TAP	47	288	7
TTP	48	0	3	B	0	M1
TTP	48	0	4	B	0	M1
TTP	48	0	5	B	0	M1
TTP	48	0	5	E	0	M1
TTP	48	0	6	B	0	M1
BRK	48	96	0
BRK	48	96	1
TAP	48	192	2
TAP	48	240	2
TAP	48	288	1
TAP	48	288	3
TAP	49	0	5
TAP	49	48	5
TAP	49	96	4
TAP	49	96	6
TAP	49	192	3
TAP	49	192	7
STR	49	288	2
SCL	49	288	2	96	96	7
STR	50	96	6
SCL	50	96	6	96	96	3
XTP	50	288	1
XTP	50	336	1
XTP	51	0	0
XTP	51	0	1
TAP	51	96	2
TAP	51	96	3
TAP	51	192	1
TAP	51	192	4
TAP	51	288	1
TAP	51	288	4
TTP	52	0	0	B	0	M1
TTP	52	0	1	B	0	M1
TTP	52	0	2	B	0	M1
TTP	52	0	2	E	0	M1
TTP	52	0	3	B	0	M1
BRK	52	96	6
BRK	52	96	7
XST	52	240	4
SXL	52	240	4	96	144	4
SXR	52	240	4	96	144	4
XTP	52	240	5
XTP	53	192	2
XTP	53	192	6
TAP	53	288	0
TAP	53	288	1
TAP	53	336	0
TAP	53	336	1
TAP	54	0	0
TAP	54	0	1
TAP	54	96	2
TAP	54	96	3
TAP	54	192	4
TAP	54	192	5
XTP	54	288	2
XTP	54	288	6
BRK	54	336	2
BRK	54	336	6
TAP	55	144	4
TAP	55	144	5
TAP	55	192	4
TAP	55	192	5
TAP	55	288	3
TAP	55	288	4
HLD	56	0	2	384
TAP	56	0	5
HLD	57	0	3	384
HLD	58	0	4	384
HLD	59	0	5	192
TAP	59	192	4
XHO	60	0	3	96
XHO	60	0	6	96
XHO	60	192	1	96
XHO	60	192	4	96
XHO	61	0	2	96
XHO	61	0	7	96
XHO	61	192	0	96
XHO	61	192	5	96
XTP	62	0	2
XTP	62	0	6
XTP	62	96	3
XTP	62	96	5
TAP	62	192	4
TAP	62	240	4
TAP	62	288	3
TAP	62	336	3
TAP	63	0	3
TAP	63	0	4
TAP	63	48	3
TAP	63	48	4
TAP	63	96	3
TAP	63	96	4
TAP	63	144	3
TAP	63	144	4
TAP	63	192	3
TAP	63	192	4
TAP	63	288	2
TAP	63	288	5
TTP	64	0	2	B	0	M1
TTP	64	0	3	B	0	M1
TTP	64	0	4	B	0	M1
TTP	64	0	4	E	0	M1
TTP	64	0	5	B	0	M1
BRK	64	96	1
BRK	64	96	7
TAP	64	192	0
TAP	64	264	6
TAP	64	336	1
TAP	64	336	5
XTP	65	48	2
XTP	65	48	4
TAP	65	144	5
TAP	65	192	5
TAP	65	264	3
TAP	65	336	2
TAP	65	336	4
TAP	66	48	1
TAP	66	96	1
TAP	66	144	3
TAP	66	192	2
TAP	66	192	3
TAP	66	264	3
TAP	66	264	4
TAP	66	336	4
HLD	66	336	6	96
XTP	67	48	7
XTP	67	96	7
XTP	67	144	6
TAP	67	192	0
TAP	67	192	5
TAP	67	288	3
TAP	67	288	4
TTP	68	0	3	B	0	M1
TTP	68	0	4	B	0	M1
TTP	68	0	5	B	0	M1
TTP	68	0	5	E	0	M1
TTP	68	0	6	B	0	M1
BRK	68	96	0
BRK	68	96	1
XTP	68	240	2
XTP	68	240	7
TAP	68	336	3
TAP	68	336	4
TAP	69	48	0
TAP	69	48	5
TAP	69	96	0
TAP	69	96	5
TAP	69	192	1
TAP	69	192	3
TAP	69	288	4
TAP	69	288	6
TAP	70	0	0
HLD	70	0	1	96
TAP	70	96	3
TAP	70	192	4
TAP	70	192	5
XTP	70	288	3
XTP	70	288	6
XTP	70	336	3
XHO	70	336	6	96
HLD	71	48	4	96
TAP	71	144	5
TAP	71	192	5
TAP	71	288	3
TAP	71	288	4
TTP	72	0	1	B	0	M1
TTP	72	0	2	B	0	M1
TTP	72	0	3	B	0	M1
TTP	72	0	3	E	0	M1
TTP	72	0	4	B	0	M1
BRK	72	96	6
BRK	72	96	7
TAP	72	192	5
TAP	72	240	5
TAP	72	288	4
TAP	72	288	6
TAP	73	0	2
TAP	73	48	2
TAP	73	96	1
TAP	73	96	3
TAP	73	192	0
TAP	73	192	7
TAP	73	288	4
STR	73	288	5
SCL	73	288	5	96	96	2
STR	74	96	1
SCL	74	96	1	96	96	6
TAP	74	288	5
TAP	74	336	5
XTP	75	0	4
XTP	75	0	5
TAP	75	96	2
TAP	75	96	3
TAP	75	192	0
TAP	75	192	1
TAP	75	288	2
TAP	75	288	7
TTP	76	0	4	B	0	M1
TTP	76	0	5	B	0	M1
TTP	76	0	6	B	0	M1
TTP	76	0	6	E	0	M1
TTP	76	0	7	B	0	M1
BRK	76	96	0
BRK	76	96	1
XTP	76	240	2
XST	76	240	3
SF_	76	240	3	96	144	7
XTP	77	192	1
XTP	77	192	5
TAP	77	288	2
HLD	77	288	6	96
HLD	78	0	4	96
HLD	78	96	3	96
STR	78	192	1
SCR	78	192	1	96	192	6
XTP	79	192	0
XTP	79	192	7
TAP	79	288	1
TAP	79	288	6
TAP	80	0	3
TAP	80	0	5
TAP	80	48	3
TAP	80	48	5
TAP	80	192	2
TAP	80	192	4
TAP	80	240	2
TAP	80	240	4
TAP	81	48	1
TAP	81	48	6
TAP	81	144	3
TAP	81	144	4
TAP	81	192	3
TAP	81	192	4
XTP	81	288	1
XTP	81	288	5
XTP	82	0	0
XTP	82	0	6
BRK	82	96	1
BRK	82	96	7
TAP	82	192	0
TAP	82	192	5
TAP	82	288	2
TAP	82	288	7
TAP	83	0	1
TAP	83	0	5
TAP	83	96	2
TAP	83	96	6
TAP	83	192	0
TAP	83	192	5
TAP	83	288	0
TAP	83	288	5
TAP	84	0	1
TAP	84	0	7
BRK	84	96	0
BRK	84	96	6
TAP	84	192	2
TAP	84	192	7
TAP	84	288	0
TAP	84	288	5
TAP	85	0	1
TAP	85	0	7
TAP	85	96	0
TAP	85	96	6
TAP	85	192	2
TAP	85	192	7
TAP	85	288	2
TAP	85	288	7
XTP	86	0	0
XTP	86	0	6
BRK	86	96	2
BRK	86	96	7
TAP	86	192	0
TAP	86	192	5
TAP	86	288	1
TAP	86	288	7
TAP	87	0	0
TAP	87	0	6
TAP	87	96	2
TAP	87	96	7
TAP	87	192	0
TAP	87	192	5
TAP	87	288	0
TAP	87	288	5
STR	88	0	6
SI_	88	0	6	96	48	4
STR	88	0	7
SI_	88	0	7	96	48	3
STR	88	192	0
SI_	88	192	0	96	48	4
STR	88	192	1
SI_	88	192	1	96	48	3
XTP	89	0	3
XTP	89	0	4
TAP	89	96	2
TAP	89	96	5
TAP	89	144	2
TAP	89	144	5
STR	89	192	1
SI_	89	192	1	96	48	4
STR	89	192	6
SI_	89	192	6	96	48	3

T_REC_TAP	373
T_REC_BRK	28
T_REC_XTP	75
T_REC_HLD	25
T_REC_XHO	10
T_REC_STR	13
T_REC_BST	0
T_REC_XST	2
T_REC_TTP	40
T_REC_THO	0
T_REC_SLD	16
T_REC_ALL	582
T_NUM_TAP	503
T_NUM_BRK	28
T_NUM_HLD	35
T_NUM_SLD	16
T_NUM_ALL	582
T_JUDGE_TAP	531
T_JUDGE_HLD	138
T_JUDGE_SLD	16
T_JUDGE_ALL	685
TTM_EACHPAIRS	195
TTM_SCR_TAP	251500
TTM_SCR_BRK	72800
TTM_SCR_HLD	35000
TTM_SCR_SLD	24000
TTM_SCR_ALL	383300
TTM_SCR_S	369100
TTM_SCR_SS	380500
TTM_RAT_ACV	10073

