VERSION	0.00.00	1.03.00
FES_MODE	0
BPM_DEF	164.000	164.000	164.000	164.000
MET_DEF	4	4
RESOLUTION	384
CLK_DEF	384
COMPATIBLE_CODE	MA2

BPM	0	0	164.000
MET	0	0	4	4

THO	2	0	0	1152	C	0	L1
XHO	6	0	6	192
TAP	6	192	7
HLD	7	0	1	192
TAP	7	192	0
TAP	8	0	6
TAP	8	0	7
TAP	8	192	0
TAP	8	192	1
TAP	9	0	7
TAP	9	96	0
TAP	9	96	7
BRK	9	192	1
BRK	9	192	6
TAP	10	0	5
TAP	10	96	5
TAP	10	192	4
TAP	10	288	4
TAP	11	0	3
TAP	11	96	3
TAP	11	192	2
TAP	11	192	4
TAP	12	0	1
TAP	12	96	1
TAP	12	192	0
TAP	12	288	0
TAP	13	0	7
TAP	13	96	7
TAP	13	192	0
TAP	13	192	6
TAP	14	0	6
TAP	14	96	6
TAP	14	192	7
TAP	14	288	7
TAP	15	0	0
TAP	15	96	0
TAP	15	192	1
TAP	15	192	7
TAP	16	0	2
TAP	16	96	2
TAP	16	192	3
TAP	16	288	3
TAP	17	0	4
TAP	17	96	3
TAP	17	96	4
TAP	17	192	2
TAP	17	192	5
HLD	18	0	6	192
TAP	18	192	7
HLD	19	0	1	192
TAP	19	192	0
HLD	20	0	6	192
TAP	20	192	7
HLD	21	0	0	96
HLD	21	0	1	96
TAP	21	192	0
TAP	21	192	1
HLD	22	0	2	192
TAP	22	192	3
HLD	23	0	5	192
TAP	23	192	4
HLD	24	0	2	192
TAP	24	192	3
HLD	25	0	4	96
HLD	25	0	5	96
TAP	25	192	4
TAP	25	192	5
TAP	26	0	6
TAP	26	96	6
TAP	26	192	7
TAP	27	0	1
TAP	27	96	1
TAP	27	192	0
TAP	28	0	6
TAP	28	96	6
TAP	28	192	7
TAP	28	288	7
TAP	29	0	0
TAP	29	96	0
TAP	29	192	1
TAP	29	192	7
TAP	30	0	2
TAP	30	96	2
TAP	30	192	3
TAP	31	0	5
TAP	31	96	5
TAP	31	192	4
TAP	32	0	2
TAP	32	96	2
TAP	32	192	3
TAP	32	288	3
TAP	33	0	4
TAP	33	96	4
TAP	33	192	3
TAP	33	192	5
STR	34	0	6
SI_	34	0	6	96	144	2
STR	35	0	1
SI_	35	0	1	96	144	5
STR	36	0	6
SI_	36	0	6	96	144	2
STR	37	0	1
SI_	37	0	1	96	144	4
TAP	38	0	5
TAP	38	96	5
TAP	38	192	4
TAP	38	192	5
TAP	39	0	2
TAP	39	96	2
TAP	39	192	2
TAP	39	192	3
TAP	40	0	5
BRK	40	96	5
TAP	40	192	4
TAP	40	192	5
TAP	40	288	4
TAP	40	288	5
TAP	41	0	2
TAP	41	96	2
TAP	41	192	2
TAP	41	192	3
TAP	41	288	2
TAP	41	288	3
TAP	42	0	1
TAP	42	96	1
TAP	42	192	0
TAP	42	288	0
TAP	43	0	7
TAP	43	96	7
TAP	43	192	0
TAP	43	192	6
TAP	44	0	1
BRK	44	96	1
TAP	44	192	0
TAP	44	192	1
TAP	44	288	0
TAP	44	288	1
TAP	45	0	6
TAP	45	96	6
TAP	45	192	6
TAP	45	192	7
TAP	45	288	6
TAP	45	288	7
TAP	46	0	5
TAP	46	96	5
TAP	46	192	4
TAP	46	288	4
TAP	47	0	3
TAP	47	96	3
TAP	47	96	4
TAP	47	192	2
TAP	47	192	5
TAP	48	0	1
BRK	48	96	0
BRK	48	96	1
TAP	48	192	2
TAP	48	288	2
TAP	49	0	3
TAP	49	96	4
TAP	49	192	3
TAP	49	192	5
HLD	50	0	2	96
TAP	50	96	3
TAP	50	192	2
TAP	50	192	3
HLD	51	0	5	96
TAP	51	96	4
TAP	51	192	4
TAP	51	192	5
TAP	52	0	6
BRK	52	96	6
BRK	52	96	7
TAP	52	192	5
TAP	52	288	5
TAP	53	0	4
TAP	53	96	3
TAP	53	192	2
TAP	53	192	4
TAP	54	0	5
TAP	54	96	4
TAP	54	96	5
TAP	54	192	2
TAP	54	288	2
TAP	54	288	3
TAP	55	0	4
TAP	55	96	3
TAP	55	96	4
TAP	55	192	2
TAP	55	192	5
TTP	56	0	4	E	0	L1
TTP	57	0	3	E	0	L1
TTP	57	0	5	E	0	L1
TTP	58	0	2	E	0	L1
TTP	58	0	6	E	0	L1
TTP	59	0	1	E	0	L1
TTP	59	0	7	E	0	L1
XHO	60	0	6	192
XHO	60	192	7	192
XHO	61	0	0	192
XTP	61	192	1
TAP	62	0	2
TAP	62	96	2
TAP	62	96	3
TAP	62	192	5
TAP	62	288	4
TAP	62	288	5
TAP	63	0	3
TAP	63	96	3
TAP	63	96	4
TAP	63	192	2
TAP	63	192	5
TAP	64	0	6
BRK	64	96	6
BRK	64	96	7
TAP	64	192	6
TAP	64	288	6
TAP	64	288	7
TAP	65	0	1
TAP	65	96	0
TAP	65	96	1
TAP	65	192	1
TAP	65	288	0
TAP	65	288	1
TAP	66	0	2
TAP	66	96	2
TAP	66	192	3
TAP	66	288	3
TAP	67	0	4
TAP	67	96	4
TAP	67	192	3
TAP	67	192	5
TAP	68	0	2
BRK	68	96	2
BRK	68	96	3
TAP	68	192	2
TAP	68	288	2
TAP	68	288	3
TAP	69	0	5
TAP	69	96	4
TAP	69	96	5
TAP	69	192	5
TAP	69	288	4
TAP	69	288	5
TAP	70	0	6
TAP	70	96	6
TAP	70	192	7
TAP	70	288	7
TAP	71	0	0
TAP	71	96	0
TAP	71	96	7
TAP	71	192	1
TAP	71	192	6
TAP	72	0	2
BRK	72	96	2
BRK	72	96	3
TAP	72	192	1
TAP	72	288	1
TAP	73	0	0
TAP	73	96	7
TAP	73	192	0
TAP	73	192	6
HLD	74	0	1	96
TAP	74	96	0
TAP	74	192	0
TAP	74	192	1
HLD	75	0	6	96
TAP	75	96	7
TAP	75	192	6
TAP	75	192	7
TAP	76	0	5
BRK	76	96	4
BRK	76	96	5
TAP	76	192	6
TAP	76	288	6
TAP	77	0	7
TAP	77	96	0
TAP	77	192	1
TAP	77	192	7
TAP	78	0	6
TAP	78	96	6
TAP	78	96	7
TAP	78	192	1
TAP	78	288	0
TAP	78	288	1
TAP	79	0	7
TAP	79	96	0
TAP	79	96	7
TAP	79	192	1
TAP	79	192	6
TAP	80	0	3
TAP	80	0	5
TAP	80	192	2
TAP	80	192	4
TAP	81	0	3
TAP	81	0	4
TAP	81	96	2
TAP	81	96	5
TAP	81	192	1
TAP	81	192	6
TTP	82	0	6	E	0	L1
TTP	82	96	5	B	0	L1
TTP	82	192	4	B	0	L1
TTP	83	0	2	E	0	L1
TTP	83	96	2	B	0	L1
TTP	83	192	3	B	0	L1
TTP	84	0	6	B	0	L1
TTP	84	96	5	B	0	L1
TTP	84	192	5	E	0	L1
TTP	85	0	1	B	0	L1
TTP	85	96	2	B	0	L1
TTP	85	192	3	E	0	L1
TTP	86	0	6	E	0	L1
TTP	86	96	6	B	0	L1
TTP	86	192	7	B	0	L1
TTP	87	0	2	E	0	L1
TTP	87	96	1	B	0	L1
TTP	87	192	0	B	0	L1
XTP	88	0	6
TAP	88	96	6
TAP	88	96	7
TAP	88	192	1
TAP	88	288	0
TAP	88	288	1
TAP	89	0	7
TAP	89	96	0
TAP	89	96	7
XTP	89	192	1
XTP	89	192	6
XTP	89	288	2
XTP	89	288	5

T_REC_TAP	255
T_REC_BRK	16
T_REC_XTP	6
T_REC_HLD	15
T_REC_XHO	4
T_REC_STR	4
T_REC_BST	0
T_REC_XST	0
T_REC_TTP	25
T_REC_THO	1
T_REC_SLD	4
T_REC_ALL	330
T_NUM_TAP	290
T_NUM_BRK	16
T_NUM_HLD	20
T_NUM_SLD	4
T_NUM_ALL	330
T_JUDGE_TAP	306
T_JUDGE_HLD	84
T_JUDGE_SLD	4
T_JUDGE_ALL	394
TTM_EACHPAIRS	73
TTM_SCR_TAP	145000
TTM_SCR_BRK	41600
TTM_SCR_HLD	20000
TTM_SCR_SLD	6000
TTM_SCR_ALL	212600
TTM_SCR_S	204700
TTM_SCR_SS	211000
TTM_RAT_ACV	10075

