VERSION	0.00.00	1.03.00
FES_MODE	0
BPM_DEF	164.000	164.000	164.000	164.000
MET_DEF	4	4
RESOLUTION	384
CLK_DEF	384
COMPATIBLE_CODE	MA2

BPM	0	0	164.000
MET	0	0	4	4

TAP	6	0	0
TAP	7	0	0
TAP	8	0	7
XTP	9	0	0
XTP	9	0	7
TAP	10	0	0
TAP	10	192	0
TAP	11	0	0
TAP	12	0	1
TAP	12	192	1
TAP	13	0	1
TAP	14	0	2
TAP	14	192	2
TAP	15	0	2
TAP	16	0	3
TAP	16	192	3
TAP	17	0	3
TAP	17	0	4
HLD	18	0	4	384
HLD	20	0	5	384
HLD	22	0	6	384
HLD	24	0	0	384
HLD	24	0	7	384
TAP	26	0	7
TAP	26	192	7
TAP	27	0	6
TAP	28	0	5
TAP	28	192	5
TAP	29	0	4
TAP	30	0	3
TAP	30	192	3
TAP	31	0	2
TAP	32	0	1
TAP	32	192	1
TAP	33	0	0
TAP	33	0	7
TTP	34	0	0	B	0	L1
TTP	34	0	7	B	0	L1
TTP	35	0	1	B	0	L1
TTP	35	0	6	B	0	L1
TTP	36	0	2	B	0	L1
TTP	36	0	5	B	0	L1
TTP	37	0	3	B	0	L1
TTP	37	0	4	B	0	L1
THO	38	0	0	336	C	0	L1
TAP	40	0	0
XTP	40	96	0
TAP	40	192	0
TAP	41	0	1
TAP	41	192	1
TAP	42	0	2
TAP	42	192	2
TAP	43	0	3
TAP	43	0	4
BRK	43	192	3
BRK	43	192	4
TAP	44	0	5
TAP	44	192	5
TAP	45	0	6
TAP	45	192	6
TAP	46	0	7
TAP	46	192	7
XTP	47	0	0
XTP	47	0	7
XTP	47	192	0
XTP	47	192	7
TAP	48	0	6
XTP	48	96	6
TAP	48	192	6
TAP	49	0	5
TAP	49	96	5
TAP	49	192	5
TAP	50	0	4
TAP	50	96	4
TAP	50	192	4
TAP	51	0	3
TAP	51	0	4
BRK	51	192	3
BRK	51	192	4
TAP	52	0	2
XTP	52	96	2
TAP	52	192	2
TAP	53	0	1
TAP	53	192	1
TAP	54	0	0
TAP	54	192	0
TAP	55	0	0
TAP	55	0	7
TAP	55	192	0
TAP	55	192	7
STR	56	0	0
SI_	56	0	0	96	288	3
STR	58	0	7
SI_	58	0	7	96	288	4
STR	60	0	3
SI_	60	0	3	96	288	0
TAP	62	0	7
TAP	62	192	7
XTP	63	0	0
XTP	63	0	7
TAP	64	0	0
XTP	64	96	0
TAP	64	192	0
TAP	65	0	1
TAP	65	192	0
TAP	65	192	1
TAP	66	0	2
TAP	66	96	2
TAP	66	192	2
TAP	67	0	3
BRK	67	192	3
BRK	67	192	4
TAP	68	0	4
XTP	68	96	4
TAP	68	192	4
TAP	69	0	5
TAP	69	192	4
TAP	69	192	5
TAP	70	0	6
TAP	70	96	6
TAP	70	192	6
TAP	71	0	7
TAP	71	192	0
TAP	71	192	7
TAP	72	0	6
XTP	72	96	6
TAP	72	192	6
TAP	73	0	5
TAP	73	96	5
TAP	73	192	5
TAP	74	0	4
TAP	74	96	4
TAP	74	192	4
TAP	75	0	3
BRK	75	192	3
BRK	75	192	4
TAP	76	0	2
TAP	76	96	2
TAP	76	192	2
TAP	77	0	1
TAP	77	192	1
TAP	78	0	0
TAP	78	96	0
TAP	78	192	0
TAP	79	0	7
TAP	79	96	7
TAP	79	192	7
HLD	80	0	0	192
HLD	80	0	7	192
XTP	81	0	0
XTP	81	0	7
XTP	81	96	0
XTP	81	96	7
XTP	81	192	0
XTP	81	192	7
HLD	82	0	1	192
TAP	83	0	1
TAP	83	192	2
HLD	84	0	3	192
TAP	85	0	3
TAP	85	192	3
TAP	85	192	4
HLD	86	0	5	192
TAP	87	0	5
TAP	87	192	6
TAP	88	0	7
TAP	88	96	7
TAP	88	192	7
TAP	89	0	0
TAP	89	96	0
TAP	89	192	0
TAP	89	192	7
BRK	89	288	0
BRK	89	288	7

T_REC_TAP	119
T_REC_BRK	10
T_REC_XTP	20
T_REC_HLD	10
T_REC_XHO	0
T_REC_STR	3
T_REC_BST	0
T_REC_XST	0
T_REC_TTP	8
T_REC_THO	1
T_REC_SLD	3
T_REC_ALL	174
T_NUM_TAP	150
T_NUM_BRK	10
T_NUM_HLD	11
T_NUM_SLD	3
T_NUM_ALL	174
T_JUDGE_TAP	160
T_JUDGE_HLD	67
T_JUDGE_SLD	3
T_JUDGE_ALL	230
TTM_EACHPAIRS	25
TTM_SCR_TAP	75000
TTM_SCR_BRK	26000
TTM_SCR_HLD	11000
TTM_SCR_SLD	4500
TTM_SCR_ALL	116500
TTM_SCR_S	112050
TTM_SCR_SS	115500
TTM_RAT_ACV	10086

