VERSION	0.00.00	1.03.00
FES_MODE	0
BPM_DEF	186.000	186.000	186.000	186.000
MET_DEF	4	4
RESOLUTION	384
CLK_DEF	384
COMPATIBLE_CODE	MA2

BPM	0	0	186.000
MET	0	0	4	4

TAP	1	0	5
TAP	1	48	4
TAP	1	48	5
TAP	1	144	4
TAP	1	144	5
TAP	1	240	3
TAP	1	240	6
TAP	1	336	3
TAP	1	336	6
TAP	2	48	2
TAP	2	48	7
TAP	2	144	2
TAP	2	144	7
TAP	2	240	0
TAP	2	240	1
TAP	2	288	1
TAP	2	336	0
TAP	2	336	1
TAP	3	48	6
TAP	3	48	7
TAP	3	144	6
TAP	3	144	7
TAP	3	240	0
TAP	3	240	5
TAP	3	336	0
TAP	3	336	5
TAP	4	48	1
TAP	4	48	4
TAP	4	144	1
TAP	4	144	4
TAP	4	240	2
TAP	4	240	3
TAP	4	288	2
TAP	4	336	2
TAP	4	336	3
TAP	5	48	3
TAP	5	48	5
TAP	5	144	3
TAP	5	144	5
TAP	5	240	2
TAP	5	240	6
TAP	5	336	1
TAP	5	336	7
XTP	6	0	0
XTP	6	0	6
XTP	6	144	6
XTP	6	144	7
XTP	6	264	0
XTP	6	264	7
XTP	6	336	0
XTP	6	336	1
HLD	7	0	1	480
HLD	7	0	7	480
TAP	8	144	0
TAP	8	168	0
TAP	8	192	0
TAP	8	216	0
TAP	8	240	0
BRK	8	288	2
BRK	8	288	6
TAP	9	0	2
TAP	9	48	3
TAP	9	96	1
TAP	9	144	7
TAP	9	168	1
TAP	9	192	7
TAP	9	240	6
TAP	9	288	7
TAP	9	336	5
TAP	10	0	4
TAP	10	0	5
TAP	10	48	6
TAP	10	96	3
TTP	10	144	2	B	0	M1
TTP	10	168	2	E	0	M1
TTP	10	192	1	B	0	M1
TTP	10	216	0	B	0	M1
TTP	10	240	0	E	0	M1
XTP	10	288	5
TAP	11	0	5
TAP	11	48	4
TAP	11	96	6
TAP	11	144	0
TAP	11	168	6
TAP	11	192	0
TAP	11	240	1
TAP	11	288	0
TAP	11	336	2
TAP	12	0	2
TAP	12	0	3
TAP	12	48	1
TAP	12	96	4
TTP	12	144	5	B	0	M1
TTP	12	168	6	E	0	M1
TTP	12	192	6	B	0	M1
TTP	12	216	7	B	0	M1
TTP	12	240	0	E	0	M1
XTP	12	288	2
TAP	13	0	2
TAP	13	48	3
TAP	13	96	1
TAP	13	144	7
TAP	13	168	1
TAP	13	192	7
TAP	13	240	6
TAP	13	288	7
TAP	13	336	5
TAP	14	0	4
TAP	14	0	5
TAP	14	48	6
TAP	14	96	3
TTP	14	144	2	B	0	M1
TTP	14	168	2	E	0	M1
TTP	14	192	1	B	0	M1
TTP	14	216	0	B	0	M1
TTP	14	240	0	E	0	M1
XTP	14	288	5
TAP	15	0	5
TAP	15	48	4
TAP	15	96	6
TAP	15	144	0
TAP	15	168	6
TAP	15	192	0
TAP	15	240	1
TAP	15	288	0
TAP	15	336	2
TAP	16	0	2
TAP	16	0	3
TAP	16	48	4
TAP	16	72	5
HLD	16	96	6	144
TAP	16	144	4
TAP	16	168	3
HLD	16	192	2	48
TTP	16	288	0	C	1	M1
TTP	16	288	2	B	0	M1
TTP	16	288	6	B	0	M1
TAP	17	0	1
TAP	17	48	7
TAP	17	96	1
TAP	17	144	6
TAP	17	168	6
TAP	17	192	7
TAP	17	240	5
TAP	17	288	3
TAP	17	336	4
TAP	18	0	2
TAP	18	0	3
TAP	18	48	7
TAP	18	96	0
TTP	18	144	1	B	0	M1
TTP	18	168	2	B	0	M1
TTP	18	192	3	E	0	M1
TTP	18	216	3	B	0	M1
TTP	18	240	4	B	0	M1
XTP	18	288	6
TAP	19	0	6
TAP	19	48	0
TAP	19	96	6
TAP	19	144	1
TAP	19	168	1
TAP	19	192	0
TAP	19	240	2
TAP	19	288	4
TAP	19	336	3
TAP	20	0	4
TAP	20	0	5
TAP	20	48	0
TAP	20	96	6
TAP	20	144	0
TAP	20	168	1
TTP	20	192	0	C	1	M1
BRK	20	192	2
TTP	20	288	0	C	1	M1
BRK	20	288	6
TAP	21	0	6
TAP	21	48	0
TAP	21	96	6
TAP	21	144	1
TAP	21	168	1
TAP	21	192	0
TAP	21	240	2
TAP	21	288	4
TAP	21	336	3
TAP	22	0	4
TAP	22	0	5
TAP	22	48	0
TAP	22	96	7
TTP	22	144	6	B	0	M1
TTP	22	168	5	B	0	M1
TTP	22	192	5	E	0	M1
TTP	22	216	4	B	0	M1
TTP	22	240	3	B	0	M1
XTP	22	288	1
TAP	23	0	1
TAP	23	48	7
TAP	23	96	1
TAP	23	144	6
XTP	23	192	3
XTP	23	224	3
XTP	23	256	5
XTP	23	288	5
TAP	24	0	6
TAP	24	48	3
TAP	24	48	5
TAP	24	96	4
TAP	24	144	3
TAP	24	144	5
TAP	24	192	4
TAP	24	216	3
TAP	24	240	4
TAP	24	264	3
BRK	24	288	4
HLD	25	0	3	96
STR	25	96	5
SCL	25	96	5	96	48	2
TAP	25	144	5
TAP	25	288	1
TAP	25	336	1
HLD	26	0	4	96
TAP	26	96	2
HLD	26	144	5	96
TAP	26	240	3
TAP	26	288	3
TAP	26	336	4
STR	27	0	5
SUR	27	0	5	96	96	1
STR	27	96	1
SCR	27	96	1	96	96	4
STR	27	192	4
SI_	27	192	4	96	48	0
TAP	28	0	3
TAP	28	96	3
TAP	28	96	5
TAP	28	192	2
TAP	28	192	6
TAP	28	240	2
TAP	28	240	6
TAP	28	288	3
TAP	28	288	5
TAP	28	336	3
TAP	28	336	5
HLD	29	0	2	192
TAP	29	96	5
TAP	29	144	4
TAP	29	288	3
TAP	29	336	2
HLD	30	0	1	96
TAP	30	0	4
HLD	30	96	3	48
HLD	30	144	2	48
HLD	30	192	4	48
HLD	30	240	3	48
HLD	30	288	5	48
HLD	30	336	4	48
HLD	31	0	5	48
XST	31	48	4
SCR	31	48	4	96	144	2
XTP	31	72	4
XTP	32	48	4
XTP	32	48	6
XTP	32	96	3
XTP	32	96	5
XTP	32	144	2
XTP	32	144	4
XTP	32	192	1
XTP	32	192	3
XTP	32	240	0
XTP	32	240	2
XTP	32	288	1
XTP	32	288	3
XTP	32	336	2
XTP	32	336	4
TAP	33	0	5
BRK	33	96	6
BRK	33	96	7
TAP	33	192	4
TAP	33	192	5
TAP	33	288	2
TAP	33	336	3
HLD	34	0	2	288
TAP	34	96	1
TAP	34	144	1
TAP	34	240	3
TAP	34	288	3
STR	34	336	3
SXL	34	336	3	96	144	5
SXR	34	336	3	96	144	1
STR	35	288	6
SUL	35	288	6	96	96	2
STR	36	0	2
SUL	36	0	2	96	96	6
TAP	36	192	4
TAP	36	240	4
TAP	36	288	3
TAP	36	336	3
STR	37	0	2
SUL	37	0	2	96	144	6
TAP	37	96	4
TAP	37	144	5
TAP	37	288	5
TAP	37	336	4
TAP	38	0	6
HLD	38	96	6	48
HLD	38	144	4	48
HLD	38	192	5	48
HLD	38	240	3	48
HLD	38	288	4	48
HLD	38	336	2	48
XTP	39	0	4
XTP	39	24	4
XTP	39	72	1
XTP	39	96	1
XTP	39	144	3
XTP	39	168	3
XTP	39	216	2
XTP	39	240	2
TAP	39	288	1
TAP	39	288	4
HLD	39	336	2	144
HLD	39	336	3	144
TAP	40	192	4
TAP	40	216	3
TAP	40	240	4
TAP	40	264	3
BRK	40	288	4
THO	41	0	0	1152	C	0	M1
STR	41	0	1
SUL	41	0	1	96	192	5
STR	42	0	6
SUR	42	0	6	96	192	3
STR	43	0	2
SUL	43	0	2	96	192	6
STR	44	0	7
SSR	44	0	7	96	192	3
THO	45	0	0	768	C	0	M1
STR	45	0	5
SUR	45	0	5	96	192	2
STR	46	0	1
SUL	46	0	1	96	192	5
STR	47	0	4
SUL	47	0	4	96	192	6
XHO	47	336	4	240
XHO	48	72	5	120
XTP	48	240	3
XTP	48	264	4
XTP	48	288	3
XTP	48	312	4
XTP	48	336	3
XTP	49	0	1
XTP	49	0	7
TAP	49	72	4
TAP	49	72	5
TAP	49	144	2
TAP	49	144	3
TAP	49	216	4
TAP	49	216	5
TAP	49	288	2
TAP	49	288	3
XTP	49	336	2
XTP	49	336	5
TAP	50	24	4
TAP	50	24	5
TAP	50	96	2
TAP	50	96	3
TAP	50	168	4
TAP	50	168	5
TAP	50	240	2
TAP	50	240	3
TAP	50	312	4
TAP	50	312	5
XTP	50	360	1
XTP	50	360	6
TAP	51	48	6
TAP	51	48	7
TAP	51	120	0
TAP	51	120	1
TAP	51	192	6
TAP	51	192	7
TAP	51	264	0
TAP	51	264	1
TAP	51	336	5
TAP	51	336	7
XTP	52	0	4
XTP	52	0	6
TAP	52	72	3
XTP	52	96	3
TAP	52	168	4
XTP	52	192	4
TAP	52	264	2
XTP	52	288	2
TAP	52	336	6
TAP	52	360	5
TAP	53	0	4
TAP	53	48	1
TAP	53	144	7
TAP	53	192	0
TAP	53	240	6
TAP	53	264	6
TAP	53	336	7
TAP	53	360	7
TAP	54	48	5
TAP	54	96	5
TAP	54	168	4
TAP	54	192	5
TAP	54	240	4
TAP	54	264	5
TAP	54	312	4
TAP	54	336	5
TAP	55	0	4
TAP	55	24	5
TAP	55	48	4
TAP	55	72	5
TAP	55	96	4
TAP	55	120	5
TAP	55	144	4
TAP	55	168	5
TAP	55	192	3
TAP	55	216	4
TAP	55	240	3
TAP	55	264	4
TAP	55	288	3
TAP	55	312	4
TAP	55	336	3
TAP	55	360	4
TAP	56	0	2
TAP	56	24	3
TAP	56	48	2
TAP	56	72	3
TAP	56	96	2
TAP	56	120	3
TAP	56	144	2
TAP	56	168	3
BRK	56	192	2
STR	57	0	1
SUR	57	0	1	96	288	4
TAP	57	0	4
TAP	57	96	4
TAP	57	192	5
TAP	57	288	5
TAP	58	0	6
TAP	58	96	6
TAP	58	192	7
BRK	58	288	6
TAP	59	0	3
STR	59	0	6
SUL	59	0	6	96	288	3
TAP	59	96	3
TAP	59	192	2
TAP	59	288	2
TAP	60	0	1
TAP	60	96	1
TAP	60	192	0
BRK	60	288	1
STR	61	0	1
SUR	61	0	1	96	288	4
TAP	61	0	4
TAP	61	96	4
TAP	61	192	5
TAP	61	288	5
TAP	62	0	6
TAP	62	96	6
TAP	62	192	7
BRK	62	288	6
BRK	63	0	2
TAP	63	24	3
TAP	63	48	2
TAP	63	72	3
TAP	63	96	2
BRK	63	192	5
TAP	63	216	4
TAP	63	240	5
TAP	63	264	4
TAP	63	288	5
BRK	64	0	1
TAP	64	24	3
TAP	64	48	1
TAP	64	72	3
TAP	64	96	1
BRK	64	192	6
TAP	64	216	4
TAP	64	240	6
TAP	64	264	4
TAP	64	288	6
TAP	65	0	4
TAP	65	0	5
TAP	65	96	2
TAP	65	96	3
TAP	65	192	4
TAP	65	192	5
TAP	65	288	2
TAP	65	288	3
TAP	65	360	4
TAP	65	360	5
TAP	66	48	1
TAP	66	48	3
TAP	66	120	2
TAP	66	120	4
TAP	66	192	3
TAP	66	192	5
TAP	66	264	4
TAP	66	264	6
TAP	66	336	5
STR	66	336	7
SI_	66	336	7	96	528	3
TTP	68	288	0	C	1	M1
TAP	69	0	1
TAP	69	24	7
TAP	69	48	1
TAP	69	72	7
TAP	69	96	1
TAP	69	144	2
TAP	69	144	7
TAP	69	192	1
TAP	69	216	0
TAP	69	240	1
TAP	69	264	0
TAP	69	288	7
TAP	69	312	6
TAP	69	336	5
TAP	69	360	4
TAP	70	0	7
TAP	70	24	0
TAP	70	48	1
TAP	70	72	7
TAP	70	96	6
TAP	70	120	5
TAP	70	144	4
TAP	70	168	3
TAP	70	192	7
TAP	70	216	0
TAP	70	240	1
TAP	70	264	2
TAP	70	288	3
TAP	71	0	6
TAP	71	24	0
TAP	71	48	6
TAP	71	72	0
TAP	71	96	6
TAP	71	144	0
TAP	71	144	5
TAP	71	192	6
TAP	71	216	7
TAP	71	240	6
TAP	71	264	7
TAP	71	288	0
TAP	71	312	1
TAP	71	336	2
TAP	71	360	3
TAP	72	0	0
TAP	72	24	7
TAP	72	48	6
TAP	72	72	0
TAP	72	96	1
TAP	72	120	2
TAP	72	144	3
TAP	72	168	4
TAP	72	192	0
TAP	72	216	7
TAP	72	240	6
TAP	72	264	5
TAP	72	288	4
TAP	73	0	1
TAP	73	24	0
TAP	73	48	2
TAP	73	72	7
TAP	73	96	1
TAP	73	120	0
TAP	73	144	2
TAP	73	168	7
TAP	73	192	1
TAP	73	216	0
TAP	73	240	2
TAP	73	264	7
TAP	73	288	1
TAP	73	312	0
TAP	73	336	2
TAP	73	360	7
TAP	74	0	6
TAP	74	24	5
TAP	74	48	4
TAP	74	72	0
TAP	74	96	1
TAP	74	120	2
TAP	74	144	0
TAP	74	168	7
TAP	74	192	6
TAP	74	216	0
TAP	74	240	1
TAP	74	264	2
TAP	74	288	7
TAP	74	312	6
TAP	74	336	5
TAP	74	360	4
TAP	75	0	2
TAP	75	24	3
TAP	75	48	2
TAP	75	72	3
TAP	75	96	2
TAP	75	144	1
TAP	75	144	5
TAP	75	192	0
TAP	75	216	6
TAP	75	240	0
TAP	75	264	6
TAP	75	288	0
TAP	75	312	1
TAP	75	336	2
TAP	75	360	3
TAP	76	0	0
TAP	76	24	7
TAP	76	48	6
TAP	76	72	0
TAP	76	96	1
TAP	76	120	2
TAP	76	144	3
XTP	76	192	6
XTP	76	224	6
XTP	76	256	1
XTP	76	288	1
TTP	77	0	0	C	1	M1
TAP	77	96	7
TAP	77	144	2
TAP	77	192	6
TAP	77	216	0
TAP	77	240	6
TAP	77	264	0
TAP	77	288	7
TTP	77	312	1	E	0	M1
TTP	77	336	2	E	0	M1
TTP	77	360	3	E	0	M1
TTP	78	0	7	E	0	M1
TTP	78	24	6	E	0	M1
TTP	78	48	5	E	0	M1
TTP	78	72	0	E	0	M1
TTP	78	96	0	C	0	M1
TTP	78	120	4	E	0	M1
TAP	78	144	7
TAP	78	192	1
TAP	78	216	0
TAP	78	240	1
TAP	78	264	0
TAP	78	288	1
TAP	79	0	6
TAP	79	24	7
TAP	79	48	6
TAP	79	72	7
TAP	79	96	6
TAP	79	144	1
TAP	79	192	0
TAP	79	192	5
TAP	79	264	2
TAP	79	264	7
TAP	79	336	0
TAP	79	336	5
TAP	80	24	2
TAP	80	24	3
TAP	80	96	0
TAP	80	96	7
TAP	80	168	3
TAP	80	168	5
TAP	80	240	1
TAP	80	240	7
TAP	80	288	0
TAP	80	288	6
TAP	81	0	1
TAP	81	24	7
TAP	81	48	1
TAP	81	72	7
TTP	81	96	2	E	0	M1
TTP	81	120	2	B	0	M1
TTP	81	144	3	B	0	M1
TTP	81	168	4	E	0	M1
TAP	81	192	7
TAP	81	216	1
TAP	81	240	7
TAP	81	264	1
TTP	81	288	7	E	0	M1
TTP	81	312	6	B	0	M1
TTP	81	336	5	B	0	M1
TTP	81	360	5	E	0	M1
TTP	82	0	0	E	0	M1
TTP	82	24	0	C	0	M1
TTP	82	48	4	E	0	M1
TTP	82	72	7	E	0	M1
TTP	82	96	6	E	0	M1
TTP	82	120	5	E	0	M1
TTP	82	144	1	E	0	M1
TTP	82	168	2	E	0	M1
TTP	82	192	3	E	0	M1
TTP	82	216	0	E	0	M1
TTP	82	240	0	C	0	M1
TTP	82	264	4	E	0	M1
TAP	82	288	3
TAP	82	312	2
TAP	82	336	1
TAP	82	360	0
TAP	83	0	3
TAP	83	0	7
TAP	83	48	3
TAP	83	48	7
TAP	83	96	0
TAP	83	96	4
TAP	83	144	0
TAP	83	144	4
TAP	83	192	1
TAP	83	192	5
TAP	83	240	1
TAP	83	240	5
TAP	83	288	2
TAP	83	288	6
TAP	83	336	2
TAP	83	336	6
STR	84	0	3
SCL	84	0	3	96	192	4
TAP	84	0	7
TAP	85	0	3
TAP	85	24	3
TAP	85	48	3
TAP	85	72	3
TAP	85	96	3
TAP	85	144	2
TAP	85	144	4
TAP	85	192	3
TAP	85	216	3
TAP	85	240	3
TAP	85	264	3
TAP	85	288	3
TAP	85	312	3
TAP	85	336	3
TAP	85	360	3
TAP	86	0	3
TAP	86	24	3
TAP	86	48	3
TAP	86	72	3
TAP	86	96	3
TAP	86	120	3
TAP	86	144	3
TAP	86	168	3
TAP	86	192	3
TAP	86	216	3
TAP	86	240	3
TAP	86	264	3
BRK	86	288	3
TAP	87	0	4
TAP	87	24	4
TAP	87	48	4
TAP	87	72	4
TAP	87	96	4
TAP	87	144	3
TAP	87	144	5
TAP	87	192	4
TAP	87	216	4
TAP	87	240	4
TAP	87	264	4
TAP	87	288	4
TAP	87	312	4
TAP	87	336	4
TAP	87	360	4
TAP	88	0	4
TAP	88	24	4
TAP	88	48	4
TAP	88	72	4
TAP	88	96	4
TAP	88	120	4
TAP	88	144	4
TAP	88	168	4
TAP	88	192	4
TAP	88	216	4
TAP	88	240	4
TAP	88	264	4
BRK	88	288	4
TAP	89	0	2
TAP	89	24	2
TAP	89	48	2
TAP	89	72	2
TAP	89	96	2
TAP	89	120	2
TAP	89	144	2
TAP	89	168	2
TAP	89	192	2
TAP	89	216	2
TAP	89	240	2
TAP	89	264	2
TAP	89	288	2
TAP	89	312	2
TAP	89	336	2
TAP	89	360	2
TAP	90	0	2
TAP	90	24	2
TAP	90	48	2
TAP	90	72	2
TAP	90	96	2
TAP	90	120	2
TAP	90	144	2
TAP	90	168	2
TAP	90	192	2
TAP	90	216	2
TAP	90	240	2
TAP	90	264	2
BRK	90	288	2
TAP	91	0	5
TAP	91	24	5
TAP	91	48	5
TAP	91	72	5
TAP	91	96	5
TAP	91	120	5
TAP	91	144	5
TAP	91	168	5
TAP	91	192	5
TAP	91	216	5
TAP	91	240	5
TAP	91	264	5
TAP	91	288	5
TAP	91	312	5
TAP	91	336	5
TAP	91	360	5
TAP	92	0	5
TAP	92	24	5
TAP	92	48	5
TAP	92	72	5
TAP	92	96	5
TAP	92	120	5
TAP	92	144	5
TAP	92	168	5
TAP	92	192	5
TAP	92	216	5
TAP	92	240	5
TAP	92	264	5
BRK	92	288	5
BRK	93	0	3
BRK	93	0	5
BRK	93	96	1
BRK	93	96	3
BRK	93	144	1
BRK	93	144	3
BRK	93	216	6
BRK	93	216	7
BRK	93	288	0
BRK	93	288	7
BRK	93	360	0
BRK	93	360	1
BRK	94	48	2
BRK	94	48	7
BRK	94	120	1
BRK	94	120	6
BRK	94	192	0
BRK	94	192	5
TTP	94	264	0	C	1	M1
BRK	95	0	2
BRK	95	0	4
BRK	95	96	3
BRK	95	96	5
BRK	95	168	4
BRK	95	168	6
BRK	95	240	0
BRK	95	240	1
BRK	95	312	0
BRK	95	312	7
BRK	96	0	6
BRK	96	0	7
BRK	96	72	0
BRK	96	72	5
BRK	96	144	1
BRK	96	144	6
BRK	96	216	2
BRK	96	216	7
TTP	96	288	0	C	1	M1
TAP	97	0	7
TAP	97	72	0
TAP	97	96	0
TAP	97	168	7
TAP	97	192	6
TAP	97	216	5
TAP	97	240	4
TAP	97	288	7
TAP	97	312	0
TAP	97	336	1
TAP	97	360	2
TAP	98	0	3
TAP	98	24	5
TAP	98	48	3
TAP	98	72	5
TAP	98	96	2
TAP	98	120	6
TAP	98	144	2
TAP	98	168	6
TAP	98	192	1
TAP	98	216	7
TAP	98	240	1
TAP	98	264	7
TAP	98	288	1
TAP	98	312	7
TAP	98	336	1
TAP	98	360	7
TAP	99	0	0
TAP	99	48	0
TAP	99	96	0
TAP	99	144	0
TAP	99	168	7
TAP	99	192	0
TAP	99	264	7
TAP	99	288	0
TAP	99	336	0
TAP	100	0	0
TAP	100	24	0
TAP	100	48	0
TAP	100	72	0
TAP	100	96	0
TAP	100	144	0
TAP	100	168	0
BRK	100	192	0
TTP	100	288	0	C	1	M1
STR	101	0	0
SSR	101	0	0	96	480	4
STR	101	0	7
SSL	101	0	7	96	480	3
STR	103	0	4
SI_	103	0	4	96	480	7
SXR	103	0	4	96	480	4
STR	105	0	3
SSL	105	0	3	96	480	7
STR	105	0	4
SSR	105	0	4	96	480	0
TAP	107	0	0
TAP	107	0	7
XTP	107	96	2
XTP	107	96	5
XTP	107	240	0
XTP	107	240	3
XTP	108	0	4
XTP	108	0	7
XTP	108	144	1
XTP	108	144	6
XTP	108	192	0
XTP	108	192	7
TTP	108	288	0	C	1	M1
XTP	109	96	5
XTP	109	108	4
XTP	109	120	5
XTP	109	132	4
XTP	109	144	5
TAP	109	288	4
TAP	109	312	4
TAP	109	336	4
TAP	109	360	4
TAP	110	0	4
XTP	110	96	2
XTP	110	108	3
XTP	110	120	2
XTP	110	132	3
XTP	110	144	2
TAP	110	288	3
TAP	110	312	3
TAP	110	336	3
TAP	110	360	3
TAP	111	0	3
TAP	111	96	5
TAP	111	120	5
TAP	111	144	5
TAP	111	168	5
TAP	111	192	5
TAP	111	288	2
TAP	111	312	2
TAP	111	336	2
TAP	111	360	2
TAP	112	0	2
TAP	112	96	6
TAP	112	120	6
TAP	112	144	6
TAP	112	168	6
TAP	112	192	6
TAP	112	288	1
TAP	112	312	1
TAP	112	336	1
TAP	112	360	1
TAP	113	0	1
TAP	113	96	7
TAP	113	192	7
TAP	113	216	7
TAP	113	240	7
TAP	113	264	7
TAP	113	288	7
TAP	113	312	7
TAP	113	336	7
TAP	113	360	7
TAP	114	0	7
TAP	114	96	0
TAP	114	192	0
TAP	114	216	0
TAP	114	240	0
TAP	114	264	0
TAP	114	288	0
TAP	114	312	0
TAP	114	336	0
TAP	114	360	0
TAP	115	0	0
TAP	115	96	0
TAP	115	192	0
TAP	115	216	0
TAP	115	240	0
TAP	115	264	0
TAP	115	288	0
TAP	115	312	0
TAP	115	336	0
TAP	115	360	0
BRK	116	0	0
TAP	116	24	0
TAP	116	48	0
TAP	116	72	0
TAP	116	96	0
TAP	116	120	0
TAP	116	144	0
TAP	116	168	0
BRK	116	192	0
TAP	116	216	0
TAP	116	240	0
TAP	116	264	0
TAP	116	288	0
TAP	116	312	0
TAP	116	336	0
TAP	116	360	0
BRK	117	0	0
TAP	117	24	0
TAP	117	48	0
TAP	117	72	0
BRK	117	96	0
TAP	117	120	0
TAP	117	144	0
TAP	117	168	0
BRK	117	192	0
TAP	117	216	0
TAP	117	240	0
TAP	117	264	0
BRK	117	288	0
TAP	117	312	0
TAP	117	336	0
TAP	117	360	0
BRK	118	0	0
TAP	118	24	0
BRK	118	48	0
TAP	118	72	0
BRK	118	96	0
TAP	118	120	0
BRK	118	144	0
TAP	118	168	0
BRK	118	192	0
BRK	118	216	0
BRK	118	240	0
BRK	118	264	0
BST	118	288	0
SF_	118	288	0	96	48	4
BRK	119	0	0
TTP	119	0	0	C	1	M1

T_REC_TAP	751
T_REC_BRK	72
T_REC_XTP	80
T_REC_HLD	25
T_REC_XHO	2
T_REC_STR	25
T_REC_BST	1
T_REC_XST	1
T_REC_TTP	66
T_REC_THO	2
T_REC_SLD	29
T_REC_ALL	1054
T_NUM_TAP	923
T_NUM_BRK	73
T_NUM_HLD	29
T_NUM_SLD	29
T_NUM_ALL	1054
T_JUDGE_TAP	996
T_JUDGE_HLD	109
T_JUDGE_SLD	29
T_JUDGE_ALL	1134
TTM_EACHPAIRS	131
TTM_SCR_TAP	461500
TTM_SCR_BRK	189800
TTM_SCR_HLD	29000
TTM_SCR_SLD	43500
TTM_SCR_ALL	723800
TTM_SCR_S	695050
TTM_SCR_SS	716500
TTM_RAT_ACV	10101

