VERSION	0.00.00	1.03.00
FES_MODE	0
BPM_DEF	186.000	186.000	186.000	186.000
MET_DEF	4	4
RESOLUTION	384
CLK_DEF	384
COMPATIBLE_CODE	MA2

BPM	0	0	186.000
MET	0	0	4	4

BST	1	0	1
SI_	1	0	1	96	480	5
BRK	1	0	6
STR	3	0	6
SI_	3	0	6	96	480	2
XST	5	0	0
SCR	5	0	0	96	192	3
XST	6	0	7
SCL	6	0	7	96	192	4
TTP	7	0	3	E	0	M1
TTP	7	48	2	B	0	M1
TTP	7	96	1	B	0	M1
TTP	7	144	1	E	0	M1
TTP	7	192	7	E	0	M1
TTP	7	240	6	B	0	M1
TTP	7	288	5	B	0	M1
TTP	7	336	5	E	0	M1
TTP	8	0	2	B	0	M1
TTP	8	0	2	E	0	M1
TTP	8	96	6	B	0	M1
TTP	8	96	6	E	0	M1
TTP	8	192	0	B	0	M1
TTP	8	192	0	E	0	M1
BRK	8	288	3
BRK	8	288	4
HLD	9	0	2	96
TAP	9	96	3
HLD	9	192	4	96
TAP	9	288	3
HLD	10	0	1	192
TAP	10	96	2
TAP	10	192	2
TAP	10	288	3
TAP	10	288	4
HLD	11	0	5	96
TAP	11	96	4
HLD	11	192	3	96
TAP	11	288	4
HLD	12	0	6	192
TAP	12	96	5
TAP	12	192	5
TAP	12	288	3
TAP	12	288	4
HLD	13	0	2	96
TAP	13	96	3
HLD	13	192	5	96
TAP	13	288	4
HLD	14	0	3	96
TAP	14	96	4
TAP	14	192	2
TAP	14	192	3
TAP	14	288	4
TAP	14	288	5
HLD	15	0	6	96
TAP	15	96	7
HLD	15	192	1	96
TAP	15	288	0
TAP	16	0	0
TAP	16	0	7
TAP	16	96	1
TAP	16	96	6
TTP	16	192	0	C	1	M1
TAP	17	0	7
TAP	17	96	0
TAP	17	96	6
TAP	17	192	5
TAP	17	288	4
TAP	17	288	6
HLD	18	0	3	192
TAP	18	96	2
TAP	18	192	2
TAP	18	288	1
TAP	18	288	4
TAP	19	0	0
TAP	19	96	1
TAP	19	96	7
TAP	19	192	2
TAP	19	288	1
TAP	19	288	3
HLD	20	0	0	96
HLD	20	0	4	96
BRK	20	192	3
BRK	20	192	7
BRK	20	288	0
BRK	20	288	4
TAP	21	0	7
TAP	21	96	0
TAP	21	96	6
TAP	21	192	2
TAP	21	288	1
TAP	21	288	3
HLD	22	0	4	192
TAP	22	96	5
TAP	22	192	5
TAP	22	288	3
TAP	22	288	6
TAP	23	0	7
STR	23	96	0
SCR	23	96	0	96	72	3
STR	23	96	7
SCL	23	96	7	96	72	4
BRK	24	0	1
BRK	24	0	6
BRK	24	96	2
BRK	24	96	5
STR	24	192	3
SI_	24	192	3	96	48	0
STR	24	192	4
SI_	24	192	4	96	48	7
XTP	25	0	1
XTP	25	0	6
STR	25	96	2
SCR	25	96	2	96	96	5
TAP	26	0	6
TAP	26	96	6
TAP	26	96	7
TAP	26	192	1
TAP	26	288	0
STR	26	288	1
SUR	26	288	1	96	240	3
TAP	28	0	4
TAP	28	96	3
TAP	28	96	4
TAP	28	192	2
TAP	28	240	2
TAP	28	288	3
TAP	29	0	1
TAP	29	0	4
TAP	29	96	5
STR	29	192	6
SUL	29	192	6	96	96	2
STR	30	0	1
SUR	30	0	1	96	96	5
TAP	30	192	6
STR	30	288	6
SUL	30	288	6	96	240	4
TAP	30	288	7
TAP	32	0	3
TAP	32	96	3
TAP	32	96	4
TAP	32	192	5
TAP	32	240	5
TAP	32	288	4
STR	33	0	3
SI_	33	0	3	96	48	0
TAP	33	0	6
TAP	33	192	7
TAP	33	288	0
TAP	33	288	7
TAP	34	0	2
TAP	34	96	1
TAP	34	96	3
TAP	34	192	5
STR	34	288	4
SUR	34	288	4	96	240	6
TAP	34	288	6
TAP	36	0	6
TAP	36	96	6
TAP	36	96	7
TAP	36	192	5
TAP	36	240	5
TAP	36	288	4
TAP	37	0	3
TAP	37	0	6
TAP	37	96	2
STR	37	192	1
SUR	37	192	1	96	96	5
STR	38	0	6
SUL	38	0	6	96	96	2
TAP	38	192	1
TAP	38	288	1
STR	38	288	3
SUL	38	288	3	96	240	1
TAP	40	0	0
TAP	40	48	0
TAP	40	96	0
TAP	40	144	0
TAP	40	192	0
TAP	40	240	0
XTP	40	288	1
XTP	40	288	7
TAP	41	0	2
HLD	41	0	6	192
HLD	41	192	4	96
TAP	41	288	5
TAP	41	336	4
HLD	42	0	3	192
HLD	42	0	5	192
TAP	42	288	3
HLD	43	0	1	192
TAP	43	0	5
HLD	43	192	3	96
TAP	43	288	2
TAP	43	336	3
HLD	44	0	2	192
HLD	44	0	4	192
TAP	44	288	3
TAP	44	288	5
TAP	45	0	2
HLD	45	0	6	192
TAP	45	96	3
HLD	45	192	4	96
TAP	45	288	5
TAP	46	0	3
TAP	46	0	5
TAP	46	96	4
TAP	46	192	3
TAP	46	288	2
TAP	46	288	4
HLD	47	0	1	192
TAP	47	0	5
TAP	47	96	4
HLD	47	192	3	96
TAP	47	288	2
TAP	48	0	2
STR	48	0	4
SCR	48	0	4	96	192	3
TAP	49	0	2
TAP	49	72	3
TAP	49	144	4
TAP	49	216	5
XTP	49	288	4
XTP	49	288	6
XTP	49	336	4
XTP	49	336	6
TAP	50	24	5
TAP	50	96	4
TAP	50	168	3
TAP	50	240	2
XTP	50	312	1
XTP	50	312	3
XTP	50	360	1
XTP	50	360	3
TAP	51	48	0
TAP	51	120	1
TAP	51	192	2
TAP	51	264	3
XTP	51	336	2
XTP	51	336	4
XTP	52	0	2
XTP	52	0	4
TAP	52	72	3
TAP	52	96	4
TAP	52	168	3
TAP	52	192	4
TAP	52	264	3
TAP	52	288	4
XTP	53	0	2
XTP	53	0	3
XTP	53	48	2
XTP	53	48	3
TAP	53	120	1
TAP	53	192	0
TAP	53	264	7
TAP	53	336	6
XTP	54	0	4
XTP	54	0	5
XTP	54	48	4
XTP	54	48	5
TAP	54	120	6
TAP	54	192	7
TAP	54	264	0
TAP	54	336	1
HLD	55	0	2	48
HLD	55	0	3	48
HLD	55	96	0	48
HLD	55	96	1	48
HLD	55	192	6	48
HLD	55	192	7	48
HLD	55	288	4	48
HLD	55	288	5	48
TAP	56	0	3
TAP	56	48	3
TAP	56	96	3
TAP	56	144	3
STR	56	192	3
SI_	56	192	3	96	48	7
TAP	56	240	3
XTP	57	0	0
TAP	57	0	6
TAP	57	96	6
TAP	57	192	6
TAP	57	288	6
TAP	58	0	1
XTP	58	0	5
TAP	58	96	1
TAP	58	192	1
TAP	58	288	1
XTP	59	0	2
TAP	59	0	4
TAP	59	96	4
TAP	59	192	4
TAP	59	288	4
TAP	60	0	3
XTP	60	0	5
TAP	60	96	3
TAP	60	192	3
TAP	60	288	3
TAP	61	0	4
TAP	61	96	3
TAP	61	96	4
TAP	61	192	2
TAP	61	288	2
TAP	61	288	3
TAP	62	0	5
TAP	62	96	4
TAP	62	96	5
TAP	62	192	3
TAP	62	288	3
TAP	62	288	4
BRK	63	0	4
XTP	63	0	6
XTP	63	192	1
BRK	63	192	3
XTP	64	0	5
BRK	64	0	6
BRK	64	192	1
XTP	64	192	2
XTP	65	0	6
XTP	65	0	7
XTP	65	96	0
XTP	65	96	1
XTP	65	192	4
XTP	65	192	5
XHO	65	288	2	72
XTP	65	288	3
XHO	65	360	1	72
XHO	66	48	0	72
XHO	66	120	7	72
XHO	66	192	6	72
XHO	66	264	5	72
XTP	66	336	4
XST	67	0	4
SCR	67	0	4	96	480	3
BRK	68	288	1
BRK	68	288	6
TAP	69	0	7
TAP	69	48	7
TAP	69	96	0
HLD	69	96	6	96
TAP	69	192	2
TAP	69	240	2
TAP	69	288	3
TAP	69	336	1
HLD	70	0	7	96
TAP	70	96	0
TAP	70	144	0
TAP	70	192	5
TAP	70	240	5
TAP	70	288	4
TAP	70	288	6
TAP	71	0	0
TAP	71	48	0
HLD	71	96	1	96
TAP	71	96	7
TAP	71	192	5
TAP	71	240	5
TAP	71	288	4
TAP	71	336	6
HLD	72	0	0	96
TAP	72	96	7
TAP	72	144	7
TAP	72	192	2
TAP	72	240	2
TAP	72	288	1
TAP	72	288	3
STR	73	0	7
SCL	73	0	7	96	72	4
TAP	73	192	2
TAP	73	240	2
TAP	73	288	3
TAP	73	336	3
STR	74	0	0
SCR	74	0	0	96	72	3
TAP	74	192	5
TAP	74	240	5
TAP	74	288	4
TAP	74	288	6
HLD	75	0	7	96
TAP	75	96	0
TAP	75	144	1
TAP	75	192	2
TAP	75	240	3
TAP	75	288	4
TAP	75	336	5
TAP	76	0	6
TAP	76	48	7
STR	76	96	0
SSL	76	96	0	96	120	4
TTP	77	0	0	C	1	M1
TAP	77	192	6
TAP	77	288	6
TAP	77	288	7
TAP	78	0	1
TAP	78	96	0
TAP	78	96	1
TAP	78	192	7
TAP	78	240	7
TAP	78	288	0
TAP	79	0	1
TAP	79	0	6
TAP	79	96	2
TAP	79	96	3
XTP	79	192	4
XHO	79	192	5	72
XHO	79	264	6	72
XHO	79	336	7	72
XHO	80	24	0	72
XHO	80	96	1	72
XHO	80	168	2	72
XTP	80	240	3
XST	80	288	3
SI_	80	288	3	96	48	7
XTP	81	96	0
XTP	81	96	6
TAP	81	192	2
TAP	81	192	4
TAP	81	288	1
TAP	81	288	7
TAP	82	0	3
TAP	82	0	5
TAP	82	96	0
TAP	82	96	7
XTP	82	192	1
XTP	82	192	6
BRK	82	240	1
BRK	82	240	6
TAP	83	0	6
TAP	83	48	6
TAP	83	96	4
TAP	83	144	4
TAP	83	192	3
TAP	83	240	3
STR	83	288	1
SXR	83	288	1	96	288	6
TAP	83	336	1
TAP	85	0	4
TAP	85	0	5
TAP	85	96	3
TAP	85	96	6
TAP	85	192	2
TAP	85	240	2
TAP	85	288	3
TAP	85	336	3
TAP	86	0	2
TAP	86	96	1
TAP	86	96	4
TAP	86	192	5
TAP	86	240	5
TAP	86	288	4
TAP	86	336	4
TAP	87	0	6
TAP	87	96	6
TAP	87	96	7
TAP	87	192	1
TAP	87	240	1
TAP	87	288	0
TAP	87	336	0
TAP	88	0	1
TAP	88	96	2
TAP	88	96	7
TAP	88	192	6
TAP	88	240	6
TAP	88	288	7
TAP	88	336	7
TAP	89	0	6
TAP	89	96	0
TAP	89	96	5
TAP	89	192	1
TAP	89	240	1
TAP	89	288	3
TAP	89	336	3
TAP	90	0	2
TAP	90	96	1
TAP	90	96	4
TAP	90	192	6
TAP	90	240	6
TAP	90	288	4
TAP	90	336	4
TAP	91	0	5
TAP	91	96	1
TAP	91	96	3
TAP	91	192	4
TAP	91	192	6
STR	91	288	0
SXL	91	288	0	96	288	3
STR	91	288	7
SXR	91	288	7	96	288	4
BRK	93	0	1
BRK	93	0	6
TAP	93	96	0
TAP	93	144	0
TAP	93	216	6
XTP	93	216	7
XTP	93	288	0
TAP	93	288	1
TAP	93	360	6
XTP	93	360	7
XTP	94	48	0
TAP	94	48	1
TAP	94	120	6
XTP	94	120	7
XTP	94	192	0
TAP	94	192	1
XTP	94	264	7
XTP	94	288	0
TAP	95	0	1
TAP	95	0	6
TAP	95	48	1
TAP	95	48	6
TAP	95	96	1
TAP	95	96	6
TAP	95	168	2
XTP	95	168	3
XTP	95	240	4
TAP	95	240	5
TAP	95	312	2
XTP	95	312	3
XTP	96	0	4
TAP	96	0	5
TAP	96	72	2
XTP	96	72	3
XTP	96	144	4
TAP	96	144	5
TAP	96	216	2
XTP	96	216	3
TAP	96	288	1
TAP	96	288	6
TAP	96	336	1
TAP	96	336	6
TAP	97	0	1
TAP	97	0	6
XTP	97	72	0
XTP	97	72	2
XTP	97	144	5
XTP	97	144	7
XTP	97	216	0
XTP	97	216	2
XTP	97	288	5
XTP	97	288	7
TAP	97	336	3
TAP	98	0	2
TAP	98	48	1
TAP	98	96	0
TAP	98	144	7
TAP	98	192	6
TAP	98	240	5
STR	98	288	4
SCR	98	288	4	96	480	3
SUL	98	288	4	96	480	3
TAP	98	336	3
TTP	100	192	0	C	1	M1
TTP	100	192	2	E	0	M1
TTP	100	192	6	E	0	M1
TAP	101	0	0
TAP	101	192	1
TAP	102	0	2
TAP	102	192	3
TAP	103	0	4
TAP	103	192	5
TAP	104	0	6
XHO	104	192	7	96
XHO	105	0	6	96
HLD	105	192	5	96
XTP	105	288	4
HLD	106	0	4	96
XHO	106	192	3	96
TAP	107	0	2
TAP	107	0	4
XHO	107	96	3	96
XHO	107	96	5	96
XHO	107	240	2	96
XHO	107	240	6	96
XHO	108	0	1	96
XHO	108	0	7	96
STR	108	144	0
SF_	108	144	0	96	72	4
HLD	109	0	2	96
HLD	109	0	6	96
HLD	109	144	3	96
HLD	109	144	5	96
TAP	109	288	2
TAP	109	288	4
TAP	109	336	2
TAP	109	336	4
HLD	110	0	1	96
HLD	110	0	5	96
HLD	110	144	2	96
HLD	110	144	4	96
TAP	110	288	3
TAP	110	288	5
TAP	110	336	3
TAP	110	336	5
STR	111	0	2
SI_	111	0	2	96	48	4
TAP	111	0	6
TAP	111	96	5
STR	111	192	6
SI_	111	192	6	96	48	4
TAP	111	288	3
STR	112	0	1
SI_	112	0	1	96	48	3
TAP	112	96	4
STR	112	192	5
SI_	112	192	5	96	48	3
TAP	112	288	2
STR	113	0	1
SI_	113	0	1	96	48	5
TAP	113	192	7
TAP	113	240	7
TAP	113	288	7
TAP	113	336	7
TAP	114	0	0
STR	114	0	6
SI_	114	0	6	96	48	2
TAP	114	192	0
TAP	114	240	0
TAP	114	288	0
TAP	114	336	0
STR	115	0	1
SI_	115	0	1	96	48	5
TAP	115	0	7
TAP	115	192	7
TAP	115	240	7
TAP	115	288	7
TAP	115	336	7
XTP	116	0	0
TAP	116	0	1
TAP	116	48	1
TAP	116	96	1
TAP	116	144	1
TAP	116	192	6
XTP	116	192	7
TAP	116	240	6
TAP	116	288	6
TAP	116	336	6
XTP	117	0	0
HLD	117	0	7	672
TAP	117	48	0
TAP	117	96	0
TAP	117	144	0
TAP	117	192	0
TAP	117	240	0
TAP	117	288	0
TAP	117	336	0
HLD	118	0	0	24
HLD	118	48	0	24
HLD	118	96	0	24
HLD	118	144	0	24
HLD	118	192	0	24
HLD	118	240	0	24
BST	118	288	0
SF_	118	288	0	96	48	4
TTP	119	0	0	C	1	M1

T_REC_TAP	385
T_REC_BRK	21
T_REC_XTP	73
T_REC_HLD	57
T_REC_XHO	21
T_REC_STR	32
T_REC_BST	2
T_REC_XST	4
T_REC_TTP	20
T_REC_THO	0
T_REC_SLD	39
T_REC_ALL	654
T_NUM_TAP	514
T_NUM_BRK	23
T_NUM_HLD	78
T_NUM_SLD	39
T_NUM_ALL	654
T_JUDGE_TAP	537
T_JUDGE_HLD	178
T_JUDGE_SLD	39
T_JUDGE_ALL	754
TTM_EACHPAIRS	148
TTM_SCR_TAP	257000
TTM_SCR_BRK	59800
TTM_SCR_HLD	78000
TTM_SCR_SLD	58500
TTM_SCR_ALL	453300
TTM_SCR_S	437500
TTM_SCR_SS	451000
TTM_RAT_ACV	10050

