VERSION	0.00.00	1.03.00
FES_MODE	0
BPM_DEF	186.000	186.000	186.000	186.000
MET_DEF	4	4
RESOLUTION	384
CLK_DEF	384
COMPATIBLE_CODE	MA2

BPM	0	0	186.000
MET	0	0	4	4

HLD	1	0	1	192
HLD	2	0	2	192
HLD	3	0	3	192
HLD	4	0	4	192
HLD	5	0	5	192
HLD	6	0	6	192
TAP	7	0	7
TAP	7	96	7
TAP	7	192	7
XTP	8	0	0
XTP	8	0	7
XTP	8	192	0
XTP	8	192	7
HLD	9	0	6	192
TAP	9	192	7
TAP	10	0	6
TAP	10	96	6
TAP	10	192	6
HLD	11	0	5	192
TAP	11	192	4
TAP	12	0	3
TAP	12	0	4
TAP	12	96	3
TAP	12	96	4
TAP	12	192	3
TAP	12	192	4
HLD	13	0	2	192
TAP	13	192	3
TAP	14	0	2
TAP	14	96	2
TAP	14	192	2
HLD	15	0	1	192
TAP	15	192	0
TAP	16	0	1
TAP	16	96	1
BRK	16	192	1
TAP	17	0	2
TAP	17	96	2
TAP	17	192	3
TAP	17	288	3
TAP	18	0	4
TAP	18	96	4
TAP	18	192	4
TAP	19	0	3
TAP	19	96	3
TAP	19	192	4
TAP	19	288	4
TAP	20	0	5
TAP	20	96	5
XTP	20	192	6
TAP	21	0	5
TAP	21	96	5
TAP	21	192	4
TAP	21	288	4
TAP	22	0	3
TAP	22	96	3
TAP	22	192	3
TAP	23	0	4
TAP	23	96	4
TAP	23	192	3
TAP	23	288	3
TAP	24	0	2
TAP	24	96	2
XTP	24	192	1
STR	25	0	1
SI_	25	0	1	96	192	5
STR	26	0	6
SI_	26	0	6	96	192	3
STR	27	0	1
SI_	27	0	1	96	192	4
TAP	28	0	5
TAP	28	96	5
TAP	28	192	4
TAP	28	192	5
STR	29	0	6
SI_	29	0	6	96	192	2
STR	30	0	1
SI_	30	0	1	96	192	4
STR	31	0	6
SI_	31	0	6	96	192	3
TAP	32	0	2
TAP	32	96	2
TAP	32	192	2
TAP	32	192	3
STR	33	0	1
SI_	33	0	1	96	192	4
STR	34	0	5
SI_	34	0	5	96	192	0
STR	35	0	1
SI_	35	0	1	96	192	4
TAP	36	0	5
TAP	36	96	5
TAP	36	192	4
TAP	36	192	5
STR	37	0	6
SI_	37	0	6	96	192	3
STR	38	0	2
SI_	38	0	2	96	192	7
STR	39	0	6
SI_	39	0	6	96	192	3
TAP	40	0	2
TAP	40	96	2
TAP	40	192	2
TAP	40	192	3
HLD	41	0	2	192
HLD	41	192	3	192
HLD	42	0	4	192
TAP	42	192	5
HLD	43	0	5	192
HLD	43	192	4	192
HLD	44	0	3	192
TAP	44	192	2
HLD	45	0	1	192
HLD	45	192	0	192
HLD	46	0	7	192
TAP	46	192	6
HLD	47	0	6	192
HLD	47	192	7	192
HLD	48	0	0	192
TAP	48	192	1
TAP	49	0	2
TAP	49	96	2
TAP	49	192	2
TAP	50	0	2
TAP	50	0	3
TAP	50	96	2
TAP	50	96	3
TAP	50	192	2
TAP	50	192	3
TAP	51	0	5
TAP	51	96	5
TAP	51	192	5
TAP	52	0	4
TAP	52	0	5
TAP	52	96	4
TAP	52	96	5
TAP	52	192	4
TAP	52	192	5
TAP	53	0	6
TAP	53	96	6
TAP	53	192	6
TAP	54	0	6
TAP	54	0	7
TAP	54	96	6
TAP	54	96	7
TAP	54	192	6
TAP	54	192	7
TAP	55	0	1
TAP	55	96	1
TAP	55	192	1
TAP	56	0	0
TAP	56	0	1
TAP	56	96	0
TAP	56	96	1
TAP	56	192	0
TAP	56	192	1
TTP	57	0	1	B	0	L1
TTP	57	96	2	B	0	L1
TTP	57	192	3	B	0	L1
TTP	57	288	4	B	0	L1
TTP	58	0	5	B	0	L1
TTP	58	96	6	B	0	L1
TTP	58	192	7	B	0	L1
TTP	59	0	7	E	0	L1
TTP	59	96	6	E	0	L1
TTP	59	192	5	E	0	L1
TTP	59	288	4	E	0	L1
TTP	60	0	3	E	0	L1
TTP	60	96	2	E	0	L1
TTP	60	192	1	E	0	L1
TTP	61	0	7	B	0	L1
TTP	61	96	6	B	0	L1
TTP	61	192	5	B	0	L1
TTP	62	0	0	B	0	L1
TTP	62	96	1	B	0	L1
TTP	62	192	2	B	0	L1
XTP	63	0	4
XTP	63	192	4
XTP	64	0	4
XTP	64	192	4
TAP	65	0	5
TAP	65	96	5
TAP	65	192	6
TAP	65	288	6
TAP	66	0	7
TAP	66	96	7
TAP	66	192	0
TAP	66	288	0
HLD	67	0	0	384
HLD	67	0	7	384
TAP	69	0	0
TAP	69	96	0
TAP	69	192	1
TAP	69	288	1
TAP	70	0	2
TAP	70	96	2
TAP	70	192	2
TAP	70	192	3
TAP	71	0	4
TAP	71	96	4
TAP	71	192	5
TAP	71	288	5
TAP	72	0	6
TAP	72	96	6
TAP	72	192	6
TAP	72	192	7
TAP	73	0	1
TAP	73	96	1
TAP	73	192	0
TAP	73	192	1
TAP	74	0	2
TAP	74	96	2
TAP	74	192	2
TAP	74	192	3
TAP	75	0	3
TAP	75	0	4
TAP	75	96	3
TAP	75	96	4
TAP	75	192	2
TAP	75	192	5
TAP	75	288	2
TAP	75	288	5
TAP	76	0	1
TAP	76	0	6
TAP	76	96	1
TAP	76	96	6
TAP	76	192	0
TAP	76	192	7
BRK	77	0	0
BRK	77	0	7
TAP	77	192	6
TAP	77	288	6
TAP	78	0	5
TAP	78	96	5
TAP	78	192	4
TAP	78	192	5
TAP	79	0	3
TAP	79	96	3
TAP	79	192	2
TAP	79	288	2
TAP	80	0	1
TAP	80	96	1
TAP	80	192	0
TAP	80	192	1
TAP	81	0	6
TAP	81	96	6
TAP	81	192	6
TAP	81	192	7
TAP	82	0	5
TAP	82	96	5
TAP	82	192	4
TAP	82	192	5
TAP	83	0	3
TAP	83	96	3
TAP	83	192	4
TAP	83	288	4
TAP	84	0	3
TAP	84	0	4
TAP	84	96	3
TAP	84	96	4
XTP	84	192	2
XTP	84	192	5
TAP	85	0	1
TAP	85	96	1
TAP	85	192	0
TAP	85	288	0
TAP	86	0	7
TAP	86	96	7
TAP	86	192	6
TAP	86	288	6
TAP	87	0	5
TAP	87	96	5
TAP	87	192	4
TAP	87	288	4
TAP	88	0	3
TAP	88	96	3
TAP	88	192	2
TAP	88	288	2
TAP	89	0	1
TAP	89	96	1
TAP	89	192	0
TAP	89	192	1
TAP	89	288	0
TAP	89	288	1
TAP	90	0	6
TAP	90	96	6
TAP	90	192	6
TAP	90	192	7
TAP	90	288	6
TAP	90	288	7
TAP	91	0	0
TAP	91	96	0
TAP	91	192	7
TAP	91	288	7
TAP	92	0	0
TAP	92	0	7
TAP	92	96	1
TAP	92	96	6
XTP	92	192	2
XTP	92	192	5
TAP	93	0	1
TAP	93	96	2
TAP	93	192	3
TAP	93	288	4
TAP	94	0	5
TAP	94	96	6
TAP	94	192	6
TAP	94	192	7
TAP	95	0	6
TAP	95	96	5
TAP	95	192	4
TAP	95	288	3
TAP	96	0	2
TAP	96	96	1
TAP	96	192	0
TAP	96	192	1
TAP	97	0	1
TAP	97	96	1
TAP	97	192	0
TAP	97	288	7
TAP	98	0	6
TAP	98	96	6
TAP	98	192	7
TAP	98	288	0
HLD	99	0	0	192
HLD	99	0	7	192
TAP	100	0	0
TAP	100	0	7
TAP	100	96	1
TAP	100	96	6
BRK	100	192	2
BRK	100	192	5
STR	101	0	2
SI_	101	0	2	96	192	6
STR	102	0	5
SI_	102	0	5	96	192	0
STR	103	0	2
SI_	103	0	2	96	192	7
HLD	104	0	6	192
TAP	104	192	7
STR	105	0	5
SI_	105	0	5	96	192	1
STR	106	0	2
SI_	106	0	2	96	192	7
STR	107	0	5
SI_	107	0	5	96	192	0
HLD	108	0	1	192
TAP	108	192	0
STR	109	0	0
SI_	109	0	0	96	192	5
STR	109	0	1
SI_	109	0	1	96	192	4
TAP	110	0	6
TAP	110	96	6
TAP	110	192	6
TAP	110	192	7
STR	111	0	6
SI_	111	0	6	96	192	3
STR	111	0	7
SI_	111	0	7	96	192	2
TAP	112	0	1
TAP	112	96	1
TAP	112	192	0
TAP	112	192	1
TAP	113	0	0
TAP	113	96	0
TAP	113	192	1
TAP	113	288	1
TAP	114	0	2
TAP	114	96	2
TAP	114	192	3
TAP	114	288	3
TAP	115	0	4
TAP	115	96	4
TAP	115	192	5
TAP	115	288	5
TAP	116	0	6
TAP	116	96	6
TAP	116	192	7
TAP	116	288	7
TAP	117	0	6
TAP	117	96	5
TAP	117	192	4
TAP	117	288	3
TAP	118	0	2
TAP	118	96	1
TAP	118	192	0
TAP	118	288	0
TAP	118	288	7
BRK	119	0	1
BRK	119	0	6

T_REC_TAP	278
T_REC_BRK	7
T_REC_XTP	14
T_REC_HLD	28
T_REC_XHO	0
T_REC_STR	22
T_REC_BST	0
T_REC_XST	0
T_REC_TTP	20
T_REC_THO	0
T_REC_SLD	22
T_REC_ALL	391
T_NUM_TAP	334
T_NUM_BRK	7
T_NUM_HLD	28
T_NUM_SLD	22
T_NUM_ALL	391
T_JUDGE_TAP	341
T_JUDGE_HLD	120
T_JUDGE_SLD	22
T_JUDGE_ALL	483
TTM_EACHPAIRS	60
TTM_SCR_TAP	167000
TTM_SCR_BRK	18200
TTM_SCR_HLD	28000
TTM_SCR_SLD	33000
TTM_SCR_ALL	246200
TTM_SCR_S	238150
TTM_SCR_SS	245500
TTM_RAT_ACV	10028

