VERSION	0.00.00	1.03.00
FES_MODE	0
BPM_DEF	186.000	186.000	186.000	186.000
MET_DEF	4	4
RESOLUTION	384
CLK_DEF	384
COMPATIBLE_CODE	MA2

BPM	0	0	186.000
MET	0	0	4	4

XHO	1	0	0	384
XHO	3	0	7	384
TAP	5	0	0
TAP	5	192	0
TAP	6	0	7
TAP	6	192	7
XHO	7	0	0	384
XHO	7	0	7	384
XTP	8	192	0
XTP	8	192	7
TAP	9	0	0
TAP	9	96	0
TAP	9	192	0
TAP	10	0	1
TAP	10	192	1
TAP	11	0	2
TAP	11	96	2
TAP	11	192	2
TAP	12	0	3
TAP	12	192	3
TAP	12	192	4
TAP	13	0	4
TAP	13	96	4
TAP	13	192	4
TAP	14	0	5
TAP	14	192	5
TAP	15	0	6
TAP	15	96	6
TAP	15	192	6
XTP	16	0	0
XTP	16	0	7
TAP	17	0	7
TAP	17	96	7
TAP	17	192	7
TAP	18	0	6
TAP	18	192	6
TAP	19	0	5
TAP	19	96	5
TAP	19	192	5
TAP	20	0	3
TAP	20	0	4
TAP	20	192	3
TAP	20	192	4
TAP	21	0	3
TAP	21	96	3
TAP	21	192	3
TAP	22	0	2
TAP	22	192	2
TAP	23	0	1
TAP	23	96	1
TAP	23	192	1
XTP	24	0	0
XTP	24	0	7
XTP	24	192	0
XTP	24	192	7
STR	25	0	7
SI_	25	0	7	96	288	4
TAP	27	0	3
TAP	27	192	3
TAP	28	0	2
TAP	28	192	2
STR	29	0	2
SI_	29	0	2	96	288	5
TAP	31	0	6
TAP	31	192	6
TAP	32	0	7
TAP	32	192	7
STR	33	0	7
SI_	33	0	7	96	288	2
TAP	35	0	1
TAP	35	192	1
TAP	36	0	0
TAP	36	192	0
STR	37	0	0
SI_	37	0	0	96	288	3
TAP	39	0	4
TAP	39	192	4
XTP	40	0	3
XTP	40	0	4
TTP	41	0	5	E	0	L1
TTP	42	0	6	E	0	L1
TTP	43	0	7	E	0	L1
TTP	44	0	0	E	0	L1
TTP	45	0	1	E	0	L1
TTP	46	0	2	E	0	L1
TTP	47	0	3	E	0	L1
TTP	48	0	0	C	0	L1
XHO	49	0	6	384
XHO	49	0	7	384
HLD	51	0	4	384
HLD	51	0	5	384
HLD	53	0	2	384
HLD	53	0	3	384
HLD	55	0	0	384
HLD	55	0	1	384
BRK	57	0	0
BRK	57	0	1
TTP	59	0	0	B	0	L1
TTP	59	0	1	B	0	L1
TTP	60	0	2	B	0	L1
TTP	60	0	3	B	0	L1
TTP	61	0	4	B	0	L1
TTP	61	0	5	B	0	L1
TTP	62	0	6	B	0	L1
TTP	62	0	7	B	0	L1
TTP	63	0	0	E	0	L1
TTP	63	192	7	E	0	L1
TTP	64	0	6	E	0	L1
TTP	64	192	5	E	0	L1
TTP	65	0	4	E	0	L1
TTP	65	192	3	E	0	L1
TTP	66	0	2	E	0	L1
TTP	66	192	1	E	0	L1
THO	67	0	0	384	C	0	L1
BRK	69	0	7
TAP	69	96	7
TAP	69	192	7
TAP	70	0	6
TAP	70	96	6
TAP	70	192	6
TAP	71	0	5
TAP	71	96	5
TAP	71	192	5
TAP	72	0	4
TAP	72	96	4
TAP	72	192	3
TAP	72	192	4
TAP	73	0	3
TAP	73	96	3
TAP	73	192	3
TAP	74	0	2
TAP	74	96	2
TAP	74	192	2
TAP	75	0	1
TAP	75	96	1
TAP	75	192	1
TAP	76	0	0
TAP	76	96	0
XTP	76	192	0
XTP	76	192	7
TAP	77	0	0
TAP	77	96	0
TAP	77	192	0
TAP	77	288	0
TAP	78	0	1
TAP	78	96	1
TAP	78	192	1
TAP	79	0	2
TAP	79	96	2
TAP	79	192	2
TAP	79	288	2
TAP	80	0	3
TAP	80	96	3
TAP	80	192	3
TAP	80	192	4
TAP	81	0	4
TAP	81	96	4
TAP	81	192	4
TAP	81	288	4
TAP	82	0	5
TAP	82	96	5
TAP	82	192	5
TAP	83	0	6
TAP	83	96	6
TAP	83	192	6
TAP	83	288	6
XTP	84	0	6
XTP	84	0	7
TAP	85	0	7
TAP	85	96	7
TAP	85	192	7
TAP	85	288	7
TAP	86	0	6
TAP	86	96	6
TAP	86	192	6
TAP	86	288	6
TAP	87	0	5
TAP	87	96	5
TAP	87	192	5
TAP	87	288	5
TAP	88	0	4
TAP	88	96	4
TAP	88	192	3
TAP	88	192	4
TAP	89	0	3
TAP	89	96	3
TAP	89	192	3
TAP	89	288	3
TAP	90	0	2
TAP	90	96	2
TAP	90	192	2
TAP	90	288	2
TAP	91	0	1
TAP	91	96	1
TAP	91	192	1
TAP	91	288	1
TAP	92	0	0
TAP	92	96	0
TAP	92	192	0
TAP	92	192	7
TAP	93	0	1
TAP	93	96	1
TAP	93	192	1
TAP	93	288	1
TAP	94	0	0
TAP	94	0	1
TAP	94	96	0
TAP	94	96	1
TAP	94	192	0
TAP	94	192	1
TAP	95	0	2
TAP	95	96	2
TAP	95	192	2
TAP	95	288	2
TAP	96	0	2
TAP	96	0	3
TAP	96	96	2
TAP	96	96	3
TAP	96	192	2
TAP	96	192	3
TAP	97	0	5
TAP	97	96	5
TAP	97	192	5
TAP	97	288	5
TAP	98	0	4
TAP	98	0	5
TAP	98	96	4
TAP	98	96	5
TAP	98	192	4
TAP	98	192	5
TAP	99	0	6
TAP	99	96	6
TAP	99	192	6
TAP	99	288	6
XTP	100	0	6
XTP	100	0	7
XTP	100	96	6
XTP	100	96	7
XTP	100	192	6
XTP	100	192	7
TAP	101	0	7
TAP	101	96	7
TAP	101	192	7
TAP	102	0	6
TAP	102	96	6
TAP	102	192	6
TAP	103	0	5
TAP	103	96	5
TAP	103	192	5
TAP	104	0	4
TAP	104	96	4
TAP	104	192	4
TAP	105	0	3
TAP	105	96	3
TAP	105	192	3
TAP	106	0	2
TAP	106	96	2
TAP	106	192	2
TAP	107	0	1
TAP	107	96	1
TAP	107	192	1
TAP	108	0	0
TAP	108	96	0
TAP	108	192	0
TAP	108	288	0
TAP	109	0	1
TAP	109	96	1
TAP	109	192	1
TAP	109	288	1
TAP	110	0	2
TAP	110	96	2
TAP	110	192	2
TAP	110	288	2
TAP	111	0	3
TAP	111	96	3
TAP	111	192	3
TAP	111	288	3
TAP	112	0	4
TAP	112	96	4
TAP	112	192	4
TAP	112	288	4
TAP	113	0	5
TAP	113	96	5
TAP	113	192	5
TAP	113	288	5
TAP	114	0	6
TAP	114	96	6
TAP	114	192	6
TAP	114	288	6
TAP	115	0	7
TAP	115	96	7
TAP	115	192	7
TAP	115	288	7
TAP	116	0	0
TAP	116	96	0
TAP	116	192	0
TAP	116	288	0
TAP	117	0	0
TAP	117	96	0
TAP	117	192	0
TAP	117	288	0
TAP	118	0	0
TAP	118	96	0
TAP	118	192	0
TAP	118	192	7
XTP	118	288	0
XTP	118	288	7
BRK	119	0	1
BRK	119	0	6

T_REC_TAP	237
T_REC_BRK	5
T_REC_XTP	22
T_REC_HLD	6
T_REC_XHO	6
T_REC_STR	4
T_REC_BST	0
T_REC_XST	0
T_REC_TTP	24
T_REC_THO	1
T_REC_SLD	4
T_REC_ALL	309
T_NUM_TAP	287
T_NUM_BRK	5
T_NUM_HLD	13
T_NUM_SLD	4
T_NUM_ALL	309
T_JUDGE_TAP	292
T_JUDGE_HLD	104
T_JUDGE_SLD	4
T_JUDGE_ALL	400
TTM_EACHPAIRS	35
TTM_SCR_TAP	143500
TTM_SCR_BRK	13000
TTM_SCR_HLD	13000
TTM_SCR_SLD	6000
TTM_SCR_ALL	175500
TTM_SCR_S	169750
TTM_SCR_SS	175000
TTM_RAT_ACV	10028

