VERSION	0.00.00	1.03.00
FES_MODE	0
BPM_DEF	150.000	150.000	150.000	150.000
MET_DEF	4	4
RESOLUTION	384
CLK_DEF	384
COMPATIBLE_CODE	MA2

BPM	0	0	150.000
MET	0	0	4	4

BRK	2	0	3
BRK	2	0	4
TTP	3	144	3	E	0	M1
TTP	3	156	3	B	0	M1
TTP	3	168	4	B	0	M1
TTP	3	180	5	E	0	M1
TTP	3	240	6	B	0	M1
TTP	3	240	7	E	0	M1
TTP	3	288	1	B	0	M1
TTP	3	288	1	E	0	M1
TTP	4	0	6	E	0	M1
TTP	4	96	2	E	0	M1
TTP	4	144	0	E	0	M1
TTP	4	240	0	C	0	M1
TTP	4	336	4	E	0	M1
TTP	5	144	5	E	0	M1
TTP	5	168	3	E	0	M1
TTP	5	192	4	E	0	M1
TTP	5	240	1	B	0	M1
TTP	5	240	2	E	0	M1
TTP	5	288	5	B	0	M1
TTP	5	288	6	E	0	M1
TTP	5	336	0	B	0	M1
TTP	5	336	0	E	0	M1
THO	6	0	0	96	C	0	M1
TTP	6	144	2	E	0	M1
TTP	6	240	4	E	0	M1
TTP	6	336	6	E	0	M1
TTP	7	144	5	E	0	M1
TTP	7	156	4	B	0	M1
TTP	7	168	3	B	0	M1
TTP	7	180	3	E	0	M1
TTP	7	240	1	B	0	M1
TTP	7	240	1	E	0	M1
TTP	7	288	6	B	0	M1
TTP	7	288	7	E	0	M1
TTP	8	0	2	E	0	M1
TTP	8	96	6	E	0	M1
TTP	8	144	0	E	0	M1
TTP	8	240	0	C	0	M1
TTP	8	336	4	E	0	M1
TTP	9	144	3	E	0	M1
TTP	9	168	5	E	0	M1
TTP	9	192	4	E	0	M1
TTP	9	240	6	B	0	M1
TTP	9	240	6	E	0	M1
TTP	9	288	2	B	0	M1
TTP	9	288	2	E	0	M1
TTP	9	336	0	E	0	M1
TTP	9	336	7	B	0	M1
BRK	10	0	3
TAP	10	96	3
TTP	10	144	5	E	0	M1
TAP	10	192	3
TTP	10	240	6	E	0	M1
TAP	10	288	3
TTP	10	336	7	E	0	M1
TAP	11	0	3
TAP	11	96	3
TTP	11	144	7	E	0	M1
TTP	11	156	6	B	0	M1
TTP	11	168	5	B	0	M1
TTP	11	180	5	E	0	M1
TAP	11	192	3
TTP	11	240	4	E	0	M1
TTP	11	288	0	C	0	M1
TAP	11	288	3
TAP	12	0	4
TAP	12	96	4
TTP	12	144	3	E	0	M1
TAP	12	192	4
TTP	12	240	2	E	0	M1
TAP	12	288	4
TTP	12	336	1	E	0	M1
TAP	13	0	4
TAP	13	96	4
TTP	13	144	1	B	0	M1
TTP	13	168	2	B	0	M1
TAP	13	192	4
TTP	13	240	0	C	0	M1
TAP	13	288	4
TTP	13	336	0	E	0	M1
XTP	14	0	2
XTP	14	0	6
TAP	14	48	2
TAP	14	96	3
TAP	14	96	5
TAP	14	144	3
TAP	14	192	2
TAP	14	192	4
TAP	14	240	4
TAP	14	288	1
TAP	14	288	5
TAP	14	336	5
TAP	15	0	3
TAP	15	0	6
TAP	15	48	5
TAP	15	96	1
TAP	15	96	4
TAP	15	144	3
TAP	15	192	2
TAP	15	192	6
TAP	15	240	1
TAP	15	288	0
TAP	15	288	4
TAP	15	336	0
TAP	15	336	4
TAP	16	0	1
TAP	16	24	3
TAP	16	48	1
TAP	16	72	3
TAP	16	96	2
TAP	16	120	4
TAP	16	144	2
TAP	16	168	4
TAP	16	192	3
TAP	16	216	5
TAP	16	240	3
TAP	16	264	5
STR	16	288	4
SCR	16	288	4	96	232	3
TAP	16	312	6
TAP	16	336	4
HLD	16	360	6	312
TTP	17	240	3	E	0	M1
TTP	17	248	2	E	0	M1
TTP	17	256	1	E	0	M1
TTP	17	264	0	E	0	M1
TTP	17	272	7	E	0	M1
TTP	17	280	6	E	0	M1
TTP	17	288	5	E	0	M1
XST	18	0	2
SI_	18	0	2	96	48	5
XTP	18	0	3
TAP	18	96	2
TAP	18	96	6
STR	18	192	7
SI_	18	192	7	96	48	4
TAP	18	240	0
STR	18	288	7
SI_	18	288	7	96	48	2
TAP	19	0	5
TAP	19	0	7
STR	19	96	1
SCR	19	96	1	96	32	3
TAP	19	144	0
TAP	19	144	7
STR	19	192	6
SI_	19	192	6	96	48	2
TAP	19	216	5
TAP	19	240	4
TAP	19	288	0
TAP	19	288	6
STR	20	0	1
SI_	20	0	1	96	48	4
TAP	20	0	7
TAP	20	96	0
TAP	20	96	1
STR	20	192	6
SI_	20	192	6	96	48	3
TAP	20	240	7
STR	20	288	6
SI_	20	288	6	96	48	1
TAP	21	0	2
TAP	21	0	6
TAP	21	48	2
TAP	21	96	5
TAP	21	120	4
TAP	21	144	6
STR	21	192	2
SUR	21	192	2	96	96	4
TAP	21	216	3
TAP	21	240	1
XST	22	0	5
SI_	22	0	5	96	48	2
TAP	22	96	1
TAP	22	96	5
STR	22	192	0
SI_	22	192	0	96	48	3
TAP	22	240	7
STR	22	288	0
SI_	22	288	0	96	48	5
TAP	23	0	0
TAP	23	0	2
STR	23	96	6
SCL	23	96	6	96	32	4
TAP	23	144	0
TAP	23	144	7
STR	23	192	1
SI_	23	192	1	96	48	5
TAP	23	216	2
TAP	23	240	3
TAP	23	288	1
TAP	23	288	7
TAP	24	0	0
STR	24	0	6
SI_	24	0	6	96	48	3
TAP	24	96	6
TAP	24	96	7
STR	24	192	1
SI_	24	192	1	96	48	4
TAP	24	240	0
TAP	24	288	1
TAP	25	0	0
TAP	25	0	7
TAP	25	48	0
TAP	25	72	1
TAP	25	96	7
TAP	25	120	6
TAP	25	144	1
TAP	25	168	2
TAP	25	192	6
STR	25	216	5
SUL	25	216	5	96	72	3
TAP	25	240	2
TAP	25	264	3
BRK	26	0	0
XTP	26	96	2
TAP	26	168	3
XTP	26	192	2
TAP	26	240	4
XTP	26	288	2
TAP	26	288	4
XTP	27	0	2
TAP	27	0	4
TAP	27	72	3
XTP	27	96	2
TAP	27	144	4
XTP	27	192	2
TAP	27	216	3
XTP	27	288	2
TAP	27	288	4
XTP	27	336	1
TAP	27	336	5
XST	28	0	0
SCR	28	0	0	96	48	3
TAP	28	0	6
TAP	28	96	0
XTP	28	96	5
TAP	28	168	4
XTP	28	192	5
TAP	28	240	3
TAP	28	288	3
XTP	28	288	5
TAP	29	0	3
XTP	29	0	5
TAP	29	72	4
XTP	29	96	5
TAP	29	144	3
XTP	29	192	5
TAP	29	216	4
TAP	29	288	2
XTP	29	288	6
TAP	29	312	2
XTP	29	312	6
TAP	29	336	2
XTP	29	336	6
TAP	30	0	1
XST	30	0	7
SCL	30	0	7	96	48	4
TAP	30	96	2
TAP	30	96	7
TAP	30	144	1
TAP	30	168	0
TAP	30	216	2
TAP	30	240	3
TAP	30	288	1
TAP	30	288	4
TAP	31	0	3
TAP	31	0	6
TAP	31	48	5
TAP	31	72	4
TAP	31	120	6
TAP	31	144	7
TAP	31	192	1
TAP	31	216	0
TAP	31	264	5
TAP	31	288	4
TAP	31	288	6
TAP	32	0	1
TAP	32	0	3
TAP	32	48	4
XTP	32	72	3
XTP	32	72	5
TAP	32	120	2
XTP	32	144	1
XTP	32	144	3
TAP	32	192	5
XTP	32	216	4
XTP	32	216	6
TAP	32	264	0
XTP	32	288	1
XTP	32	288	7
TAP	32	336	2
TAP	32	336	6
XTP	33	0	3
TAP	33	24	5
TAP	33	48	4
TAP	33	72	5
TAP	33	96	3
TAP	33	120	5
TAP	33	144	2
TAP	33	168	5
TAP	33	192	1
TAP	33	216	5
TAP	33	240	0
TAP	33	264	5
TAP	33	288	7
TAP	33	312	5
TAP	33	336	6
TAP	33	360	5
BST	34	0	4
SI_	34	0	4	96	624	0
HLD	36	0	1	192
TAP	36	0	7
TAP	36	192	3
HLD	36	288	4	192
TAP	37	96	3
TAP	37	192	2
TAP	37	192	4
HLD	38	0	6	192
TAP	38	192	4
HLD	38	288	3	192
TAP	39	96	4
TAP	39	192	3
TAP	39	192	5
TAP	39	288	2
TAP	39	288	4
HLD	40	0	1	192
TAP	40	0	3
TAP	40	192	0
HLD	40	288	7	192
TAP	41	96	4
TAP	41	192	3
TAP	41	192	5
HLD	42	0	2	192
TAP	42	192	3
HLD	42	288	4	192
TAP	43	96	3
TAP	43	192	2
TAP	43	192	4
TAP	43	288	1
TAP	43	288	5
TAP	44	0	0
TAP	44	0	6
TAP	44	96	7
TAP	44	144	7
TAP	44	192	0
TAP	44	240	1
TAP	44	288	2
TAP	44	336	3
TAP	45	48	2
TAP	45	48	4
TAP	45	144	3
TAP	45	192	3
TAP	45	240	5
TAP	45	264	4
TAP	45	312	4
TAP	45	336	5
TTP	46	0	2	B	0	M1
TTP	46	0	2	E	0	M1
TTP	46	96	6	B	0	M1
TTP	46	96	6	E	0	M1
TTP	46	192	3	E	0	M1
TTP	46	240	3	B	0	M1
TTP	46	288	4	B	0	M1
TTP	46	336	5	E	0	M1
TTP	47	48	1	E	0	M1
TTP	47	96	2	E	0	M1
TTP	47	144	3	E	0	M1
TTP	47	192	7	E	0	M1
TTP	47	240	6	E	0	M1
TTP	47	288	5	E	0	M1
HLD	48	0	0	48
TAP	48	96	0
TAP	48	144	0
TAP	48	192	7
TAP	48	240	6
TAP	48	288	5
TAP	48	336	4
TAP	49	48	3
TAP	49	48	5
TAP	49	144	4
TAP	49	192	4
TAP	49	240	2
TAP	49	264	3
TAP	49	312	3
TAP	49	336	2
TTP	50	0	5	B	0	M1
TTP	50	0	6	E	0	M1
TTP	50	96	1	B	0	M1
TTP	50	96	2	E	0	M1
TTP	50	192	5	E	0	M1
TTP	50	240	4	B	0	M1
TTP	50	288	3	B	0	M1
TTP	50	336	3	E	0	M1
TTP	51	48	1	E	0	M1
TTP	51	96	0	B	0	M1
TTP	51	144	7	B	0	M1
TTP	51	192	7	E	0	M1
TTP	51	240	3	B	0	M1
TTP	51	264	4	B	0	M1
TTP	51	288	2	B	0	M1
TTP	51	312	5	B	0	M1
TTP	51	336	2	E	0	M1
TTP	51	360	6	E	0	M1
BRK	52	0	0
TAP	52	96	0
TTP	52	144	5	E	0	M1
TAP	52	192	0
TTP	52	240	6	E	0	M1
TAP	52	288	0
TTP	52	336	7	E	0	M1
TAP	53	0	0
TAP	53	96	0
TTP	53	144	7	E	0	M1
TTP	53	156	6	B	0	M1
TTP	53	168	5	B	0	M1
TTP	53	180	5	E	0	M1
TAP	53	192	0
TTP	53	240	4	E	0	M1
TAP	53	288	0
TTP	53	288	0	C	0	M1
TAP	54	0	7
TAP	54	96	7
TTP	54	144	3	E	0	M1
TAP	54	192	7
TTP	54	240	2	E	0	M1
TAP	54	288	7
TTP	54	336	1	E	0	M1
TAP	55	0	7
TAP	55	96	7
TTP	55	144	1	B	0	M1
TTP	55	168	2	B	0	M1
TAP	55	192	7
TTP	55	240	0	C	0	M1
TAP	55	288	7
TTP	55	336	0	E	0	M1
XTP	56	0	1
XTP	56	0	5
TAP	56	48	2
TAP	56	96	3
TAP	56	96	6
TAP	56	144	5
TAP	56	192	2
TAP	56	192	4
TAP	56	240	3
TAP	56	288	4
TAP	56	288	6
TAP	56	336	5
TAP	57	0	1
TAP	57	0	3
TAP	57	48	2
TAP	57	48	4
TAP	57	96	3
TAP	57	96	5
TAP	57	144	4
TAP	57	144	6
TAP	57	192	3
TAP	57	192	7
TAP	57	240	2
TAP	57	240	6
TAP	57	288	1
TAP	57	288	5
TAP	57	336	0
TAP	57	336	4
TAP	58	0	7
TAP	58	24	7
TAP	58	48	6
TAP	58	72	6
TAP	58	96	5
TAP	58	120	5
TAP	58	144	4
TAP	58	168	4
TAP	58	192	3
TAP	58	216	3
TAP	58	240	2
TAP	58	264	2
TAP	58	288	1
TAP	58	312	1
TAP	58	336	0
HLD	58	360	0	312
TTP	59	240	4	E	0	M1
TTP	59	246	3	E	0	M1
TTP	59	252	2	E	0	M1
TTP	59	258	1	E	0	M1
TTP	59	264	0	E	0	M1
TTP	59	270	7	E	0	M1
TTP	59	276	6	E	0	M1
TTP	59	282	5	E	0	M1
TTP	59	288	0	C	1	M1
TTP	59	288	4	E	0	M1
BST	60	0	0
SI_	60	0	0	96	48	4
TAP	60	96	0
XTP	60	96	7
TAP	60	144	6
TAP	60	192	3
XTP	60	192	5
TAP	60	240	4
XTP	60	288	2
TAP	60	288	3
TAP	60	336	1
XTP	61	0	0
TAP	61	0	6
STR	61	48	7
SCL	61	48	7	96	48	4
XTP	61	96	0
TAP	61	144	7
XTP	61	192	0
TAP	61	240	1
TAP	61	264	3
XTP	61	288	2
TAP	61	312	3
TAP	61	336	1
TAP	62	0	0
XTP	62	0	7
TAP	62	48	6
TAP	62	72	4
XTP	62	96	5
TAP	62	120	4
TAP	62	144	6
XTP	62	192	0
TAP	62	192	7
TAP	62	240	2
TAP	62	264	3
XTP	62	288	1
TAP	62	312	3
TAP	62	336	2
TAP	63	0	6
XTP	63	0	7
TAP	63	48	5
TAP	63	72	4
XTP	63	96	6
TAP	63	120	4
TAP	63	144	5
XTP	63	192	0
TAP	63	192	1
TAP	63	240	2
XST	63	288	3
SCL	63	288	3	96	48	0
XST	63	288	4
SCR	63	288	4	96	48	7
XTP	63	336	2
XTP	63	336	5
BRK	64	0	3
BRK	64	0	4
XTP	64	96	1
XTP	64	96	6
TAP	64	144	1
TAP	64	144	6
STR	64	192	7
SI_	64	192	7	96	48	2
STR	64	240	6
SI_	64	240	6	96	48	3
TAP	64	288	7
TAP	64	336	6
STR	65	48	1
SI_	65	48	1	96	48	5
TAP	65	48	5
TAP	65	96	2
TAP	65	96	4
TAP	65	144	1
TAP	65	144	5
TAP	65	192	6
TAP	65	240	7
TAP	65	264	1
TAP	65	288	0
TAP	65	312	1
TAP	65	336	7
XTP	66	0	3
TAP	66	0	5
TAP	66	48	0
TAP	66	72	6
TAP	66	96	7
TAP	66	120	6
TAP	66	144	0
TAP	66	192	2
XTP	66	192	4
TAP	66	240	6
TAP	66	264	4
TAP	66	288	5
TAP	66	312	4
TAP	66	336	7
XTP	67	0	0
TAP	67	0	6
TAP	67	48	1
TAP	67	72	3
TAP	67	96	2
TAP	67	120	3
TAP	67	144	0
BRK	67	192	6
XTP	67	192	7
BRK	67	264	3
BRK	67	264	4
XTP	67	336	0
BRK	67	336	1
XTP	68	0	3
BST	68	0	7
SI_	68	0	7	96	48	3
XTP	68	96	0
TAP	68	96	7
TAP	68	144	1
XTP	68	192	2
TAP	68	192	4
TAP	68	240	3
TAP	68	288	4
XTP	68	288	5
TAP	68	336	6
TAP	69	0	1
XTP	69	0	7
STR	69	48	0
SCR	69	48	0	96	48	3
XTP	69	96	7
TAP	69	144	0
XTP	69	192	7
TAP	69	240	6
TAP	69	264	4
XTP	69	288	5
TAP	69	312	4
TAP	69	336	6
XTP	70	0	0
TAP	70	0	7
TAP	70	48	1
TAP	70	72	3
XTP	70	96	2
TAP	70	120	3
TAP	70	144	1
TAP	70	192	0
XTP	70	192	7
TAP	70	240	5
TAP	70	264	4
XTP	70	288	6
TAP	70	312	4
TAP	70	336	5
XTP	71	0	0
TAP	71	0	1
TAP	71	48	2
TAP	71	72	3
XTP	71	96	1
TAP	71	120	3
TAP	71	144	2
TAP	71	192	6
XTP	71	192	7
TAP	71	240	5
XST	71	288	3
SCL	71	288	3	96	48	0
XST	71	288	4
SCR	71	288	4	96	48	7
XTP	71	336	2
XTP	71	336	5
BRK	72	0	3
BRK	72	0	4
XTP	72	96	1
XTP	72	96	6
TAP	72	144	1
TAP	72	144	6
STR	72	192	0
SI_	72	192	0	96	48	5
STR	72	240	1
SI_	72	240	1	96	48	4
TAP	72	288	0
TAP	72	336	1
TAP	73	48	2
STR	73	48	6
SI_	73	48	6	96	48	2
TAP	73	96	3
TAP	73	96	5
TAP	73	144	2
TAP	73	144	6
TAP	73	192	1
TAP	73	240	0
TAP	73	264	0
XTP	73	288	6
XTP	73	312	7
XTP	73	336	6
XTP	74	0	0
TAP	74	0	5
TAP	74	48	7
TAP	74	72	7
TAP	74	96	1
TAP	74	120	0
TAP	74	144	1
XHO	74	192	2	48
HLD	74	192	7	48
HLD	74	264	0	48
XHO	74	264	5	48
BRK	74	336	1
BRK	74	336	6
XHO	75	0	0	48
HLD	75	0	2	48
HLD	75	72	5	48
XHO	75	72	7	48
BRK	75	144	3
BRK	75	144	4
BRK	75	192	1
BRK	75	192	6
TAP	75	240	2
STR	75	264	3
SCL	75	264	3	96	408	4
TAP	75	312	5
TAP	75	336	4
TTP	76	0	0	C	1	M1
BRK	77	168	1
XTP	77	168	3
XTP	77	216	4
BRK	77	216	6
BRK	77	264	0
XTP	77	264	7
XST	77	288	0
SI_	77	288	0	96	48	4
BST	77	288	7
SI_	77	288	7	96	48	3
BRK	77	336	1
XTP	77	336	6
BRK	78	0	0
BRK	78	0	7
BRK	78	96	2
BRK	78	96	5
HLD	78	168	1	48
HLD	78	216	3	48
TAP	78	264	2
XTP	78	288	3
TAP	78	336	0
TAP	78	336	4
XTP	79	0	7
TAP	79	48	0
TAP	79	48	6
XTP	79	96	5
TAP	79	120	4
TAP	79	144	5
HLD	79	168	4	48
HLD	79	216	6	48
TAP	79	264	4
XTP	79	288	5
XTP	79	336	3
XTP	79	336	7
BST	80	0	0
SCR	80	0	0	96	48	3
TAP	80	48	6
TAP	80	48	7
BRK	80	96	0
TAP	80	96	4
TAP	80	144	5
BRK	80	168	5
TAP	80	216	4
BRK	80	216	6
TAP	80	264	3
TAP	80	264	7
TAP	80	288	3
BRK	80	288	7
TAP	80	336	0
TAP	80	336	4
BST	81	0	7
SCL	81	0	7	96	48	4
BRK	81	48	0
TAP	81	48	1
TAP	81	96	3
BRK	81	96	7
TAP	81	144	2
BRK	81	168	2
BRK	81	216	1
TAP	81	216	3
TAP	81	264	0
TAP	81	264	4
BRK	81	288	0
TAP	81	288	4
TAP	81	336	3
TAP	81	336	7
TAP	82	0	4
BRK	82	0	6
TAP	82	48	2
BRK	82	72	1
TAP	82	72	3
TAP	82	120	6
TAP	82	144	5
BRK	82	144	7
TAP	82	192	1
BRK	82	216	0
TAP	82	216	2
BRK	82	264	7
BST	82	288	0
SCR	82	288	0	96	288	7
BST	82	288	6
SCL	82	288	6	96	288	7
BRK	82	312	0
BRK	82	312	6
BRK	82	336	0
BRK	82	336	6
BRK	83	0	0
BRK	83	0	6
TTP	84	0	0	C	1	M1
TTP	84	0	0	E	0	M1
TTP	84	0	3	B	0	M1
TTP	84	0	4	E	0	M1
TTP	84	0	7	B	0	M1

T_REC_TAP	420
T_REC_BRK	47
T_REC_XTP	87
T_REC_HLD	19
T_REC_XHO	4
T_REC_STR	25
T_REC_BST	8
T_REC_XST	9
T_REC_TTP	134
T_REC_THO	1
T_REC_SLD	42
T_REC_ALL	796
T_NUM_TAP	675
T_NUM_BRK	55
T_NUM_HLD	24
T_NUM_SLD	42
T_NUM_ALL	796
T_JUDGE_TAP	730
T_JUDGE_HLD	61
T_JUDGE_SLD	42
T_JUDGE_ALL	833
TTM_EACHPAIRS	147
TTM_SCR_TAP	337500
TTM_SCR_BRK	143000
TTM_SCR_HLD	24000
TTM_SCR_SLD	63000
TTM_SCR_ALL	567500
TTM_SCR_S	545150
TTM_SCR_SS	562000
TTM_RAT_ACV	10097

