VERSION	0.00.00	1.03.00
FES_MODE	0
BPM_DEF	150.000	150.000	150.000	150.000
MET_DEF	4	4
RESOLUTION	384
CLK_DEF	384
COMPATIBLE_CODE	MA2

BPM	0	0	150.000
MET	0	0	4	4

XHO	2	0	3	240
XHO	2	0	5	336
TAP	3	288	3
TAP	3	288	5
HLD	4	0	2	240
HLD	4	0	4	336
TAP	5	288	2
TAP	5	288	4
HLD	6	0	3	240
HLD	6	0	5	336
TAP	7	288	3
TAP	7	288	5
HLD	8	0	3	240
HLD	8	0	4	384
HLD	8	336	2	336
XHO	9	192	5	96
BRK	10	0	3
BRK	10	0	4
TAP	10	96	3
TAP	10	192	3
TAP	10	288	3
HLD	11	0	2	288
TAP	11	0	4
TAP	11	96	4
TAP	11	192	4
TAP	11	288	4
TAP	12	0	3
HLD	12	0	5	288
TAP	12	96	3
TAP	12	192	3
TAP	12	288	3
TAP	13	0	3
TAP	13	0	4
TAP	13	96	3
TAP	13	192	3
TAP	13	288	3
TAP	13	288	4
TAP	14	0	2
TAP	14	48	2
TAP	14	96	5
TAP	14	144	5
TAP	14	192	3
TAP	14	240	3
TAP	14	288	4
TAP	14	336	4
TAP	15	0	2
TAP	15	48	2
TAP	15	96	5
TAP	15	144	5
TAP	15	192	1
TAP	15	240	1
TAP	15	288	6
TAP	15	336	6
TAP	16	0	0
TAP	16	24	7
TAP	16	48	0
TAP	16	72	7
TAP	16	96	0
TAP	16	120	7
TAP	16	144	0
TAP	16	168	7
TAP	16	192	0
TAP	16	216	7
TAP	16	240	0
TAP	16	264	7
TAP	16	288	0
TAP	16	312	7
TAP	16	336	0
TAP	16	360	7
HLD	17	0	0	192
STR	17	192	7
SI_	17	192	7	96	48	3
BRK	18	0	2
BRK	18	0	4
TAP	18	96	0
TAP	18	96	1
TAP	18	192	3
TAP	18	192	4
TAP	18	288	6
TAP	18	288	7
TAP	19	0	3
TAP	19	0	4
TAP	19	96	0
TAP	19	96	1
TAP	19	192	6
TAP	19	192	7
XTP	19	288	3
TAP	19	288	5
TAP	19	336	3
XTP	19	336	5
XTP	20	0	3
TAP	20	0	5
TAP	20	96	0
TAP	20	96	1
TAP	20	192	6
TAP	20	192	7
TAP	20	288	2
TAP	20	288	3
TAP	21	0	4
TAP	21	0	6
TAP	21	96	0
TAP	21	96	1
XTP	21	192	2
TAP	21	192	3
TAP	21	240	2
XTP	21	240	3
XTP	21	288	2
TAP	21	288	3
TAP	22	0	0
TAP	22	0	5
TAP	22	96	4
TAP	22	96	6
TAP	22	192	2
TAP	22	192	3
TAP	22	288	0
TAP	22	288	5
TAP	23	0	1
TAP	23	0	3
TAP	23	96	4
TAP	23	96	6
TAP	23	192	0
TAP	23	192	7
TAP	23	288	2
TAP	23	288	4
TAP	23	336	2
TAP	23	336	4
TAP	24	0	2
TAP	24	0	4
TAP	24	96	0
TAP	24	96	1
TAP	24	192	6
TAP	24	192	7
TAP	24	288	3
TAP	24	288	5
TAP	25	0	2
TAP	25	0	6
TAP	25	48	2
TAP	25	48	6
STR	25	96	2
SCR	25	96	2	96	96	5
TAP	25	96	6
TAP	26	0	6
TAP	26	0	7
TAP	26	96	3
TAP	26	96	4
TAP	26	192	0
TAP	26	192	1
TAP	26	288	3
TAP	26	288	5
TAP	27	0	6
TAP	27	0	7
TAP	27	96	2
TAP	27	96	4
TAP	27	192	0
TAP	27	192	1
TAP	27	288	6
TAP	27	288	7
TAP	27	336	6
TAP	27	336	7
TAP	28	0	6
TAP	28	0	7
TAP	28	96	1
TAP	28	96	2
TAP	28	192	4
TAP	28	192	5
TAP	28	288	1
TAP	28	288	3
TAP	29	0	0
TAP	29	0	7
TAP	29	96	4
TAP	29	96	6
TAP	29	192	2
TAP	29	192	3
BRK	29	288	1
BRK	29	288	7
TAP	30	0	4
TAP	30	0	5
TAP	30	96	1
TAP	30	96	3
TAP	30	192	5
TAP	30	192	6
TAP	30	288	0
TAP	30	288	1
TAP	31	0	6
TAP	31	0	7
TAP	31	96	1
TAP	31	96	2
TAP	31	192	5
TAP	31	192	6
TAP	31	288	1
TAP	31	288	3
XHO	32	0	4	72
XHO	32	0	5	72
XHO	32	144	2	72
XHO	32	144	3	72
TAP	32	288	1
TAP	32	288	4
TAP	32	336	1
TAP	32	336	4
TAP	33	0	2
TAP	33	0	5
TAP	33	48	2
TAP	33	48	5
TAP	33	96	3
TAP	33	96	6
TAP	33	144	3
TAP	33	144	6
TAP	33	192	7
TAP	33	240	7
TAP	33	288	0
TAP	33	336	0
BST	34	0	1
SXL	34	0	1	96	432	4
BST	34	0	7
SXR	34	0	7	96	432	4
STR	36	0	2
SCR	36	0	2	96	288	5
STR	37	0	6
SUL	37	0	6	96	288	1
STR	38	0	0
SCR	38	0	0	96	288	6
TTP	39	0	0	E	0	M1
TTP	39	192	0	C	0	M1
HLD	40	0	1	384
TTP	40	192	0	B	0	M1
TTP	40	192	1	B	0	M1
HLD	41	0	6	384
TTP	41	192	4	B	0	M1
TTP	41	192	5	B	0	M1
HLD	42	0	3	384
TTP	42	192	2	B	0	M1
TTP	42	192	3	B	0	M1
THO	43	0	0	192	C	0	M1
HLD	44	0	1	192
TAP	44	0	6
HLD	44	192	3	192
HLD	45	0	4	192
HLD	45	192	6	384
HLD	46	0	7	192
TAP	46	288	0
STR	46	288	5
SCR	46	288	5	96	192	2
HLD	48	0	2	192
TAP	48	144	3
TAP	48	192	3
HLD	49	0	5	192
TAP	49	144	4
TAP	49	192	4
HLD	50	0	3	192
TAP	50	144	4
TAP	50	192	4
THO	51	0	0	192	C	0	M1
TTP	51	0	1	B	0	M1
TTP	51	0	6	B	0	M1
TAP	52	0	0
TAP	52	0	7
TAP	52	96	0
TAP	52	96	7
TAP	52	192	1
TAP	52	192	6
TAP	52	288	1
TAP	52	288	6
TAP	53	0	2
TAP	53	0	5
TAP	53	96	2
TAP	53	96	5
TAP	53	192	3
TAP	53	192	4
TAP	53	288	3
TAP	53	288	4
HLD	54	0	2	96
TAP	54	0	3
TAP	54	96	3
TAP	54	192	3
HLD	54	192	4	96
TAP	54	288	3
HLD	55	0	4	96
TAP	55	0	5
TAP	55	96	5
HLD	55	192	3	96
TAP	55	192	4
TAP	55	288	4
TAP	56	0	5
TAP	56	48	5
TAP	56	96	3
TAP	56	144	3
TAP	56	192	4
TAP	56	240	4
TAP	56	288	2
TAP	56	336	2
TAP	57	0	5
TAP	57	48	5
TAP	57	96	1
TAP	57	144	1
TAP	57	192	6
TAP	57	240	6
TAP	57	288	1
TAP	57	336	1
TAP	58	0	7
TAP	58	24	0
TAP	58	48	7
TAP	58	72	0
TAP	58	96	7
TAP	58	120	0
TAP	58	144	7
TAP	58	168	0
TAP	58	192	7
TAP	58	216	0
TAP	58	240	7
TAP	58	264	0
TAP	58	288	7
TAP	58	312	0
TAP	58	336	7
TAP	58	360	0
HLD	59	0	7	192
STR	59	192	0
SI_	59	192	0	96	48	4
XTP	59	288	0
BRK	60	0	3
BRK	60	0	5
XTP	60	96	0
TAP	60	96	2
XTP	60	192	3
TAP	60	192	4
TAP	60	288	5
XTP	60	288	7
TAP	61	0	2
XTP	61	0	4
XTP	61	96	0
TAP	61	96	1
TAP	61	192	6
XTP	61	192	7
TAP	61	288	1
XTP	61	288	3
XTP	62	0	4
TAP	62	0	6
TAP	62	96	1
XTP	62	96	2
TAP	62	192	5
XTP	62	192	7
XTP	62	288	0
TAP	62	288	2
XTP	63	0	6
TAP	63	0	7
TAP	63	96	1
XTP	63	96	3
XTP	63	192	4
TAP	63	192	5
BRK	63	288	3
BRK	63	288	6
BRK	63	336	3
BRK	63	336	6
BRK	64	0	3
BRK	64	0	6
TAP	64	96	0
XTP	64	96	1
TAP	64	192	2
XTP	64	192	4
XTP	64	288	6
TAP	64	288	7
TAP	65	0	1
XTP	65	0	3
XTP	65	96	4
TAP	65	96	5
TAP	65	192	1
XTP	65	192	7
XTP	65	288	2
TAP	65	288	3
XTP	66	0	5
TAP	66	0	6
XTP	66	96	0
TAP	66	96	2
XTP	66	192	5
TAP	66	192	7
TAP	66	288	2
XTP	66	288	3
TAP	67	0	4
XTP	67	0	5
XTP	67	96	1
TAP	67	96	7
XHO	67	192	6	72
XHO	67	264	5	72
XTP	67	336	4
BRK	68	0	4
XTP	68	96	1
TAP	68	96	7
TAP	68	192	2
XTP	68	192	3
XTP	68	288	0
TAP	68	288	6
TAP	69	0	3
XTP	69	0	5
TAP	69	96	0
XTP	69	96	1
TAP	69	192	5
XTP	69	192	7
TAP	69	288	1
XTP	69	288	3
XTP	70	0	5
TAP	70	0	6
XTP	70	96	1
TAP	70	96	3
TAP	70	192	5
XTP	70	192	7
TAP	70	288	1
XTP	70	288	2
TAP	71	0	4
XTP	71	0	5
XTP	71	96	1
TAP	71	96	7
TAP	71	192	2
XTP	71	192	3
BRK	71	288	1
BRK	71	288	4
BRK	71	336	1
BRK	71	336	4
BRK	72	0	1
BRK	72	0	4
XTP	72	96	6
TAP	72	96	7
TAP	72	192	3
XTP	72	192	5
XTP	72	288	1
TAP	72	288	2
BRK	73	0	5
BRK	73	0	7
TAP	73	96	0
XTP	73	96	2
TAP	73	192	5
XTP	73	192	6
XTP	73	288	1
XTP	73	288	3
BRK	74	0	6
BRK	74	0	7
TAP	74	96	3
XTP	74	96	5
BRK	74	192	0
BRK	74	192	1
XST	74	288	2
SCL	74	288	2	96	192	4
XTP	74	288	4
TTP	75	0	0	C	1	M1
TAP	75	288	3
TAP	75	288	4
TTP	76	0	0	C	1	M1
TTP	76	0	1	B	0	M1
TTP	76	0	6	B	0	M1
HLD	77	0	3	168
XTP	77	168	4
XTP	77	216	4
BRK	77	288	2
BRK	77	288	6
TAP	78	0	1
XTP	78	0	3
TAP	78	96	5
TAP	78	96	6
XTP	78	192	0
TAP	78	192	2
TAP	78	288	5
XTP	78	288	7
TAP	79	0	1
XTP	79	0	3
XTP	79	96	4
TAP	79	96	6
XTP	79	192	0
TAP	79	192	1
BRK	79	288	3
BRK	79	288	7
BRK	79	336	3
BRK	79	336	7
BRK	80	0	3
BRK	80	0	7
XHO	80	96	6	72
XTP	80	168	4
XTP	80	216	4
XTP	80	216	5
BRK	80	288	6
XTP	80	288	7
BRK	80	336	6
XTP	80	336	7
BRK	81	0	6
XTP	81	0	7
BRK	81	48	0
BRK	81	48	5
XHO	81	96	1	72
BRK	81	96	4
XTP	81	168	3
XTP	81	216	2
XTP	81	216	3
XTP	81	288	0
BRK	81	288	1
XTP	81	336	0
BRK	81	336	1
XTP	82	0	0
BRK	82	0	1
XTP	82	72	1
BRK	82	72	3
XTP	82	144	3
BRK	82	144	4
XTP	82	216	4
BRK	82	216	6
BRK	82	288	0
BRK	82	288	7
BRK	82	336	0
BRK	82	336	7
BRK	83	0	0
BST	83	0	7
SCL	83	0	7	96	192	1
STR	83	288	0
SI_	83	288	0	96	48	4

T_REC_TAP	299
T_REC_BRK	52
T_REC_XTP	81
T_REC_HLD	27
T_REC_XHO	11
T_REC_STR	8
T_REC_BST	3
T_REC_XST	1
T_REC_TTP	14
T_REC_THO	2
T_REC_SLD	12
T_REC_ALL	510
T_NUM_TAP	403
T_NUM_BRK	55
T_NUM_HLD	40
T_NUM_SLD	12
T_NUM_ALL	510
T_JUDGE_TAP	458
T_JUDGE_HLD	174
T_JUDGE_SLD	12
T_JUDGE_ALL	644
TTM_EACHPAIRS	181
TTM_SCR_TAP	201500
TTM_SCR_BRK	143000
TTM_SCR_HLD	40000
TTM_SCR_SLD	18000
TTM_SCR_ALL	402500
TTM_SCR_S	385100
TTM_SCR_SS	397000
TTM_RAT_ACV	10138

