VERSION	0.00.00	1.03.00
FES_MODE	0
BPM_DEF	150.000	150.000	150.000	150.000
MET_DEF	4	4
RESOLUTION	384
CLK_DEF	384
COMPATIBLE_CODE	MA2

BPM	0	0	150.000
MET	0	0	4	4

HLD	2	0	1	192
TAP	2	192	0
TAP	3	0	0
TAP	3	192	7
HLD	4	0	6	192
TAP	4	192	7
TAP	5	0	7
TAP	5	192	6
HLD	6	0	5	192
TAP	6	192	4
TAP	7	0	4
TAP	7	192	3
HLD	8	0	2	192
TAP	8	192	3
TAP	9	0	3
TAP	9	192	4
TAP	10	0	3
TAP	10	96	3
TAP	10	192	3
TAP	11	0	2
TAP	11	96	2
TAP	11	192	2
TAP	12	0	1
TAP	12	96	1
TAP	12	192	1
TAP	13	0	0
TAP	13	96	0
TAP	13	192	0
TAP	14	0	7
TAP	14	96	7
TAP	14	192	7
TAP	15	0	6
TAP	15	96	6
TAP	15	192	6
TAP	16	0	5
TAP	16	96	5
TAP	16	192	5
XTP	17	0	3
XTP	17	0	4
XTP	17	96	3
XTP	17	96	4
XTP	17	192	2
XTP	17	192	5
TAP	18	0	1
TAP	18	96	1
TAP	18	192	1
TAP	18	288	1
TAP	19	0	0
TAP	19	96	0
TAP	19	192	0
TAP	20	0	6
TAP	20	96	6
TAP	20	192	6
TAP	20	288	6
TAP	21	0	7
TAP	21	96	7
TAP	21	192	7
TAP	22	0	1
TAP	22	96	1
TAP	22	192	0
TAP	22	288	0
TAP	23	0	1
TAP	23	96	1
TAP	23	192	0
TAP	23	192	7
TAP	24	0	6
TAP	24	96	6
TAP	24	192	7
TAP	24	288	7
TAP	25	0	6
TAP	25	96	6
TAP	25	192	6
STR	26	0	6
SI_	26	0	6	96	192	3
STR	27	0	1
SI_	27	0	1	96	192	4
STR	28	0	7
SI_	28	0	7	96	192	3
TAP	29	0	2
TAP	29	96	2
TAP	29	192	2
TAP	29	192	3
STR	30	0	1
SI_	30	0	1	96	192	4
STR	31	0	6
SI_	31	0	6	96	192	3
STR	32	0	0
SI_	32	0	0	96	192	4
TAP	33	0	5
TAP	33	96	5
TAP	33	192	4
TAP	33	192	5
STR	34	0	3
SXR	34	0	3	96	552	0
STR	34	0	4
SXL	34	0	4	96	552	7
HLD	36	0	6	192
HLD	36	192	7	192
HLD	37	0	6	192
TAP	37	192	7
HLD	38	0	1	192
HLD	38	192	0	192
HLD	39	0	1	192
TAP	39	192	0
HLD	40	0	2	192
HLD	40	192	3	192
HLD	41	0	4	192
TAP	41	192	5
HLD	42	0	5	192
HLD	42	192	4	192
HLD	43	0	3	192
TAP	43	192	2
TAP	44	0	1
TAP	44	96	1
TAP	44	192	0
TAP	44	288	0
HLD	45	0	1	192
HLD	45	192	0	192
HLD	46	0	7	192
TAP	46	192	6
TAP	47	0	5
TAP	47	96	5
TAP	47	192	4
TAP	47	192	5
TAP	48	0	6
TAP	48	96	6
TAP	48	192	7
TAP	48	288	7
HLD	49	0	6	192
HLD	49	192	7	192
HLD	50	0	0	192
TAP	50	192	1
TAP	51	0	2
TAP	51	96	2
TAP	51	192	2
TAP	51	192	3
TTP	52	0	1	B	0	L1
TTP	52	96	2	B	0	L1
TTP	52	192	3	B	0	L1
TTP	53	0	6	B	0	L1
TTP	53	96	5	B	0	L1
TTP	53	192	4	B	0	L1
TTP	54	0	1	B	0	L1
TTP	54	96	2	B	0	L1
TTP	54	192	3	B	0	L1
TTP	54	288	4	B	0	L1
TTP	55	0	5	B	0	L1
TTP	55	96	6	B	0	L1
TTP	55	192	7	B	0	L1
TTP	56	0	1	B	0	L1
TTP	56	96	2	B	0	L1
TTP	56	192	3	B	0	L1
TTP	57	0	6	B	0	L1
TTP	57	96	5	B	0	L1
TTP	57	192	4	B	0	L1
TTP	57	288	3	B	0	L1
TTP	58	0	2	B	0	L1
TTP	58	96	1	B	0	L1
TTP	58	192	0	B	0	L1
TTP	59	0	0	C	1	L1
TAP	60	0	2
TAP	60	96	2
TAP	60	192	1
TAP	60	288	1
TAP	61	0	0
TAP	61	96	0
TAP	61	192	7
TAP	61	288	7
TAP	62	0	6
TAP	62	96	6
TAP	62	192	5
TAP	62	288	5
TAP	63	0	4
TAP	63	96	4
XTP	63	192	3
XTP	63	192	4
TAP	64	0	5
TAP	64	96	5
TAP	64	192	6
TAP	64	288	6
TAP	65	0	7
TAP	65	96	7
TAP	65	192	0
TAP	65	288	0
TAP	66	0	1
TAP	66	96	1
TAP	66	192	2
TAP	66	288	2
TAP	67	0	3
TAP	67	96	3
XTP	67	192	3
XTP	67	192	4
TAP	68	0	2
TAP	68	96	2
TAP	68	192	1
TAP	68	288	1
TAP	69	0	0
TAP	69	96	7
TAP	69	192	6
TAP	69	288	6
TAP	70	0	7
TAP	70	96	0
TAP	70	192	1
TAP	70	288	1
TAP	71	0	0
TAP	71	96	7
XTP	71	192	6
XTP	71	192	7
TAP	72	0	5
TAP	72	96	5
TAP	72	192	6
TAP	72	288	6
TAP	73	0	7
TAP	73	96	0
TAP	73	192	1
TAP	73	288	1
TAP	74	0	0
TAP	74	96	7
TAP	74	192	6
TAP	74	288	6
TAP	75	0	7
TAP	75	96	0
XTP	75	192	0
XTP	75	192	1
HLD	76	0	0	192
HLD	76	0	7	192
TAP	77	0	0
TAP	77	0	7
TAP	77	96	0
TAP	77	96	7
BRK	77	192	1
BRK	77	192	6
TAP	78	0	1
TAP	78	96	2
TAP	78	192	3
TAP	78	288	4
TAP	79	0	5
TAP	79	96	6
TAP	79	192	0
TAP	79	192	7
TAP	80	0	6
TAP	80	96	5
TAP	80	192	4
TAP	80	288	3
TAP	81	0	2
TAP	81	96	1
TAP	81	192	0
TAP	81	192	7
TAP	82	0	0
TAP	82	96	0
TAP	82	192	7
TAP	82	288	7
STR	83	0	0
SCR	83	0	0	96	240	3
STR	83	0	7
SCL	83	0	7	96	240	4

T_REC_TAP	172
T_REC_BRK	2
T_REC_XTP	14
T_REC_HLD	24
T_REC_XHO	0
T_REC_STR	10
T_REC_BST	0
T_REC_XST	0
T_REC_TTP	24
T_REC_THO	0
T_REC_SLD	10
T_REC_ALL	256
T_NUM_TAP	220
T_NUM_BRK	2
T_NUM_HLD	24
T_NUM_SLD	10
T_NUM_ALL	256
T_JUDGE_TAP	222
T_JUDGE_HLD	96
T_JUDGE_SLD	10
T_JUDGE_ALL	328
TTM_EACHPAIRS	20
TTM_SCR_TAP	110000
TTM_SCR_BRK	5200
TTM_SCR_HLD	24000
TTM_SCR_SLD	15000
TTM_SCR_ALL	154200
TTM_SCR_S	149400
TTM_SCR_SS	154000
TTM_RAT_ACV	10012

