VERSION	0.00.00	1.03.00
FES_MODE	0
BPM_DEF	150.000	150.000	150.000	150.000
MET_DEF	4	4
RESOLUTION	384
CLK_DEF	384
COMPATIBLE_CODE	MA2

BPM	0	0	150.000
MET	0	0	4	4

XHO	2	0	0	384
HLD	4	0	7	384
TAP	6	0	0
TAP	7	0	0
TAP	8	0	7
TAP	9	0	7
TAP	10	0	0
TAP	11	0	1
TAP	12	0	2
TAP	13	0	3
TAP	14	0	4
TAP	15	0	5
TAP	16	0	6
XTP	17	0	0
XTP	17	0	7
TAP	18	0	7
TAP	18	192	7
TAP	19	0	7
TAP	20	0	6
TAP	20	192	6
TAP	21	0	6
TAP	22	0	5
TAP	22	192	5
TAP	23	0	5
TAP	24	0	4
TAP	24	192	4
TAP	25	0	3
TAP	25	0	4
TAP	26	0	3
TAP	26	192	3
TAP	27	0	3
TAP	28	0	2
TAP	28	192	2
TAP	29	0	2
TAP	30	0	1
TAP	30	192	1
TAP	31	0	1
TAP	32	0	0
TAP	32	192	0
TAP	33	0	0
TAP	33	0	7
BRK	34	0	0
BRK	34	0	7
TTP	36	0	0	B	0	L1
TTP	37	0	7	B	0	L1
TTP	38	0	1	B	0	L1
TTP	39	0	6	B	0	L1
TTP	40	0	2	B	0	L1
TTP	41	0	5	B	0	L1
TTP	42	0	3	B	0	L1
TTP	43	0	0	C	0	L1
STR	44	0	0
SI_	44	0	0	96	288	3
STR	46	0	4
SI_	46	0	4	96	288	7
STR	48	0	0
SI_	48	0	0	96	288	3
STR	50	0	4
SI_	50	0	4	96	288	7
TAP	52	0	0
TAP	52	192	0
TAP	53	0	0
TAP	53	0	1
TAP	54	0	2
TAP	54	192	2
TAP	55	0	2
TAP	55	0	3
TAP	56	0	4
TAP	56	192	4
TAP	57	0	4
TAP	57	0	5
TAP	58	0	6
TAP	58	192	6
TAP	59	0	6
TAP	59	0	7
BRK	60	0	7
TAP	60	96	7
TAP	60	192	7
TAP	61	0	6
TAP	61	192	6
TAP	62	0	5
TAP	62	96	5
TAP	62	192	5
TAP	63	0	4
TAP	63	192	3
TAP	63	192	4
TAP	64	0	3
TAP	64	96	3
TAP	64	192	3
TAP	65	0	2
TAP	65	192	2
TAP	66	0	1
TAP	66	96	1
TAP	66	192	1
TAP	67	0	0
TAP	67	0	7
TAP	68	0	0
TAP	68	96	0
TAP	68	192	0
TAP	69	0	1
TAP	69	96	1
TAP	69	192	1
TAP	70	0	2
TAP	70	96	2
TAP	70	192	2
TAP	71	0	3
TAP	71	0	4
TAP	71	192	3
TAP	71	192	4
TAP	72	0	4
TAP	72	96	4
TAP	72	192	4
TAP	73	0	5
TAP	73	96	5
TAP	73	192	5
TAP	74	0	6
TAP	74	96	6
TAP	74	192	6
TAP	75	0	7
TAP	75	96	7
TAP	75	192	7
HLD	76	0	0	384
HLD	76	0	7	384
XTP	77	192	0
XTP	77	192	7
TAP	78	0	7
TAP	78	96	7
TAP	78	192	6
TAP	78	288	6
TAP	79	0	5
TAP	79	96	5
TAP	79	192	4
TAP	79	192	5
TAP	80	0	3
TAP	80	96	3
TAP	80	192	2
TAP	80	288	2
TAP	81	0	1
TAP	81	96	1
TAP	81	192	0
TAP	81	192	1
TAP	82	0	7
TAP	82	96	7
TAP	82	192	0
TAP	82	288	0
TAP	83	0	7
TAP	83	96	7
TAP	83	192	0
TAP	83	192	7
XTP	83	288	0
XTP	83	288	7

T_REC_TAP	122
T_REC_BRK	3
T_REC_XTP	6
T_REC_HLD	3
T_REC_XHO	1
T_REC_STR	4
T_REC_BST	0
T_REC_XST	0
T_REC_TTP	8
T_REC_THO	0
T_REC_SLD	4
T_REC_ALL	151
T_NUM_TAP	140
T_NUM_BRK	3
T_NUM_HLD	4
T_NUM_SLD	4
T_NUM_ALL	151
T_JUDGE_TAP	143
T_JUDGE_HLD	32
T_JUDGE_SLD	4
T_JUDGE_ALL	179
TTM_EACHPAIRS	18
TTM_SCR_TAP	70000
TTM_SCR_BRK	7800
TTM_SCR_HLD	4000
TTM_SCR_SLD	6000
TTM_SCR_ALL	87800
TTM_SCR_S	84900
TTM_SCR_SS	87500
TTM_RAT_ACV	10034

