VERSION	0.00.00	1.03.00
FES_MODE	0
BPM_DEF	165.000	165.000	165.000	165.000
MET_DEF	4	4
RESOLUTION	384
CLK_DEF	384
COMPATIBLE_CODE	MA2

BPM	0	0	165.000
MET	0	0	4	4

TAP	1	0	1
TAP	1	0	4
STR	1	48	1
SUR	1	48	1	96	144	2
HLD	1	48	4	240
TAP	2	0	3
TAP	2	0	5
STR	2	48	3
SUR	2	48	3	96	144	1
HLD	2	48	5	240
TAP	3	0	2
TAP	3	0	6
STR	3	48	2
SLL	3	48	2	96	144	4
HLD	3	48	6	240
HLD	4	0	3	48
HLD	4	0	5	48
HLD	4	72	2	48
HLD	4	72	4	48
TAP	4	144	1
TAP	4	144	5
STR	4	192	0
SI_	4	192	0	96	48	4
STR	4	192	7
SI_	4	192	7	96	48	3
XTP	4	288	0
XTP	4	288	7
TAP	5	0	2
STR	5	0	5
SCR	5	0	5	96	48	0
TAP	5	96	4
TAP	5	192	2
STR	5	192	5
SCR	5	192	5	96	48	0
TAP	5	288	4
TAP	6	0	2
STR	6	0	5
SCR	6	0	5	96	48	0
TAP	6	96	4
TAP	6	192	2
STR	6	192	5
SCR	6	192	5	96	48	0
TAP	6	288	4
HLD	7	0	3	240
STR	7	0	5
SCR	7	0	5	96	192	4
XST	7	336	3
SI_	7	336	3	96	48	7
TAP	8	48	3
STR	8	48	4
SI_	8	48	4	96	48	0
STR	8	144	3
SI_	8	144	3	96	48	7
TAP	8	144	4
TAP	8	240	3
TAP	8	240	4
TAP	8	336	2
TAP	8	336	5
STR	9	0	2
SCL	9	0	2	96	48	7
TAP	9	0	5
TAP	9	96	3
STR	9	192	2
SCL	9	192	2	96	48	7
TAP	9	192	5
TAP	9	288	3
STR	10	0	2
SCL	10	0	2	96	48	7
TAP	10	0	5
TAP	10	96	3
STR	10	192	2
SCL	10	192	2	96	48	7
TAP	10	192	5
TAP	10	288	3
STR	11	0	2
SCL	11	0	2	96	48	7
TAP	11	0	5
TAP	11	96	3
STR	11	192	2
SCL	11	192	2	96	48	7
TAP	11	192	5
TAP	11	288	3
TAP	12	0	1
TAP	12	24	0
TAP	12	48	1
TAP	12	72	0
TAP	12	120	6
TAP	12	144	7
STR	12	168	6
SV_	12	168	6	96	72	3
STR	12	192	7
SI_	12	192	7	96	48	3
TAP	13	0	2
TAP	13	0	4
HLD	13	48	2	240
HLD	13	48	4	240
TAP	14	0	3
TAP	14	0	5
HLD	14	48	3	240
HLD	14	48	5	240
TAP	15	0	6
TAP	15	48	3
TAP	15	96	5
TAP	15	144	2
TAP	15	192	4
TAP	15	240	1
TAP	15	288	3
TAP	15	336	0
BRK	16	0	6
BRK	16	24	7
BRK	16	48	6
BRK	16	72	7
BRK	16	96	6
BRK	16	192	1
BRK	16	216	0
BRK	16	240	1
BRK	16	264	0
BRK	16	288	1
TAP	17	0	2
TAP	17	0	5
HLD	17	48	2	624
HLD	17	48	5	240
TAP	18	0	3
HLD	18	48	3	240
TAP	19	0	1
TAP	19	48	4
TAP	19	96	2
TAP	19	144	5
TAP	19	192	3
TAP	19	240	6
TAP	19	288	4
TAP	19	336	7
TAP	20	0	4
TAP	20	0	6
TAP	20	48	5
TAP	20	96	3
TAP	20	96	4
TAP	20	144	2
HLD	20	192	1	96
TAP	20	192	3
XTP	20	288	7
TAP	21	0	0
HLD	21	0	2	96
HLD	21	96	3	144
TAP	21	144	0
HLD	21	240	2	96
TAP	21	288	0
TAP	22	0	0
TAP	22	0	7
TAP	22	96	2
TAP	22	96	6
HLD	22	192	4	96
STR	22	192	5
SV_	22	192	5	96	48	0
STR	23	0	2
SXL	23	0	2	96	192	3
SLL	23	0	2	96	192	3
XHO	24	0	5	48
TTP	24	48	1	E	0	M1
TTP	24	64	2	E	0	M1
TTP	24	80	3	E	0	M1
XHO	24	96	5	48
TTP	24	144	1	B	0	M1
TTP	24	160	2	B	0	M1
TTP	24	176	4	E	0	M1
XTP	24	192	5
TAP	24	240	6
TAP	24	240	7
STR	25	0	4
SXL	25	0	4	96	192	4
SXR	25	0	4	96	192	4
XHO	26	0	2	48
TTP	26	48	7	E	0	M1
TTP	26	64	6	E	0	M1
TTP	26	80	5	E	0	M1
XHO	26	96	2	48
TTP	26	144	6	B	0	M1
TTP	26	160	5	B	0	M1
TTP	26	176	4	E	0	M1
XTP	26	192	2
TAP	26	240	0
TAP	26	240	1
STR	27	0	7
SSR	27	0	7	96	144	3
XTP	27	288	1
XTP	27	288	5
TAP	28	0	0
STR	28	0	6
SCL	28	0	6	96	48	3
TAP	28	48	0
TAP	28	96	1
TAP	28	144	1
STR	28	192	2
SCL	28	192	2	96	48	7
TAP	28	192	4
TAP	28	240	4
TAP	28	288	5
TAP	28	336	5
TAP	29	48	0
TAP	29	48	6
TAP	29	96	0
TAP	29	96	6
HLD	29	192	2	48
HLD	29	192	4	48
HLD	29	264	3	48
HLD	29	264	5	48
TAP	29	336	2
TAP	29	336	6
TAP	30	48	3
TAP	30	48	4
STR	30	96	3
SSR	30	96	3	96	48	7
STR	30	96	4
SSL	30	96	4	96	48	0
XTP	30	288	1
XTP	30	288	6
STR	31	0	0
SI_	31	0	0	96	48	4
TAP	31	0	5
TAP	31	72	1
TAP	31	96	0
TAP	31	144	3
TAP	31	192	2
STR	31	192	7
SI_	31	192	7	96	48	3
TAP	31	264	6
TAP	31	288	7
TAP	31	336	4
STR	32	0	0
SCL	32	0	0	96	48	4
TAP	32	0	6
TAP	32	96	0
STR	32	96	1
SUR	32	96	1	96	48	5
TAP	32	192	1
TAP	32	192	6
BRK	32	240	7
BRK	32	288	7
BRK	32	336	7
TAP	33	0	0
TAP	33	0	2
TAP	33	48	1
TAP	33	72	0
TAP	33	96	1
TAP	33	144	6
TAP	33	168	7
TAP	33	192	6
TAP	33	240	0
TAP	33	240	5
TAP	33	288	1
STR	33	336	2
SI_	33	336	2	96	48	6
TAP	33	336	5
TAP	34	0	4
BRK	34	48	2
STR	34	48	3
SI_	34	48	3	96	48	7
STR	34	144	2
SI_	34	144	2	96	48	6
BRK	34	144	3
BRK	34	240	2
TAP	34	240	3
TAP	34	336	2
TAP	34	336	3
STR	35	0	2
SCL	35	0	2	96	96	5
TAP	35	0	3
TAP	35	96	4
TAP	35	144	4
STR	35	192	4
SI_	35	192	4	96	48	0
SI_	35	192	4	96	48	1
BRK	35	288	4
STR	36	0	2
SCL	36	0	2	96	96	5
TAP	36	0	7
TAP	36	96	4
TAP	36	144	4
STR	36	192	4
SI_	36	192	4	96	48	0
SI_	36	192	4	96	48	1
BRK	36	288	4
HLD	37	0	2	96
TAP	37	0	7
TAP	37	96	5
TAP	37	144	3
TAP	37	192	0
HLD	37	192	5	96
TAP	37	288	2
TAP	37	336	4
TAP	38	0	0
TAP	38	0	7
TAP	38	48	0
TAP	38	48	7
TTP	38	96	6	E	0	M1
TTP	38	108	5	B	0	M1
TTP	38	120	4	B	0	M1
TTP	38	132	4	E	0	M1
TTP	38	144	2	E	0	M1
TTP	38	156	2	B	0	M1
TTP	38	168	3	B	0	M1
TTP	38	180	4	E	0	M1
TTP	38	192	0	C	1	M1
XTP	38	288	1
XTP	38	288	6
TAP	39	0	3
STR	39	0	4
SI_	39	0	4	96	48	0
TAP	39	72	1
TAP	39	96	4
TAP	39	144	2
STR	39	192	4
SI_	39	192	4	96	48	0
TAP	39	192	5
TAP	39	264	7
TAP	39	288	4
TAP	39	336	6
TAP	40	0	1
STR	40	0	7
SCR	40	0	7	96	48	3
STR	40	96	6
SUL	40	96	6	96	48	2
TAP	40	96	7
TAP	40	192	1
TAP	40	192	6
BRK	40	240	0
BRK	40	288	0
BRK	40	336	0
TAP	41	0	5
TAP	41	0	7
TAP	41	48	6
TAP	41	72	7
TAP	41	96	6
TAP	41	144	1
TAP	41	168	0
TAP	41	192	1
TAP	41	240	2
TAP	41	240	7
TAP	41	288	4
STR	41	336	5
SUL	41	336	5	96	240	2
STR	42	0	6
SXL	42	0	6	96	192	2
TAP	43	0	1
TAP	43	0	3
TAP	43	64	1
TAP	43	96	2
TAP	43	160	2
STR	43	192	3
SUR	43	192	3	96	48	7
SLR	43	192	3	96	48	7
TAP	44	0	4
TAP	44	0	6
TAP	44	64	6
TAP	44	96	5
TAP	44	160	5
STR	44	192	4
SCL	44	192	4	96	48	1
SUL	44	192	4	96	48	0
STR	45	0	7
SI_	45	0	7	96	48	3
TAP	45	72	2
TAP	45	144	1
STR	45	192	0
SI_	45	192	0	96	48	4
TAP	45	264	5
TAP	45	336	6
XHO	46	0	4	288
TAP	46	48	6
TAP	46	96	6
TAP	46	144	7
TAP	46	192	0
TAP	46	240	1
TAP	46	288	2
TAP	46	336	3
STR	47	0	4
SSL	47	0	4	96	96	0
SV_	47	0	4	96	96	7
XTP	47	288	1
XTP	47	288	6
XTP	48	0	2
XST	48	0	5
SCR	48	0	5	96	576	4
TAP	48	48	2
TAP	48	48	5
HLD	48	144	3	288
TTP	49	144	0	C	1	M1
XTP	50	0	2
XST	50	0	5
SCR	50	0	5	96	576	4
TAP	50	48	2
TAP	50	48	5
HLD	50	144	1	96
XST	50	288	1
SXL	50	288	1	96	240	3
XTP	52	0	3
XST	52	0	5
SCR	52	0	5	96	576	4
TAP	52	48	3
TAP	52	48	5
HLD	52	144	2	264
TTP	53	120	0	C	0	M1
XHO	54	0	4	48
XHO	54	0	5	48
TAP	54	96	4
TAP	54	96	5
TAP	54	144	4
TAP	54	144	5
TAP	54	192	3
TAP	54	192	6
TAP	54	240	3
TAP	54	240	6
TAP	54	288	2
TAP	54	288	7
TAP	54	336	2
TAP	54	336	7
TAP	55	0	1
TAP	55	24	0
TAP	55	48	1
TAP	55	72	0
TAP	55	120	2
TAP	55	120	6
TAP	55	168	0
TAP	55	192	7
XTP	55	288	1
XTP	55	288	6
BRK	56	0	4
BRK	56	0	5
BRK	56	48	4
BRK	56	48	5
BRK	56	96	1
BRK	56	120	0
BRK	56	144	1
BRK	56	192	2
BRK	56	192	3
BRK	56	240	2
BRK	56	240	3
BRK	56	288	6
BRK	56	312	0
BRK	56	336	6
BRK	57	0	4
BRK	57	0	5
BRK	57	48	4
BRK	57	48	5
BRK	57	96	2
BRK	57	120	7
BST	57	144	2
SCL	57	144	2	96	48	7
BRK	57	192	2
BST	57	192	3
SUL	57	192	3	96	48	7
BRK	58	0	4
BRK	58	0	5
BRK	58	48	4
BRK	58	48	5
BRK	58	96	1
BRK	58	120	0
BRK	58	144	1
BRK	58	192	2
BRK	58	192	3
BRK	58	240	2
BRK	58	240	3
BRK	58	288	6
BRK	58	312	0
BRK	58	336	6
HLD	59	48	0	48
HLD	59	48	1	48
HLD	59	144	2	48
HLD	59	144	3	48
HLD	59	240	6	48
HLD	59	240	7	48
TAP	59	336	4
TAP	59	336	5
BRK	60	0	2
BRK	60	0	3
BRK	60	48	2
BRK	60	48	3
BRK	60	96	6
BRK	60	120	7
BRK	60	144	6
BRK	60	192	4
BRK	60	192	5
BRK	60	240	4
BRK	60	240	5
BRK	60	288	1
BRK	60	312	7
BRK	60	336	1
BRK	61	0	2
BRK	61	0	3
BRK	61	48	2
BRK	61	48	3
BRK	61	96	5
BRK	61	120	0
BST	61	144	5
SCR	61	144	5	96	48	0
BST	61	192	4
SUR	61	192	4	96	48	0
BRK	61	192	5
BRK	62	0	2
BRK	62	0	3
BRK	62	48	2
BRK	62	48	3
BRK	62	96	6
BRK	62	120	7
BRK	62	144	6
BRK	62	192	3
BRK	62	192	4
BRK	62	240	3
BRK	62	240	4
BST	62	288	0
SI_	62	288	0	96	48	3
SCR	62	288	0	96	48	3
BRK	62	312	7
BRK	62	336	0
XST	63	0	0
SI_	63	0	0	96	48	5
SCL	63	0	0	96	48	5
XST	63	96	0
SF_	63	96	0	96	48	4
XTP	63	192	0
XTP	63	288	2
XTP	63	288	6
TAP	64	0	0
TAP	64	0	7
TAP	64	48	1
TAP	64	72	3
TAP	64	96	2
HLD	64	144	4	48
TAP	64	192	2
TAP	64	216	3
TAP	64	240	2
TAP	64	264	3
TAP	64	288	1
TAP	65	0	6
TAP	65	0	7
TAP	65	48	5
TAP	65	72	3
TAP	65	96	4
HLD	65	144	2	48
TAP	65	192	4
TAP	65	216	3
TAP	65	240	4
TAP	65	264	3
TAP	65	288	5
STR	66	0	2
SI_	66	0	2	96	48	6
TAP	66	72	4
TAP	66	144	5
STR	66	192	5
SI_	66	192	5	96	48	1
TAP	66	264	3
TAP	66	336	2
STR	67	0	0
SXR	67	0	0	96	192	2
SXR	67	0	0	96	192	4
HLD	68	0	3	288
TAP	68	144	2
TAP	68	192	2
TAP	68	288	4
HLD	69	0	4	288
TAP	69	144	5
TAP	69	192	5
TAP	69	288	3
HLD	70	0	1	72
TAP	70	72	3
TAP	70	144	3
HLD	70	192	2	72
TAP	70	264	3
TAP	70	336	3
HLD	71	0	1	288
TAP	71	96	0
TAP	71	192	2
TAP	71	288	3
XST	72	0	4
SI_	72	0	4	96	96	6
SI_	72	0	4	96	96	7
XTP	72	288	6
XTP	72	288	7
XTP	72	336	6
XTP	72	336	7
XST	73	48	4
SUR	73	48	4	96	144	1
XST	73	48	5
SCR	73	48	5	96	144	1
XTP	74	0	0
XHO	74	0	1	72
HLD	74	72	2	72
TAP	74	144	3
STR	74	192	3
SI_	74	192	3	96	48	7
TAP	74	192	4
XHO	75	0	6	72
XTP	75	0	7
HLD	75	72	5	72
TAP	75	144	4
HLD	75	192	5	72
HLD	75	264	4	72
TAP	75	336	3
XHO	76	0	2	240
XTP	76	0	5
TTP	76	96	7	E	0	M1
TTP	76	120	6	E	0	M1
TTP	76	144	5	E	0	M1
TTP	76	168	4	E	0	M1
TTP	76	192	3	E	0	M1
TTP	76	216	2	E	0	M1
TTP	76	240	1	E	0	M1
XHO	76	336	0	48
XHO	76	336	1	48
TAP	77	48	1
TAP	77	72	0
TAP	77	96	1
TAP	77	120	0
TAP	77	144	1
STR	77	192	2
SI_	77	192	2	96	48	6
STR	77	192	7
SI_	77	192	7	96	48	3
TTP	77	300	0	C	1	M1
BRK	78	0	1
BRK	78	0	5
TAP	79	0	3
STR	79	0	7
SCR	79	0	7	96	48	3
STR	79	96	6
SUL	79	96	6	96	48	2
TAP	79	96	7
TAP	79	192	1
TAP	79	192	6
BRK	79	240	0
BRK	79	288	0
BRK	79	336	0
TAP	80	0	5
TAP	80	0	7
TAP	80	48	6
TAP	80	72	7
TAP	80	96	6
TAP	80	144	1
TAP	80	168	0
TAP	80	192	1
TAP	80	240	2
TAP	80	240	7
TAP	80	288	6
TAP	80	336	2
STR	80	336	5
SI_	80	336	5	96	48	1
TAP	81	0	3
STR	81	48	4
SI_	81	48	4	96	48	0
BRK	81	48	5
BRK	81	144	4
STR	81	144	5
SI_	81	144	5	96	48	1
TAP	81	240	4
BRK	81	240	5
TAP	81	336	4
TAP	81	336	5
TAP	82	0	4
STR	82	0	5
SCR	82	0	5	96	96	2
TAP	82	96	3
TAP	82	144	3
STR	82	192	3
SI_	82	192	3	96	48	6
SI_	82	192	3	96	48	7
BRK	82	288	3
TAP	83	0	0
STR	83	0	5
SCR	83	0	5	96	96	2
TAP	83	96	3
TAP	83	144	3
STR	83	192	3
SI_	83	192	3	96	48	6
SI_	83	192	3	96	48	7
BRK	83	288	3
TAP	84	0	0
HLD	84	0	5	96
TAP	84	96	2
TAP	84	144	4
HLD	84	192	2	96
TAP	84	192	7
TAP	84	288	5
TAP	84	336	3
XST	85	0	2
SV_	85	0	2	96	48	4
XST	85	0	6
SV_	85	0	6	96	48	4
XST	85	96	2
SV_	85	96	2	96	48	0
XST	85	96	6
SV_	85	96	6	96	48	0
TTP	85	192	0	C	1	M1
XTP	85	288	1
XTP	85	288	7
STR	86	0	3
SI_	86	0	3	96	48	7
TAP	86	0	4
TAP	86	72	6
TAP	86	96	3
TAP	86	144	5
TAP	86	192	2
STR	86	192	3
SI_	86	192	3	96	48	7
TAP	86	264	0
TAP	86	288	3
TAP	86	336	1
STR	87	0	0
SCL	87	0	0	96	48	4
TAP	87	0	6
TAP	87	96	0
STR	87	96	1
SUR	87	96	1	96	48	5
TAP	87	192	1
TAP	87	192	6
BRK	87	240	7
BRK	87	288	7
BRK	87	336	7
TAP	88	0	0
TAP	88	0	2
TAP	88	48	1
TAP	88	72	0
TAP	88	96	1
TAP	88	144	6
TAP	88	168	7
TAP	88	192	6
TAP	88	240	0
TAP	88	240	5
TAP	88	288	3
STR	88	336	2
SUR	88	336	2	96	240	5
STR	89	0	1
SXR	89	0	1	96	192	5
TAP	90	0	4
TAP	90	0	6
TAP	90	64	6
TAP	90	96	5
TAP	90	160	5
STR	90	192	4
SUL	90	192	4	96	48	0
SLL	90	192	4	96	48	0
TAP	91	0	1
TAP	91	0	3
TAP	91	64	1
TAP	91	96	2
TAP	91	160	2
STR	91	192	3
SCR	91	192	3	96	48	6
SUR	91	192	3	96	48	7
STR	92	0	0
SI_	92	0	0	96	48	4
TAP	92	72	5
TAP	92	144	6
STR	92	192	7
SI_	92	192	7	96	48	3
TAP	92	264	2
TAP	92	336	1
XHO	93	0	3	288
TAP	93	48	1
TAP	93	96	1
TAP	93	144	0
TAP	93	192	7
TAP	93	240	6
TAP	93	288	5
TAP	93	336	4
STR	94	0	3
SSR	94	0	3	96	96	7
SV_	94	0	3	96	96	0
XTP	94	288	1
XTP	94	288	6
STR	95	0	2
SCL	95	0	2	96	48	7
TAP	95	0	5
TAP	95	48	4
TAP	95	96	2
TAP	95	96	3
STR	95	192	2
SCL	95	192	2	96	48	7
TAP	95	192	5
TAP	95	240	4
TAP	95	288	2
TAP	95	288	3
STR	96	0	2
SCL	96	0	2	96	48	7
TAP	96	0	5
TAP	96	48	4
TAP	96	96	2
TAP	96	96	3
STR	96	192	2
SCL	96	192	2	96	48	7
TAP	96	192	5
TAP	96	240	4
TAP	96	288	2
TAP	96	288	3
STR	97	0	2
SCL	97	0	2	96	192	3
HLD	97	0	4	240
XST	97	336	4
SI_	97	336	4	96	48	0
STR	98	48	3
SI_	98	48	3	96	48	7
TAP	98	48	4
TAP	98	144	3
STR	98	144	4
SI_	98	144	4	96	48	0
TAP	98	240	3
TAP	98	240	4
TAP	98	336	2
TAP	98	336	5
TAP	99	0	2
STR	99	0	5
SCR	99	0	5	96	48	0
TAP	99	96	4
TAP	99	96	5
TAP	99	192	2
STR	99	192	5
SCR	99	192	5	96	48	0
TAP	99	240	3
TAP	99	288	4
TAP	99	288	5
TAP	100	0	2
STR	100	0	5
SCR	100	0	5	96	48	0
TAP	100	48	3
TAP	100	96	4
TAP	100	96	5
TAP	100	192	2
STR	100	192	5
SCR	100	192	5	96	48	0
TAP	100	240	3
TAP	100	288	4
TAP	100	288	5
TAP	101	0	2
STR	101	0	5
SCR	101	0	5	96	48	0
TAP	101	48	3
TAP	101	96	4
TAP	101	96	5
TAP	101	192	2
STR	101	192	5
SCR	101	192	5	96	48	0
TAP	101	240	3
TAP	101	288	4
TAP	101	288	5
TAP	102	0	6
TAP	102	24	7
TAP	102	48	6
TAP	102	72	7
TAP	102	120	1
TAP	102	144	0
TAP	102	168	1
HLD	102	192	0	96
TAP	102	288	1
TAP	102	300	2
TAP	102	312	3
TAP	102	324	4
TAP	102	336	5
TAP	102	348	6
TAP	102	360	7
TAP	102	372	0
XST	103	0	1
SLR	103	0	1	96	288	5
XST	103	0	5
SI_	103	0	5	96	288	1

T_REC_TAP	395
T_REC_BRK	103
T_REC_XTP	32
T_REC_HLD	50
T_REC_XHO	13
T_REC_STR	89
T_REC_BST	5
T_REC_XST	17
T_REC_TTP	32
T_REC_THO	0
T_REC_SLD	127
T_REC_ALL	863
T_NUM_TAP	565
T_NUM_BRK	108
T_NUM_HLD	63
T_NUM_SLD	127
T_NUM_ALL	863
T_JUDGE_TAP	673
T_JUDGE_HLD	178
T_JUDGE_SLD	127
T_JUDGE_ALL	978
TTM_EACHPAIRS	188
TTM_SCR_TAP	282500
TTM_SCR_BRK	280800
TTM_SCR_HLD	63000
TTM_SCR_SLD	190500
TTM_SCR_ALL	816800
TTM_SCR_S	781850
TTM_SCR_SS	806000
TTM_RAT_ACV	10133

