VERSION	0.00.00	1.03.00
FES_MODE	0
BPM_DEF	165.000	165.000	165.000	165.000
MET_DEF	4	4
RESOLUTION	384
CLK_DEF	384
COMPATIBLE_CODE	MA2

BPM	0	0	165.000
MET	0	0	4	4

XTP	1	0	3
XTP	1	0	4
XST	1	48	3
SI_	1	48	3	96	96	0
XST	1	48	4
SI_	1	48	4	96	96	7
XTP	2	0	0
XTP	2	0	1
XST	2	48	0
SI_	2	48	0	96	96	4
XST	2	48	1
SI_	2	48	1	96	96	3
XTP	3	0	6
XTP	3	0	7
XST	3	48	6
SI_	3	48	6	96	96	4
XST	3	48	7
SI_	3	48	7	96	96	3
TAP	4	0	3
TAP	4	0	4
TAP	4	72	3
TAP	4	72	4
TAP	4	144	2
TAP	4	144	5
XTP	4	192	2
XTP	4	192	5
BRK	4	288	1
BRK	4	288	6
STR	5	0	2
SI_	5	0	2	96	48	0
HLD	5	0	4	96
STR	5	192	2
SI_	5	192	2	96	48	0
HLD	5	192	4	96
HLD	6	0	3	96
STR	6	0	5
SI_	6	0	5	96	48	7
HLD	6	192	3	96
STR	6	192	5
SI_	6	192	5	96	48	7
STR	7	0	2
SLR	7	0	2	96	192	7
STR	7	0	5
SLL	7	0	5	96	192	0
XTP	8	0	0
XTP	8	0	7
BRK	8	48	0
BRK	8	48	7
BRK	8	144	3
BRK	8	144	6
BRK	8	240	1
BRK	8	240	4
BRK	8	336	3
BRK	8	336	6
HLD	9	0	4	96
STR	9	0	5
SI_	9	0	5	96	48	7
HLD	9	192	4	96
STR	9	192	5
SI_	9	192	5	96	48	7
STR	10	0	2
SI_	10	0	2	96	48	0
HLD	10	0	3	96
STR	10	192	2
SI_	10	192	2	96	48	0
HLD	10	192	3	96
HLD	11	0	4	96
STR	11	0	5
SI_	11	0	5	96	48	7
HLD	11	192	4	96
STR	11	192	5
SI_	11	192	5	96	48	7
XTP	12	0	2
XTP	12	0	3
XTP	12	48	2
XTP	12	48	3
XTP	12	120	4
XTP	12	120	5
XTP	12	168	4
XTP	12	168	5
BRK	12	288	1
BRK	12	288	6
XTP	13	0	2
XTP	13	0	4
XHO	13	48	2	240
XTP	13	48	4
TTP	13	192	3	E	0	M1
TTP	13	288	4	E	0	M1
XTP	14	0	3
XTP	14	0	5
XTP	14	48	3
XHO	14	48	5	240
TTP	14	192	5	E	0	M1
TTP	14	288	4	E	0	M1
STR	15	0	3
SXL	15	0	3	96	192	3
SXR	15	0	3	96	192	3
XTP	16	0	2
XTP	16	0	4
XTP	16	48	2
XTP	16	48	4
XTP	16	96	2
XTP	16	96	4
XTP	16	192	0
XTP	16	192	7
XTP	16	240	0
XTP	16	240	7
XTP	16	288	0
XTP	16	288	7
XTP	17	0	3
XTP	17	0	5
XTP	17	48	3
XHO	17	48	5	528
TAP	17	192	4
TAP	17	288	4
TAP	18	0	6
TAP	18	96	0
TAP	18	192	2
TAP	18	288	3
TAP	18	288	4
TAP	19	0	1
TAP	19	0	3
TAP	19	96	2
TAP	19	192	4
TAP	19	192	6
TAP	19	288	5
TAP	20	0	4
TAP	20	0	5
TAP	20	96	3
TAP	20	96	4
TAP	20	192	2
TAP	20	192	3
HLD	20	288	0	96
TAP	21	0	7
TAP	21	96	0
TAP	21	96	6
TAP	21	144	0
TAP	21	144	6
TAP	21	240	1
TAP	21	240	7
TAP	21	288	1
TAP	21	288	7
TAP	22	0	4
TAP	22	0	5
TAP	22	96	2
TAP	22	96	3
BRK	22	192	1
BRK	22	192	6
STR	23	0	0
SCR	23	0	0	96	144	3
XTP	24	0	5
TAP	24	48	5
XTP	24	96	4
XTP	24	192	3
XTP	24	192	6
XTP	24	240	3
XTP	24	240	6
STR	25	0	7
SCL	25	0	7	96	144	4
XTP	26	0	2
TAP	26	48	2
XTP	26	96	3
XTP	26	192	1
XTP	26	192	4
XTP	26	240	1
XTP	26	240	4
TTP	27	0	0	E	0	M1
TTP	27	96	0	C	0	M1
TTP	27	192	4	E	0	M1
TAP	28	0	1
TAP	28	0	3
TAP	28	96	4
TAP	28	96	6
TAP	28	192	2
TAP	28	192	5
STR	28	288	3
SI_	28	288	3	96	144	0
STR	28	288	4
SI_	28	288	4	96	144	7
XTP	29	336	1
XTP	29	336	6
TAP	30	48	3
TAP	30	48	4
HLD	30	96	3	96
HLD	30	96	4	96
BRK	30	288	2
BRK	30	288	5
XTP	31	0	0
XTP	31	0	6
TAP	31	72	0
TAP	31	72	6
TAP	31	144	3
TAP	31	144	5
XTP	31	192	1
XTP	31	192	7
TAP	31	264	1
TAP	31	264	7
TAP	31	336	2
TAP	31	336	4
STR	32	0	5
SI_	32	0	5	96	48	2
TAP	32	96	1
BRK	32	192	0
BRK	32	192	3
BRK	32	288	7
TAP	33	0	5
TAP	33	48	5
TAP	33	96	4
TAP	33	144	4
TAP	33	192	6
TAP	33	240	6
TAP	33	288	0
XTP	34	0	1
XTP	34	0	4
BRK	34	48	1
BRK	34	48	4
BRK	34	144	3
BRK	34	144	6
BRK	34	240	1
BRK	34	240	4
BRK	34	336	3
BRK	34	336	6
HLD	35	0	6	72
HLD	35	72	5	72
TAP	35	144	4
TAP	35	192	3
TAP	35	192	4
BRK	35	288	0
BRK	35	288	1
HLD	36	0	1	72
HLD	36	72	2	72
TAP	36	144	3
TAP	36	192	3
TAP	36	192	4
BRK	36	288	6
BRK	36	288	7
TAP	36	336	6
TAP	36	336	7
XTP	37	0	0
XTP	37	0	5
TAP	37	96	0
TAP	37	96	1
TAP	37	144	0
TAP	37	144	1
XTP	37	192	2
XTP	37	192	7
STR	37	288	3
SXR	37	288	3	96	192	3
STR	37	288	4
SXL	37	288	4	96	192	4
BRK	38	288	0
XTP	39	0	1
XTP	39	0	7
TAP	39	72	1
TAP	39	72	7
TAP	39	144	2
TAP	39	144	4
XTP	39	192	0
XTP	39	192	6
TAP	39	264	0
TAP	39	264	6
TAP	39	336	3
TAP	39	336	5
STR	40	0	2
SI_	40	0	2	96	48	5
TAP	40	96	6
BRK	40	192	4
BRK	40	192	7
BRK	40	288	0
TAP	41	0	5
TAP	41	48	5
TAP	41	96	4
TAP	41	144	4
TAP	41	192	7
TAP	41	240	7
STR	41	288	1
SXR	41	288	1	96	192	6
XTP	42	288	6
XTP	42	288	7
HLD	43	0	3	64
HLD	43	0	5	64
HLD	43	96	2	64
HLD	43	96	4	64
TAP	43	192	2
TAP	43	192	4
BRK	43	288	0
HLD	44	0	2	64
HLD	44	0	4	64
HLD	44	96	3	64
HLD	44	96	5	64
TAP	44	192	3
TAP	44	192	5
BRK	44	288	7
XTP	45	0	4
XTP	45	0	5
XTP	45	72	3
XTP	45	72	4
XTP	45	144	2
XTP	45	144	3
XTP	45	192	2
XTP	45	192	3
XTP	45	264	3
XTP	45	264	4
XTP	45	336	5
HLD	46	0	5	384
XTP	46	48	4
XTP	46	96	4
XTP	46	144	4
XTP	46	192	4
XTP	46	240	4
XST	46	288	4
SI_	46	288	4	96	48	0
XTP	46	336	4
TAP	47	144	7
HLD	47	192	7	96
STR	47	288	0
SCR	47	288	0	96	384	7
TAP	50	0	4
TAP	50	0	5
TAP	50	48	4
TAP	50	48	5
TAP	50	144	3
HLD	50	144	6	528
TAP	50	288	4
TAP	51	0	5
TAP	51	96	5
TAP	51	192	4
TAP	51	288	4
TAP	52	0	2
TAP	52	0	3
TAP	52	48	2
TAP	52	48	3
HLD	52	144	1	528
TAP	52	144	4
TAP	52	288	5
TAP	53	0	3
TAP	53	96	4
TAP	53	192	2
TAP	53	288	3
TAP	54	0	2
TAP	54	0	5
TAP	54	96	4
TAP	54	144	4
TAP	54	192	3
TAP	54	240	3
TAP	54	288	4
XTP	55	0	3
XTP	55	0	5
XTP	55	48	3
XTP	55	48	5
XTP	55	120	2
XTP	55	120	4
XTP	55	168	2
XTP	55	168	4
BRK	55	288	7
XTP	56	0	0
TAP	56	48	0
XTP	56	96	1
XTP	56	96	7
TAP	56	144	1
TAP	56	144	7
XTP	56	192	0
TAP	56	240	0
XTP	56	288	1
XTP	56	288	7
TAP	56	336	1
TAP	56	336	7
XTP	57	0	0
TAP	57	48	0
XTP	57	96	1
XTP	57	96	7
TAP	57	144	1
TAP	57	144	7
XTP	57	192	1
XTP	57	192	7
BRK	57	240	0
BRK	57	288	0
XTP	58	0	7
TAP	58	48	7
XTP	58	96	0
XTP	58	96	6
TAP	58	144	0
TAP	58	144	6
XTP	58	192	7
TAP	58	240	7
XTP	58	288	0
XTP	58	288	6
TAP	58	336	0
TAP	58	336	6
BRK	59	48	2
BRK	59	48	4
BRK	59	144	3
BRK	59	144	5
BRK	59	240	1
BRK	59	240	7
BRK	59	336	0
BRK	59	336	6
XTP	60	0	7
TAP	60	48	7
XTP	60	96	0
XTP	60	96	6
TAP	60	144	0
TAP	60	144	6
XTP	60	192	7
TAP	60	240	7
XTP	60	288	0
XTP	60	288	6
TAP	60	336	0
TAP	60	336	6
XTP	61	0	7
TAP	61	48	7
XTP	61	96	0
XTP	61	96	6
TAP	61	144	0
TAP	61	144	6
XTP	61	192	0
XTP	61	192	6
BRK	61	240	7
BRK	61	288	7
XTP	62	0	0
TAP	62	48	0
XTP	62	96	1
XTP	62	96	7
TAP	62	144	1
TAP	62	144	7
XTP	62	192	0
TAP	62	240	0
XTP	62	288	1
XTP	62	288	7
TAP	62	336	1
TAP	62	336	7
XTP	63	0	1
XTP	63	0	7
TAP	63	96	3
TAP	63	96	5
TAP	63	192	2
TAP	63	192	4
TAP	63	288	0
TAP	63	288	6
TAP	64	0	5
TAP	64	48	5
TAP	64	96	4
TAP	64	144	4
TAP	64	192	6
TAP	64	288	3
TAP	64	288	7
TAP	65	0	2
TAP	65	48	2
TAP	65	96	3
TAP	65	144	3
TAP	65	192	1
TAP	65	288	0
TAP	65	288	4
STR	66	0	5
SUR	66	0	5	96	144	2
TAP	67	0	3
STR	67	0	4
SCR	67	0	4	96	192	0
HLD	68	0	2	144
TAP	68	144	3
TAP	68	192	3
TAP	68	288	3
TAP	68	288	4
HLD	69	0	5	144
TAP	69	144	4
TAP	69	192	4
TAP	69	288	3
TAP	69	288	4
HLD	70	0	2	144
TAP	70	144	3
HLD	70	192	3	144
TAP	70	336	4
HLD	71	0	4	144
TAP	71	144	5
TAP	71	192	5
STR	71	288	6
SCL	71	288	6	96	192	3
TAP	72	288	1
TAP	72	336	1
TAP	73	48	2
TAP	73	48	3
HLD	73	144	1	96
HLD	73	144	4	96
XTP	73	288	1
XTP	73	288	4
HLD	74	0	6	72
HLD	74	72	5	72
TAP	74	144	4
TAP	74	192	4
TAP	74	288	3
TAP	74	288	4
HLD	75	0	1	72
HLD	75	72	2	72
TAP	75	144	3
TAP	75	192	3
XST	75	288	3
SCL	75	288	3	96	144	0
XST	75	288	4
SCR	75	288	4	96	144	7
TAP	76	336	0
TAP	76	336	7
TAP	77	48	1
TAP	77	48	6
TAP	77	96	1
TAP	77	96	6
TAP	77	288	4
TAP	77	288	5
XHO	78	0	3	288
XHO	78	0	6	288
XTP	79	0	2
XTP	79	0	3
XTP	79	96	4
XTP	79	96	5
XTP	79	192	0
XTP	79	192	7
BRK	79	288	1
BRK	79	288	6
TAP	80	0	2
TAP	80	48	2
TAP	80	96	3
TAP	80	144	3
TAP	80	192	1
TAP	80	240	1
TAP	80	288	7
XTP	81	0	3
XTP	81	0	6
BRK	81	48	3
BRK	81	48	6
BRK	81	144	1
BRK	81	144	4
BRK	81	240	3
BRK	81	240	6
BRK	81	336	1
BRK	81	336	4
HLD	82	0	1	72
HLD	82	72	2	72
TAP	82	144	3
TAP	82	192	3
TAP	82	192	4
BRK	82	288	6
BRK	82	288	7
HLD	83	0	6	72
HLD	83	72	5	72
TAP	83	144	4
TAP	83	192	3
TAP	83	192	4
BRK	83	288	0
BRK	83	288	1
TAP	83	336	0
TAP	83	336	1
XTP	84	0	2
XTP	84	0	7
TAP	84	96	6
TAP	84	96	7
TAP	84	144	6
TAP	84	144	7
XTP	84	192	0
XTP	84	192	5
STR	84	288	3
SXR	84	288	3	96	192	3
STR	84	288	4
SXL	84	288	4	96	192	4
BRK	85	288	0
XTP	86	0	1
XTP	86	0	7
TAP	86	72	1
TAP	86	72	7
TAP	86	144	2
TAP	86	144	4
XTP	86	192	0
XTP	86	192	6
TAP	86	264	0
TAP	86	264	6
TAP	86	336	3
TAP	86	336	5
STR	87	0	2
SI_	87	0	2	96	48	6
TAP	87	96	4
BRK	87	192	5
BRK	87	192	7
BRK	87	288	0
TAP	88	0	2
TAP	88	48	2
TAP	88	96	3
TAP	88	144	3
TAP	88	192	1
TAP	88	192	4
STR	88	288	6
SXL	88	288	6	96	192	1
XTP	89	288	0
XTP	89	288	1
HLD	90	0	1	64
HLD	90	0	3	64
HLD	90	96	2	64
HLD	90	96	4	64
TAP	90	192	1
TAP	90	192	5
BRK	90	288	7
HLD	91	0	4	64
HLD	91	0	6	64
HLD	91	96	3	64
HLD	91	96	5	64
TAP	91	192	2
TAP	91	192	6
BRK	91	288	0
XTP	92	0	1
XTP	92	0	3
XTP	92	72	3
XTP	92	72	4
XTP	92	144	4
XTP	92	144	6
XTP	92	192	4
XTP	92	192	6
XTP	92	264	3
XTP	92	264	4
XTP	92	336	1
XHO	93	0	1	384
XTP	93	48	3
XTP	93	96	3
XTP	93	144	3
XTP	93	192	3
XTP	93	240	3
XST	93	288	3
SI_	93	288	3	96	48	7
XTP	93	336	3
TAP	94	144	0
TAP	94	192	0
BRK	94	288	1
BRK	94	288	6
TAP	95	0	3
STR	95	0	5
SI_	95	0	5	96	48	7
XTP	95	96	4
TAP	95	192	3
STR	95	192	5
SI_	95	192	5	96	48	7
XTP	95	288	4
STR	96	0	2
SI_	96	0	2	96	48	0
TAP	96	0	4
XTP	96	96	3
STR	96	192	2
SI_	96	192	2	96	48	0
TAP	96	192	4
XTP	96	288	3
STR	97	0	2
SLR	97	0	2	96	192	7
STR	97	0	5
SLL	97	0	5	96	192	0
XTP	98	0	0
XTP	98	0	7
BRK	98	48	0
BRK	98	48	7
BRK	98	144	1
BRK	98	144	4
BRK	98	240	2
BRK	98	240	6
BRK	98	336	1
BRK	98	336	5
STR	99	0	2
SI_	99	0	2	96	48	0
TAP	99	0	4
XTP	99	96	3
STR	99	192	2
SI_	99	192	2	96	48	0
TAP	99	192	4
XTP	99	288	3
TAP	100	0	3
STR	100	0	5
SI_	100	0	5	96	48	7
XTP	100	96	4
TAP	100	192	3
STR	100	192	5
SI_	100	192	5	96	48	7
XTP	100	288	4
STR	101	0	2
SI_	101	0	2	96	48	0
TAP	101	0	4
XTP	101	96	3
STR	101	192	2
SI_	101	192	2	96	48	0
TAP	101	192	4
XTP	101	288	3
XTP	102	0	5
XTP	102	24	4
XTP	102	48	5
XTP	102	72	4
XTP	102	120	2
XTP	102	144	3
XTP	102	168	2
XTP	102	192	3
TAP	102	288	0
STR	102	288	7
SCL	102	288	7	96	384	0
TTP	103	0	0	C	1	M1

T_REC_TAP	255
T_REC_BRK	80
T_REC_XTP	187
T_REC_HLD	52
T_REC_XHO	6
T_REC_STR	43
T_REC_BST	0
T_REC_XST	10
T_REC_TTP	8
T_REC_THO	0
T_REC_SLD	54
T_REC_ALL	695
T_NUM_TAP	503
T_NUM_BRK	80
T_NUM_HLD	58
T_NUM_SLD	54
T_NUM_ALL	695
T_JUDGE_TAP	583
T_JUDGE_HLD	174
T_JUDGE_SLD	54
T_JUDGE_ALL	811
TTM_EACHPAIRS	223
TTM_SCR_TAP	251500
TTM_SCR_BRK	208000
TTM_SCR_HLD	58000
TTM_SCR_SLD	81000
TTM_SCR_ALL	598500
TTM_SCR_S	572800
TTM_SCR_SS	590500
TTM_RAT_ACV	10135

