VERSION	0.00.00	1.03.00
FES_MODE	0
BPM_DEF	165.000	165.000	165.000	165.000
MET_DEF	4	4
RESOLUTION	384
CLK_DEF	384
COMPATIBLE_CODE	MA2

BPM	0	0	165.000
MET	0	0	4	4

TAP	1	0	4
TAP	1	0	5
TAP	2	0	4
TAP	2	0	5
TAP	3	0	2
TAP	3	0	3
TAP	4	0	2
TAP	4	0	3
TAP	5	0	1
TAP	5	192	1
TAP	6	0	2
TAP	6	192	2
TAP	7	0	3
TAP	7	192	3
TAP	8	0	4
TAP	8	96	4
TAP	8	192	4
TAP	9	0	6
TAP	9	192	6
TAP	10	0	5
TAP	10	192	5
TAP	11	0	4
TAP	11	192	4
TAP	12	0	3
TAP	12	96	3
TAP	12	192	3
XTP	13	0	2
XTP	13	0	3
XTP	14	0	0
XTP	14	0	1
TAP	15	0	2
TAP	15	96	2
TAP	15	192	2
TAP	16	0	3
TAP	16	96	3
TAP	16	192	3
XTP	17	0	4
XTP	17	0	5
XTP	18	0	6
XTP	18	0	7
TAP	19	0	5
TAP	19	96	5
TAP	19	192	5
TAP	20	0	4
TAP	20	96	4
TAP	20	192	4
HLD	21	0	3	144
HLD	21	0	4	144
TAP	22	0	3
TAP	22	0	4
TAP	22	96	3
TAP	22	96	4
TAP	22	192	2
TAP	22	192	5
STR	23	0	1
SI_	23	0	1	96	192	4
TAP	24	0	5
TAP	24	96	5
TAP	24	192	5
STR	25	0	6
SI_	25	0	6	96	192	3
TAP	26	0	2
TAP	26	96	2
TAP	26	192	2
STR	27	0	1
SI_	27	0	1	96	192	5
STR	28	0	6
SI_	28	0	6	96	192	2
HLD	29	0	0	384
TAP	31	0	2
TAP	31	96	2
TAP	31	192	1
TAP	31	288	1
TAP	32	0	0
TAP	32	96	0
TAP	32	192	0
TAP	32	192	7
TAP	33	0	7
TAP	33	96	7
TAP	33	192	6
TAP	33	288	6
TAP	34	0	5
TAP	34	96	5
TAP	34	192	4
TAP	34	192	5
TAP	35	0	6
TAP	35	96	6
TAP	35	192	6
TAP	35	192	7
TAP	36	0	1
TAP	36	96	1
TAP	36	192	0
TAP	36	192	1
XTP	37	0	0
XTP	37	0	7
XTP	37	192	0
XTP	37	192	7
HLD	38	0	1	192
HLD	38	0	6	192
TAP	39	0	5
TAP	39	96	5
TAP	39	192	6
TAP	39	288	6
TAP	40	0	7
TAP	40	96	7
TAP	40	192	0
TAP	40	192	7
TAP	41	0	0
TAP	41	96	0
TAP	41	192	1
TAP	41	288	1
TAP	42	0	2
TAP	42	96	2
TAP	42	192	2
TAP	42	192	3
TAP	43	0	1
TAP	43	96	1
TAP	43	192	0
TAP	43	192	1
TAP	44	0	6
TAP	44	96	6
TAP	44	192	6
TAP	44	192	7
XTP	45	0	0
XTP	45	0	7
XTP	45	192	1
XTP	45	192	6
XTP	46	0	2
XTP	46	0	5
TTP	47	0	0	C	1	L1
STR	48	0	1
SI_	48	0	1	96	204	5
STR	49	0	6
SI_	49	0	6	96	192	3
STR	50	0	2
SI_	50	0	2	96	192	5
TAP	51	0	6
TAP	51	96	6
TAP	51	192	7
STR	52	0	6
SI_	52	0	6	96	204	2
STR	53	0	1
SI_	53	0	1	96	192	4
STR	54	0	5
SI_	54	0	5	96	192	2
TAP	55	0	1
TAP	55	96	1
TAP	55	192	0
TTP	56	0	1	B	0	L1
TTP	56	96	2	B	0	L1
TTP	56	192	3	B	0	L1
TTP	57	0	6	B	0	L1
TTP	57	96	5	B	0	L1
TTP	57	192	4	B	0	L1
TTP	58	0	1	E	0	L1
TTP	58	96	2	E	0	L1
TTP	58	192	3	E	0	L1
TTP	58	288	4	E	0	L1
TTP	59	0	5	E	0	L1
TTP	59	96	6	E	0	L1
TTP	59	192	7	E	0	L1
TTP	60	0	6	B	0	L1
TTP	60	96	5	B	0	L1
TTP	60	192	4	B	0	L1
TTP	61	0	1	B	0	L1
TTP	61	96	2	B	0	L1
TTP	61	192	3	B	0	L1
TTP	62	0	7	E	0	L1
TTP	62	96	6	E	0	L1
TTP	62	192	5	E	0	L1
TTP	62	288	4	E	0	L1
TTP	63	0	3	E	0	L1
TTP	63	96	2	E	0	L1
TTP	63	192	1	E	0	L1
STR	64	0	6
SI_	64	0	6	96	192	3
STR	65	0	1
SI_	65	0	1	96	192	4
TAP	66	0	5
TAP	66	96	5
TAP	66	192	6
TAP	66	288	6
TAP	67	0	7
TAP	67	96	7
XTP	67	192	0
HLD	68	0	1	192
TAP	68	192	0
HLD	69	0	2	192
TAP	69	192	3
HLD	70	0	5	192
TAP	70	192	4
HLD	71	0	6	192
TAP	71	192	7
TAP	72	0	0
TAP	72	0	7
XTP	72	336	0
XTP	72	336	7
XTP	73	48	0
XTP	73	48	7
XTP	73	144	1
XTP	73	144	6
TAP	74	0	1
TAP	74	96	1
TAP	74	192	0
TAP	74	192	1
TAP	75	0	6
TAP	75	96	6
TAP	75	192	6
TAP	75	192	7
HLD	76	0	0	336
HLD	76	0	7	336
BRK	78	0	0
BRK	78	0	7
TAP	79	0	0
TAP	79	0	7
TAP	79	96	1
TAP	79	96	6
TAP	79	192	2
TAP	79	192	5
TAP	80	0	2
TAP	80	96	2
TAP	80	192	1
TAP	80	288	1
TAP	81	0	0
TAP	81	96	0
TAP	81	192	0
TAP	81	192	7
TAP	82	0	1
TAP	82	96	0
TAP	82	192	7
TAP	83	0	6
TAP	83	96	7
TAP	83	192	0
XTP	84	0	0
XTP	84	0	7
XTP	84	192	0
XTP	84	192	7
HLD	85	0	1	192
HLD	85	0	6	192
TAP	86	0	5
TAP	86	96	5
TAP	86	192	6
TAP	86	288	6
TAP	87	0	7
TAP	87	96	7
TAP	87	192	0
TAP	87	192	7
TAP	88	0	1
TAP	88	96	0
TAP	88	192	7
TAP	88	288	6
TAP	89	0	7
TAP	89	96	0
TAP	89	192	1
TAP	90	0	1
TAP	90	96	0
TAP	90	96	1
TAP	90	192	0
TAP	90	192	1
TAP	91	0	6
TAP	91	96	6
TAP	91	96	7
TAP	91	192	6
TAP	91	192	7
XTP	92	0	0
XTP	92	0	7
XTP	92	192	1
XTP	92	192	6
XTP	93	0	2
XTP	93	0	5
TTP	94	0	0	C	1	L1
TAP	95	0	0
TAP	95	96	0
TAP	95	192	1
TAP	95	288	1
TAP	96	0	2
TAP	96	96	2
TAP	96	192	3
TAP	96	288	3
TAP	97	0	4
TAP	97	96	4
TAP	97	192	5
TAP	97	288	5
TAP	98	0	6
TAP	98	96	6
TAP	98	96	7
XTP	98	192	6
XTP	98	192	7
TAP	99	0	7
TAP	99	96	7
TAP	99	192	6
TAP	99	288	6
TAP	100	0	5
TAP	100	96	5
TAP	100	192	4
TAP	100	288	4
TAP	101	0	3
TAP	101	96	3
TAP	101	192	2
TAP	101	288	2
TAP	102	0	1
TAP	102	96	0
TAP	102	96	1
XTP	102	192	0
XTP	102	192	1
STR	103	0	0
SCR	103	0	0	96	240	3
STR	103	0	7
SCL	103	0	7	96	240	4

T_REC_TAP	199
T_REC_BRK	2
T_REC_XTP	39
T_REC_HLD	13
T_REC_XHO	0
T_REC_STR	14
T_REC_BST	0
T_REC_XST	0
T_REC_TTP	28
T_REC_THO	0
T_REC_SLD	14
T_REC_ALL	309
T_NUM_TAP	280
T_NUM_BRK	2
T_NUM_HLD	13
T_NUM_SLD	14
T_NUM_ALL	309
T_JUDGE_TAP	282
T_JUDGE_HLD	60
T_JUDGE_SLD	14
T_JUDGE_ALL	356
TTM_EACHPAIRS	54
TTM_SCR_TAP	140000
TTM_SCR_BRK	5200
TTM_SCR_HLD	13000
TTM_SCR_SLD	21000
TTM_SCR_ALL	179200
TTM_SCR_S	173650
TTM_SCR_SS	179000
TTM_RAT_ACV	10011

