VERSION	0.00.00	1.03.00
FES_MODE	0
BPM_DEF	165.000	165.000	165.000	165.000
MET_DEF	4	4
RESOLUTION	384
CLK_DEF	384
COMPATIBLE_CODE	MA2

BPM	0	0	165.000
MET	0	0	4	4

TAP	5	0	0
TAP	6	0	0
TAP	7	0	1
TAP	8	0	1
TAP	9	0	2
TAP	10	0	2
TAP	11	0	3
TAP	12	0	3
TAP	12	0	4
TAP	13	0	4
TAP	14	0	4
TAP	15	0	5
TAP	16	0	5
TAP	17	0	6
TAP	18	0	6
TAP	19	0	7
TAP	20	0	0
TAP	20	0	7
STR	21	0	7
SI_	21	0	7	96	288	4
STR	23	0	0
SI_	23	0	0	96	288	3
STR	25	0	7
SI_	25	0	7	96	288	3
STR	27	0	0
SI_	27	0	0	96	288	4
TAP	29	0	7
XTP	30	0	0
XTP	30	0	7
BRK	31	0	7
TAP	31	192	7
TAP	32	0	7
TAP	32	192	7
TAP	33	0	6
TAP	33	192	6
TAP	34	0	6
TAP	34	0	7
TAP	35	0	5
TAP	35	192	5
TAP	36	0	5
TAP	36	192	5
TAP	37	0	4
TAP	37	192	4
TAP	38	0	3
TAP	38	0	4
TAP	39	0	3
TAP	39	192	3
TAP	40	0	3
TAP	40	192	3
TAP	41	0	2
TAP	41	192	2
TAP	42	0	2
TAP	42	0	3
TAP	43	0	1
TAP	43	192	1
TAP	44	0	1
TAP	44	192	1
TAP	45	0	0
TAP	45	192	0
TAP	46	0	0
TAP	46	0	7
BRK	47	0	0
BRK	47	0	7
TTP	48	0	0	B	0	L1
TTP	49	0	7	B	0	L1
TTP	50	0	1	B	0	L1
TTP	51	0	6	B	0	L1
TTP	52	0	2	B	0	L1
TTP	53	0	5	B	0	L1
TTP	54	0	3	B	0	L1
TTP	55	0	0	C	0	L1
XTP	56	0	0
TAP	56	96	0
TAP	56	192	0
TAP	57	0	0
TAP	57	0	1
XTP	58	0	2
TAP	58	96	2
TAP	58	192	2
TAP	59	0	2
TAP	59	0	3
TAP	60	0	4
TAP	60	96	4
TAP	60	192	4
TAP	61	0	4
TAP	61	0	5
TAP	62	0	6
TAP	62	96	6
TAP	62	192	6
TAP	63	0	6
TAP	63	0	7
TAP	64	0	6
TAP	64	0	7
TAP	65	0	4
TAP	65	0	5
TAP	66	0	2
TAP	66	0	3
TAP	67	0	0
TAP	67	0	1
TTP	68	0	0	B	0	L1
TTP	68	0	1	B	0	L1
TTP	69	0	2	B	0	L1
TTP	69	0	3	B	0	L1
TTP	70	0	4	B	0	L1
TTP	70	0	5	B	0	L1
TTP	71	0	6	B	0	L1
TTP	71	0	7	B	0	L1
TTP	72	0	0	E	0	L1
TTP	73	0	0	B	0	L1
TTP	73	0	7	B	0	L1
TTP	74	0	1	B	0	L1
TTP	74	0	6	B	0	L1
TTP	75	0	2	B	0	L1
TTP	75	0	5	B	0	L1
THO	76	0	0	384	C	0	L1
XHO	78	0	0	384
XHO	78	0	7	384
XTP	79	192	0
XTP	79	192	7
TAP	80	0	7
TAP	80	96	7
TAP	80	192	7
TAP	81	0	6
TAP	81	96	6
TAP	81	192	6
TAP	82	0	5
TAP	82	96	5
TAP	82	192	5
TAP	83	0	4
TAP	83	96	4
TAP	83	192	4
TAP	84	0	3
TAP	84	96	3
TAP	84	192	3
TAP	85	0	3
TAP	85	0	4
TAP	85	192	3
TAP	85	192	4
TAP	86	0	2
TAP	86	96	2
TAP	86	192	2
TAP	87	0	1
TAP	87	96	1
TAP	87	192	1
TAP	88	0	0
TAP	88	96	0
TAP	88	192	0
TAP	89	0	0
TAP	89	0	7
TAP	89	192	0
TAP	89	192	7
TAP	90	0	1
TAP	90	96	1
TAP	90	192	1
TAP	91	0	2
TAP	91	0	3
TAP	91	192	2
TAP	91	192	3
TAP	92	0	4
TAP	92	96	4
TAP	92	192	4
TAP	93	0	5
TAP	93	192	6
BRK	94	0	6
BRK	94	0	7
TAP	95	0	7
TAP	95	96	7
TAP	95	192	7
TAP	96	0	6
TAP	96	96	6
TAP	96	192	6
TAP	96	192	7
TAP	97	0	5
TAP	97	96	5
TAP	97	192	5
TAP	98	0	4
TAP	98	96	4
TAP	98	192	3
TAP	98	192	4
TAP	99	0	2
TAP	99	96	2
TAP	99	192	2
TAP	100	0	1
TAP	100	96	1
TAP	100	192	0
TAP	100	192	1
TAP	101	0	7
TAP	101	96	7
TAP	101	192	0
TAP	101	192	7
TAP	102	0	0
TAP	102	96	0
TAP	102	192	0
TAP	102	192	7
BRK	103	0	1
BRK	103	0	6

T_REC_TAP	149
T_REC_BRK	7
T_REC_XTP	6
T_REC_HLD	0
T_REC_XHO	2
T_REC_STR	4
T_REC_BST	0
T_REC_XST	0
T_REC_TTP	23
T_REC_THO	1
T_REC_SLD	4
T_REC_ALL	196
T_NUM_TAP	182
T_NUM_BRK	7
T_NUM_HLD	3
T_NUM_SLD	4
T_NUM_ALL	196
T_JUDGE_TAP	189
T_JUDGE_HLD	24
T_JUDGE_SLD	4
T_JUDGE_ALL	217
TTM_EACHPAIRS	31
TTM_SCR_TAP	91000
TTM_SCR_BRK	18200
TTM_SCR_HLD	3000
TTM_SCR_SLD	6000
TTM_SCR_ALL	118200
TTM_SCR_S	114000
TTM_SCR_SS	117500
TTM_RAT_ACV	10059

