VERSION	0.00.00	1.03.00
FES_MODE	0
BPM_DEF	129.000	129.000	129.000	129.000
MET_DEF	4	4
RESOLUTION	384
CLK_DEF	384
COMPATIBLE_CODE	MA2

BPM	0	0	129.000
MET	0	0	4	4

XHO	1	0	2	1056
XTP	1	0	4
TTP	1	96	4	B	0	M1
TTP	1	102	3	B	0	M1
TTP	1	288	4	B	0	M1
TTP	1	294	3	B	0	M1
TTP	2	96	4	B	0	M1
TTP	2	102	3	B	0	M1
TTP	2	288	4	B	0	M1
TTP	2	294	3	B	0	M1
TTP	3	96	4	B	0	M1
TTP	3	102	3	B	0	M1
TTP	3	288	4	B	0	M1
TTP	3	294	3	B	0	M1
TTP	4	96	4	B	0	M1
TTP	4	102	3	B	0	M1
XTP	4	288	3
XTP	4	288	4
HLD	5	0	2	48
TAP	5	0	5
HLD	5	96	2	48
TTP	5	96	4	B	0	M1
TTP	5	102	3	B	0	M1
HLD	5	192	2	48
HLD	5	288	2	48
TTP	5	288	4	B	0	M1
TTP	5	294	3	B	0	M1
HLD	6	0	2	48
HLD	6	96	2	48
TTP	6	96	4	B	0	M1
TTP	6	102	3	B	0	M1
HLD	6	192	2	48
HLD	6	288	2	48
TTP	6	288	4	B	0	M1
TTP	6	294	3	B	0	M1
HLD	7	0	2	48
HLD	7	96	2	48
TTP	7	96	4	B	0	M1
TTP	7	102	3	B	0	M1
HLD	7	192	2	48
HLD	7	288	2	48
TTP	7	288	4	B	0	M1
TTP	7	294	3	B	0	M1
XTP	8	0	2
XTP	8	0	5
XTP	8	48	2
XTP	8	48	5
TAP	8	96	1
TAP	8	96	6
TAP	8	144	0
TAP	8	144	7
TTP	8	192	6	B	0	M1
TTP	8	192	6	E	0	M1
TTP	8	240	0	B	0	M1
TTP	8	240	0	E	0	M1
TTP	8	288	2	B	0	M1
TTP	8	288	2	E	0	M1
TTP	8	336	4	B	0	M1
TTP	8	336	4	E	0	M1
TAP	9	0	6
TAP	9	0	7
TAP	9	48	5
STR	9	96	3
SCR	9	96	3	96	48	6
TAP	9	96	4
TAP	9	144	2
XTP	9	192	1
XTP	9	192	3
TAP	9	288	1
TAP	9	320	1
TAP	9	336	0
TAP	10	0	1
TAP	10	0	7
TAP	10	48	2
TAP	10	96	3
STR	10	96	4
SCL	10	96	4	96	48	1
TAP	10	144	5
XTP	10	192	4
XTP	10	192	6
TAP	10	288	7
TAP	10	336	7
TAP	11	0	0
TAP	11	0	6
TAP	11	48	5
STR	11	96	3
SCR	11	96	3	96	48	6
TAP	11	96	4
TAP	11	144	2
XTP	11	192	1
XTP	11	192	3
TAP	11	288	1
TAP	11	320	1
TAP	11	336	0
TAP	12	0	1
TAP	12	0	7
TAP	12	48	2
TAP	12	96	3
TAP	12	96	5
TAP	12	144	4
TAP	12	144	6
TAP	12	192	7
XTP	12	240	0
XTP	12	240	1
XTP	12	288	0
XTP	12	288	1
STR	13	0	0
SCL	13	0	0	96	48	5
TAP	13	0	7
TAP	13	48	1
TAP	13	96	0
TAP	13	96	2
TAP	13	144	3
TAP	13	192	2
TAP	13	192	4
TAP	13	240	1
TAP	13	240	3
TAP	13	288	0
TAP	13	320	0
TAP	13	336	7
TAP	14	0	0
STR	14	0	7
SCR	14	0	7	96	48	2
TAP	14	48	6
TAP	14	96	5
TAP	14	96	7
TAP	14	144	4
TAP	14	192	3
TAP	14	192	5
TAP	14	240	4
TAP	14	240	6
TAP	14	288	7
TAP	14	336	7
STR	15	0	0
SCL	15	0	0	96	48	5
TAP	15	0	6
TAP	15	48	1
TAP	15	96	0
TAP	15	96	2
TAP	15	144	3
TAP	15	192	2
TAP	15	192	4
TAP	15	240	1
TAP	15	240	3
TAP	15	288	0
TAP	15	320	0
TAP	15	336	7
TAP	16	0	0
TAP	16	0	6
TAP	16	48	2
TAP	16	48	4
TAP	16	96	1
TAP	16	96	7
TAP	16	144	3
TAP	16	144	5
TAP	16	192	2
TAP	16	192	6
TAP	16	224	3
TAP	16	240	4
BRK	16	288	1
BRK	16	288	6
HLD	17	0	1	96
TAP	17	48	2
HLD	17	96	3	96
TAP	17	144	2
HLD	17	192	1	96
TAP	17	240	2
HLD	17	288	3	96
TAP	17	336	2
STR	18	0	1
SI_	18	0	1	96	48	3
STR	18	48	3
SV_	18	48	3	96	48	4
STR	18	96	4
SI_	18	96	4	96	48	6
XTP	18	192	7
TAP	18	288	7
TAP	18	336	7
STR	19	0	4
SI_	19	0	4	96	48	2
STR	19	96	5
SXL	19	96	5	96	120	4
TAP	19	192	3
TAP	19	240	3
TAP	19	288	2
TAP	20	0	2
TAP	20	24	3
TAP	20	48	2
TAP	20	96	5
TAP	20	120	4
TAP	20	144	5
TAP	20	192	3
TAP	20	192	5
XTP	20	240	6
XTP	20	240	7
XTP	20	288	6
XTP	20	288	7
HLD	21	0	6	96
TAP	21	48	5
HLD	21	96	4	96
TAP	21	144	5
HLD	21	192	6	96
TAP	21	240	5
HLD	21	288	4	96
TAP	21	336	5
STR	22	0	6
SCL	22	0	6	96	48	4
STR	22	48	4
SV_	22	48	4	96	48	3
STR	22	96	3
SCL	22	96	3	96	48	1
XTP	22	192	0
TAP	22	288	0
TAP	22	336	0
STR	23	0	3
SI_	23	0	3	96	48	5
STR	23	96	2
SXR	23	96	2	96	120	3
TAP	23	192	4
TAP	23	240	4
TAP	23	288	5
TAP	24	0	5
TAP	24	32	4
TAP	24	64	6
TAP	24	96	2
TAP	24	128	3
TAP	24	160	1
TAP	24	192	4
TAP	24	224	4
TAP	24	240	3
BRK	24	288	1
BRK	24	288	6
XHO	25	0	1	48
XHO	25	0	4	48
XHO	25	72	2	48
XHO	25	72	5	48
XTP	25	144	3
XTP	25	144	6
TTP	25	240	5	E	0	M1
TTP	25	288	4	E	0	M1
TTP	25	336	3	E	0	M1
XHO	26	0	2	48
XHO	26	0	5	48
XHO	26	72	3	48
XHO	26	72	6	48
XTP	26	144	4
XTP	26	144	7
TTP	26	240	6	E	0	M1
TTP	26	288	5	E	0	M1
TTP	26	336	4	E	0	M1
TAP	27	0	2
TAP	27	32	2
TAP	27	48	4
TAP	27	80	4
TAP	27	96	3
TAP	27	128	3
TAP	27	144	5
TAP	27	176	5
TAP	27	192	2
TAP	27	224	2
TAP	27	240	4
TAP	27	272	4
TAP	27	288	3
TAP	27	336	2
TAP	27	336	4
BRK	28	0	0
TTP	28	0	0	C	1	M1
XTP	28	192	7
XTP	28	224	7
XTP	28	256	7
XTP	28	288	0
XTP	28	320	0
XTP	28	352	0
XHO	29	0	6	48
XHO	29	72	2	48
XHO	29	72	5	48
XTP	29	144	1
XTP	29	144	4
TTP	29	240	3	E	0	M1
TTP	29	288	4	E	0	M1
TTP	29	336	5	E	0	M1
XHO	30	0	2	48
XHO	30	0	5	48
XHO	30	72	1	48
XHO	30	72	4	48
XTP	30	144	0
XTP	30	144	3
TAP	30	240	1
TAP	30	288	2
TAP	30	336	3
TAP	30	336	4
HLD	31	0	3	144
TAP	31	0	4
HLD	31	96	5	144
HLD	31	192	2	144
TAP	31	288	6
TAP	32	0	0
TAP	32	0	5
TAP	32	48	2
TAP	32	48	7
TAP	32	96	0
TAP	32	96	5
TAP	32	144	2
TAP	32	144	7
HLD	32	192	0	48
HLD	32	192	5	48
TAP	32	288	2
STR	32	288	6
SI_	32	288	6	96	48	2
BRK	33	0	3
BST	33	0	6
SI_	33	0	6	96	24	4
HLD	33	96	0	48
STR	33	96	6
SI_	33	96	6	96	48	2
HLD	33	192	3	48
STR	33	192	6
SI_	33	192	6	96	24	4
TAP	33	288	0
TAP	33	288	6
TAP	34	0	1
TAP	34	0	3
TAP	34	48	0
TAP	34	96	6
TAP	34	120	7
TAP	34	168	5
TAP	34	216	3
TAP	34	216	4
TAP	34	264	2
TAP	34	288	3
TAP	34	336	1
TAP	35	0	0
TAP	35	0	7
TAP	35	48	6
STR	35	96	4
SLL	35	96	4	96	72	6
TAP	35	96	5
TAP	35	144	3
XTP	35	192	2
XTP	35	192	4
TAP	35	288	0
TAP	35	336	1
TAP	35	336	7
STR	36	0	6
SCL	36	0	6	96	48	3
STR	36	48	2
SCL	36	48	2	96	48	7
TAP	36	96	6
TAP	36	144	2
TAP	36	192	5
XTP	36	240	6
XTP	36	240	7
XST	36	288	6
SI_	36	288	6	96	24	4
XTP	36	288	7
BST	37	0	1
SI_	37	0	1	96	24	3
BRK	37	0	6
TAP	37	48	0
TAP	37	96	1
STR	37	96	6
SI_	37	96	6	96	48	2
TAP	37	144	7
STR	37	192	1
SI_	37	192	1	96	48	5
TAP	37	192	6
TAP	37	240	0
XTP	37	288	1
XTP	37	288	7
TAP	38	0	4
TAP	38	0	6
TAP	38	48	5
TAP	38	96	2
TAP	38	96	4
TAP	38	144	1
TAP	38	168	0
TAP	38	216	6
TAP	38	240	7
TAP	38	288	3
TAP	38	288	5
TAP	38	336	2
TAP	38	336	4
TAP	39	0	3
TAP	39	0	6
TAP	39	48	1
TAP	39	48	4
TAP	39	96	6
TAP	39	120	7
TAP	39	168	0
TAP	39	168	5
TAP	39	216	2
TAP	39	216	7
TAP	39	264	1
TAP	39	288	0
TAP	39	336	2
TAP	39	336	4
TAP	40	0	0
STR	40	0	6
SI_	40	0	6	96	48	4
STR	40	48	2
SI_	40	48	2	96	48	0
STR	40	96	6
SI_	40	96	6	96	48	2
TAP	40	144	2
TAP	40	192	6
BRK	40	240	1
BRK	40	288	0
BRK	40	288	1
TAP	41	0	0
STR	41	0	7
SCR	41	0	7	96	72	6
TTP	41	96	0	E	0	M1
XTP	41	96	7
TTP	41	108	1	E	0	M1
TTP	41	120	2	E	0	M1
TTP	41	132	3	E	0	M1
TTP	41	144	4	E	0	M1
TTP	41	156	5	E	0	M1
TTP	41	168	6	E	0	M1
XST	41	192	0
SCL	41	192	0	96	72	1
XTP	41	192	7
XTP	41	288	0
TTP	41	288	0	E	0	M1
TTP	41	300	7	E	0	M1
TTP	41	312	6	E	0	M1
TTP	41	324	5	E	0	M1
TTP	41	336	4	E	0	M1
TTP	41	348	3	E	0	M1
TTP	41	360	2	E	0	M1
XTP	42	0	0
XST	42	0	7
SCR	42	0	7	96	72	6
TTP	42	96	0	E	0	M1
XTP	42	96	7
TTP	42	108	1	E	0	M1
TTP	42	120	2	E	0	M1
TTP	42	132	3	E	0	M1
TTP	42	144	4	E	0	M1
TTP	42	156	5	E	0	M1
TTP	42	168	6	E	0	M1
XTP	42	192	0
XTP	42	192	7
BRK	42	288	0
BRK	42	336	0
TAP	43	0	5
TAP	43	32	5
TAP	43	48	3
TAP	43	80	3
TAP	43	96	4
TAP	43	128	4
TAP	43	144	2
TAP	43	176	2
TAP	43	192	6
TAP	43	224	6
TAP	43	240	4
TAP	43	272	4
TAP	43	288	3
TAP	43	320	3
TAP	43	336	1
TAP	43	368	1
HLD	44	0	7	48
TAP	44	48	0
TAP	44	72	7
STR	44	96	0
SI_	44	96	0	96	48	3
SI_	44	96	0	96	48	5
TAP	44	144	2
TAP	44	144	6
BRK	44	192	0
TTP	44	204	0	C	1	M1
TAP	44	288	1
TAP	44	288	6
TAP	44	336	1
TAP	44	336	6
BST	45	0	0
SCL	45	0	0	96	72	1
BRK	45	0	7
XTP	45	96	0
TTP	45	96	0	E	0	M1
TTP	45	108	7	E	0	M1
TTP	45	120	6	E	0	M1
TTP	45	132	5	E	0	M1
TTP	45	144	4	E	0	M1
TTP	45	156	3	E	0	M1
TTP	45	168	2	E	0	M1
XTP	45	192	0
XST	45	192	7
SCR	45	192	7	96	72	6
TTP	45	288	0	E	0	M1
XTP	45	288	7
TTP	45	300	1	E	0	M1
TTP	45	312	2	E	0	M1
TTP	45	324	3	E	0	M1
TTP	45	336	4	E	0	M1
TTP	45	348	5	E	0	M1
TTP	45	360	6	E	0	M1
XST	46	0	0
SCL	46	0	0	96	72	1
XTP	46	0	7
XTP	46	96	0
TTP	46	96	0	E	0	M1
TTP	46	108	7	E	0	M1
TTP	46	120	6	E	0	M1
TTP	46	132	5	E	0	M1
TTP	46	144	4	E	0	M1
TTP	46	156	3	E	0	M1
TTP	46	168	2	E	0	M1
XTP	46	192	0
XTP	46	192	7
XTP	46	288	7
XTP	46	336	7
TAP	47	0	3
TAP	47	0	6
TAP	47	48	5
TAP	47	72	4
TAP	47	96	6
TAP	47	144	2
TAP	47	168	3
TAP	47	192	1
TAP	47	240	5
TAP	47	264	4
STR	47	288	6
SI_	47	288	6	96	48	2
TAP	47	336	3
TAP	47	336	5
STR	48	0	1
SI_	48	0	1	96	48	5
XTP	48	0	6
XTP	48	96	1
STR	48	96	7
SI_	48	96	7	96	48	3
STR	48	192	0
SI_	48	192	0	96	48	4
XTP	48	192	7
XTP	48	288	0
STR	48	288	6
SCL	48	288	6	96	96	7
TTP	49	0	0	C	1	M1
BRK	49	0	6
TAP	49	192	4
TAP	49	192	5
TAP	49	224	4
TAP	49	224	5
TAP	49	272	2
TAP	49	288	2
TAP	49	288	3
TTP	50	0	1	B	0	M1
TTP	50	0	1	E	0	M1
TTP	50	0	5	B	0	M1
TTP	50	0	6	E	0	M1
TAP	50	96	2
TAP	50	112	3
TAP	50	128	2
TAP	50	144	3
TAP	50	192	1
TAP	50	192	4
TAP	50	224	1
TAP	50	224	4
TAP	50	256	1
TAP	50	256	4
TAP	50	288	1
TAP	50	288	4
TTP	51	0	2	B	0	M1
TTP	51	0	2	E	0	M1
TTP	51	0	6	B	0	M1
TTP	51	0	7	E	0	M1
TAP	51	96	5
TAP	51	112	4
TAP	51	128	5
TAP	51	144	4
TAP	51	192	2
TAP	51	208	3
TAP	51	224	2
TAP	51	240	3
TAP	51	288	5
TAP	51	304	4
TAP	51	320	5
TAP	51	336	4
XHO	52	0	3	48
XHO	52	0	6	48
XHO	52	96	1	48
XHO	52	96	4	48
XHO	52	192	0	48
XHO	52	192	7	48
TAP	52	288	7
TAP	52	320	7
TAP	52	336	0
TAP	52	368	0
TAP	53	0	6
TAP	53	32	6
TAP	53	48	4
TAP	53	80	4
TAP	53	96	3
TAP	53	128	3
TAP	53	144	1
TAP	53	176	1
TAP	53	192	6
TAP	53	224	6
TAP	53	240	4
TAP	53	272	4
TAP	53	288	3
TAP	53	320	3
TAP	53	336	1
TAP	53	368	1
TAP	54	0	6
TAP	54	32	6
TAP	54	48	3
TAP	54	80	3
TAP	54	96	5
TAP	54	112	4
TAP	54	128	5
TAP	54	144	4
TAP	54	160	5
TAP	54	176	4
XTP	54	192	6
TAP	54	224	6
TAP	54	240	0
XTP	54	272	0
XTP	54	272	7
XTP	54	320	2
XTP	54	320	5
XTP	54	368	1
XTP	54	368	6
XTP	55	0	1
XTP	55	0	6
TAP	55	96	5
TAP	55	112	4
TAP	55	128	3
TAP	55	144	2
XTP	55	192	1
XTP	55	192	3
TAP	55	224	2
TAP	55	224	4
TAP	55	256	3
TAP	55	256	5
TAP	55	288	3
TAP	55	288	5
TAP	55	320	2
TAP	55	320	4
TAP	55	352	1
TAP	55	352	3
TAP	56	0	0
TAP	56	16	1
TAP	56	32	2
TAP	56	48	4
TAP	56	64	5
TAP	56	80	6
TAP	56	96	0
TAP	56	112	1
TAP	56	128	2
TAP	56	144	4
TAP	56	160	5
TAP	56	176	6
XTP	56	192	0
XTP	56	192	7
XTP	56	224	0
XTP	56	224	7
XTP	56	256	0
XTP	56	256	7
XTP	56	288	1
XST	56	288	6
SCL	56	288	6	96	96	2
TAP	57	0	2
TAP	57	96	1
TAP	57	192	0
STR	57	288	6
SCL	57	288	6	96	96	2
TAP	58	0	1
TAP	58	96	0
TAP	58	192	7
STR	58	288	6
SCL	58	288	6	96	96	2
TAP	59	0	0
TAP	59	96	7
TAP	59	192	6
STR	59	288	3
SI_	59	288	3	96	48	0
STR	59	288	4
SI_	59	288	4	96	48	7
XTP	60	0	3
XTP	60	0	4
TAP	60	96	1
TAP	60	96	6
TAP	60	192	3
TAP	60	192	4
TAP	60	240	3
TAP	60	240	4
TAP	60	288	3
TAP	60	288	4
TAP	60	336	3
TAP	60	336	4
TAP	61	0	2
TAP	61	0	5
TAP	61	48	5
TAP	61	96	4
TAP	61	144	3
TTP	61	192	0	C	0	M1
BRK	61	192	2
XHO	62	0	1	552
XHO	62	0	5	552
TAP	63	288	3
TAP	63	304	4
TAP	63	320	3
TAP	63	336	4
TAP	64	0	2
TAP	64	0	6
TAP	64	48	1
TAP	64	48	5
STR	64	96	2
SI_	64	96	2	96	48	0
STR	64	96	6
SI_	64	96	6	96	48	4
TAP	64	144	1
TAP	64	144	5
BRK	64	192	2
BRK	64	192	6
TAP	64	288	1
TAP	64	288	6
TAP	64	336	5
TAP	65	0	2
TAP	65	0	4
TAP	65	48	1
STR	65	96	2
SI_	65	96	2	96	48	5
STR	65	96	6
SI_	65	96	6	96	48	1
TAP	65	144	1
TAP	65	144	5
XTP	65	192	2
XTP	65	192	6
STR	65	288	3
SSR	65	288	3	96	72	7
STR	65	288	4
SSL	65	288	4	96	72	0
TAP	65	336	2
TAP	65	336	5
XST	66	96	0
SI_	66	96	0	96	48	4
XST	66	96	7
SI_	66	96	7	96	48	3
XTP	66	104	1
XTP	66	104	6
XTP	66	112	2
XTP	66	112	5
XTP	66	120	3
XTP	66	120	4
XST	66	192	0
SCR	66	192	0	96	48	3
XST	66	192	7
SCL	66	192	7	96	48	4
BRK	66	288	0
BRK	66	288	7
TAP	67	0	0
TAP	67	0	6
TAP	67	48	1
TAP	67	96	2
TAP	67	96	4
TAP	67	144	6
TAP	67	168	4
TAP	67	216	1
TAP	67	240	3
TAP	67	288	2
TAP	67	288	4
TAP	67	336	3
TAP	67	336	5
XTP	68	0	1
XTP	68	0	4
TAP	68	48	3
TAP	68	48	6
TAP	68	96	1
TAP	68	120	0
XTP	68	168	2
XTP	68	168	7
TAP	68	216	0
TAP	68	216	5
TAP	68	264	6
TAP	68	288	7
XTP	68	336	2
XTP	68	336	4
XTP	69	0	1
XTP	69	0	3
TAP	69	24	1
TAP	69	24	3
XTP	69	72	4
XTP	69	72	6
TAP	69	96	4
TAP	69	96	6
XTP	69	144	0
XTP	69	144	2
TAP	69	168	0
TAP	69	168	2
XTP	69	216	5
XTP	69	216	7
TAP	69	240	5
TAP	69	240	7
XTP	69	288	0
TAP	69	312	7
XTP	69	336	0
XTP	70	0	3
TAP	70	0	4
XTP	70	32	3
TAP	70	32	4
XTP	70	64	3
TAP	70	64	4
TAP	70	96	2
XTP	70	96	5
TAP	70	128	2
XTP	70	128	5
TAP	70	160	2
XTP	70	160	5
XTP	70	192	1
TAP	70	192	6
XTP	70	224	1
TAP	70	224	6
XTP	70	256	1
TAP	70	256	6
HLD	70	288	0	48
XHO	70	288	7	48
TAP	71	0	1
STR	71	0	6
SI_	71	0	6	96	48	4
STR	71	48	2
SI_	71	48	2	96	48	0
TAP	71	48	4
STR	71	96	6
SI_	71	96	6	96	48	2
TAP	71	144	2
TAP	71	192	6
BRK	71	240	1
BRK	71	288	0
BRK	71	288	1
STR	72	0	0
SCL	72	0	0	96	72	1
TAP	72	0	7
XTP	72	96	0
TTP	72	96	0	E	0	M1
TTP	72	108	7	E	0	M1
TTP	72	120	6	E	0	M1
TTP	72	132	5	E	0	M1
TTP	72	144	4	E	0	M1
TTP	72	156	3	E	0	M1
TTP	72	168	2	E	0	M1
XTP	72	192	0
XST	72	192	7
SCR	72	192	7	96	72	6
TTP	72	288	0	E	0	M1
XTP	72	288	7
TTP	72	300	1	E	0	M1
TTP	72	312	2	E	0	M1
TTP	72	324	3	E	0	M1
TTP	72	336	4	E	0	M1
TTP	72	348	5	E	0	M1
TTP	72	360	6	E	0	M1
XST	73	0	0
SCL	73	0	0	96	72	1
XTP	73	0	7
XTP	73	96	0
TTP	73	96	0	E	0	M1
TTP	73	108	7	E	0	M1
TTP	73	120	6	E	0	M1
TTP	73	132	5	E	0	M1
TTP	73	144	4	E	0	M1
TTP	73	156	3	E	0	M1
TTP	73	168	2	E	0	M1
XTP	73	192	0
XTP	73	192	7
TAP	73	288	1
TAP	73	288	6
TAP	73	336	1
TAP	73	336	6
TAP	74	0	0
STR	74	0	7
SCR	74	0	7	96	72	6
TTP	74	96	0	E	0	M1
XTP	74	96	7
TTP	74	108	1	E	0	M1
TTP	74	120	2	E	0	M1
TTP	74	132	3	E	0	M1
TTP	74	144	4	E	0	M1
TTP	74	156	5	E	0	M1
TTP	74	168	6	E	0	M1
XST	74	192	0
SCL	74	192	0	96	72	1
XTP	74	192	7
XTP	74	288	0
TTP	74	288	0	E	0	M1
TTP	74	300	7	E	0	M1
TTP	74	312	6	E	0	M1
TTP	74	324	5	E	0	M1
TTP	74	336	4	E	0	M1
TTP	74	348	3	E	0	M1
TTP	74	360	2	E	0	M1
XTP	75	0	0
XTP	75	0	7
TAP	75	96	3
TAP	75	96	4
TAP	75	144	3
TAP	75	144	4
BRK	75	240	0
BRK	75	240	5
BRK	75	288	2
BRK	75	288	7

T_REC_TAP	430
T_REC_BRK	27
T_REC_XTP	129
T_REC_HLD	29
T_REC_XHO	25
T_REC_STR	49
T_REC_BST	3
T_REC_XST	13
T_REC_TTP	132
T_REC_THO	0
T_REC_SLD	66
T_REC_ALL	903
T_NUM_TAP	753
T_NUM_BRK	30
T_NUM_HLD	54
T_NUM_SLD	66
T_NUM_ALL	903
T_JUDGE_TAP	783
T_JUDGE_HLD	111
T_JUDGE_SLD	66
T_JUDGE_ALL	960
TTM_EACHPAIRS	201
TTM_SCR_TAP	376500
TTM_SCR_BRK	78000
TTM_SCR_HLD	54000
TTM_SCR_SLD	99000
TTM_SCR_ALL	607500
TTM_SCR_S	586400
TTM_SCR_SS	604500
TTM_RAT_ACV	10049

