VERSION	0.00.00	1.03.00
FES_MODE	0
BPM_DEF	129.000	129.000	129.000	129.000
MET_DEF	4	4
RESOLUTION	384
CLK_DEF	384
COMPATIBLE_CODE	MA2

BPM	0	0	129.000
MET	0	0	4	4

XHO	1	0	2	672
TTP	1	96	4	E	0	M1
TTP	1	288	4	E	0	M1
TTP	2	96	4	E	0	M1
TAP	2	288	5
XHO	3	0	5	672
TTP	3	96	4	E	0	M1
TTP	3	288	4	E	0	M1
TTP	4	96	4	E	0	M1
TAP	4	288	2
HLD	5	0	2	192
TTP	5	96	4	E	0	M1
HLD	5	192	5	192
TTP	5	288	4	E	0	M1
HLD	6	0	2	192
TTP	6	96	4	E	0	M1
HLD	6	192	5	192
TTP	6	288	4	E	0	M1
HLD	7	0	2	192
TTP	7	96	4	E	0	M1
HLD	7	192	5	192
TTP	7	288	4	E	0	M1
XTP	8	0	2
TAP	8	96	1
TAP	8	96	6
TTP	8	192	3	B	0	M1
TTP	8	192	6	B	0	M1
TTP	8	192	7	E	0	M1
TTP	8	288	1	B	0	M1
TTP	8	288	1	E	0	M1
TTP	8	288	4	B	0	M1
HLD	9	0	3	48
HLD	9	0	5	48
STR	9	96	6
SI_	9	96	6	96	48	4
STR	9	96	7
SI_	9	96	7	96	48	3
TAP	9	288	2
TAP	9	336	2
HLD	10	0	1	48
HLD	10	0	3	48
STR	10	96	0
SI_	10	96	0	96	48	4
STR	10	96	1
SI_	10	96	1	96	48	3
TAP	10	288	5
TAP	10	336	5
HLD	11	0	4	48
HLD	11	0	6	48
STR	11	96	6
SI_	11	96	6	96	48	4
STR	11	96	7
SI_	11	96	7	96	48	3
TAP	11	288	2
TAP	11	336	2
HLD	12	0	1	48
HLD	12	0	3	48
TAP	12	96	0
TAP	12	96	1
TAP	12	192	6
XTP	12	240	6
XTP	12	240	7
XTP	12	288	6
XTP	12	288	7
HLD	13	0	0	48
HLD	13	0	6	48
STR	13	96	4
SUR	13	96	4	96	48	0
STR	13	96	5
SCR	13	96	5	96	48	7
TAP	13	288	1
TAP	13	336	1
HLD	14	0	0	48
HLD	14	0	2	48
STR	14	96	2
SCL	14	96	2	96	48	0
STR	14	96	3
SUL	14	96	3	96	48	7
TAP	14	288	6
TAP	14	336	6
HLD	15	0	5	48
HLD	15	0	7	48
STR	15	96	4
SUR	15	96	4	96	48	0
STR	15	96	5
SCR	15	96	5	96	48	7
TAP	15	288	1
TAP	15	336	1
HLD	16	0	0	48
HLD	16	0	2	48
HLD	16	96	1	48
HLD	16	96	7	48
TAP	16	192	2
TAP	16	192	6
TAP	16	240	2
TAP	16	240	6
BRK	16	288	0
BRK	16	288	4
HLD	17	0	1	672
TAP	17	0	3
TAP	17	96	4
TAP	17	192	5
TAP	17	288	6
TAP	18	0	3
TAP	18	48	3
TAP	18	96	4
TAP	18	192	5
TAP	18	288	7
TAP	18	336	7
TAP	19	0	0
TAP	19	0	1
TAP	19	96	2
TAP	19	96	3
TAP	19	192	5
TAP	19	240	5
TAP	19	288	0
TAP	19	336	0
TAP	20	0	6
TAP	20	48	6
TAP	20	96	1
TAP	20	144	1
TAP	20	192	7
XTP	20	240	0
XTP	20	240	1
XTP	20	288	0
XTP	20	288	1
TAP	21	0	4
HLD	21	0	6	672
TAP	21	96	3
TAP	21	192	2
TAP	21	288	1
TAP	22	0	4
TAP	22	48	4
TAP	22	96	3
TAP	22	192	2
TAP	22	288	0
TAP	22	336	0
TAP	23	0	6
TAP	23	0	7
TAP	23	96	4
TAP	23	96	5
TAP	23	192	2
TAP	23	240	2
TAP	23	288	6
TAP	23	336	6
XTP	24	0	3
XTP	24	0	5
TAP	24	64	2
TAP	24	64	4
XTP	24	96	2
XTP	24	96	4
TAP	24	160	3
TAP	24	160	5
XTP	24	192	3
XTP	24	192	5
BRK	24	288	0
BRK	24	288	7
XHO	25	0	1	72
XHO	25	72	2	72
XTP	25	144	3
TAP	25	240	1
TAP	25	240	4
TAP	25	288	1
TAP	25	288	4
XHO	26	0	6	72
XHO	26	72	5	72
XTP	26	144	4
TAP	26	240	3
TAP	26	240	4
TAP	26	288	3
TAP	26	288	4
TAP	27	0	2
TAP	27	32	2
TAP	27	48	3
TAP	27	96	5
TAP	27	128	5
TAP	27	144	4
TAP	27	192	2
TAP	27	224	2
TAP	27	240	3
TAP	27	288	4
TAP	27	288	5
TAP	27	336	4
TAP	27	336	5
BRK	28	0	3
BRK	28	0	7
XTP	28	192	4
XTP	28	224	4
XTP	28	256	4
XTP	28	288	3
XTP	28	320	3
XTP	28	352	3
XHO	29	0	6	72
XHO	29	72	5	72
XTP	29	144	4
TAP	29	240	3
TAP	29	240	5
TAP	29	288	3
TAP	29	288	5
XHO	30	0	1	72
XHO	30	72	2	72
XTP	30	144	3
TAP	30	240	2
TAP	30	240	4
TAP	30	288	2
TAP	30	288	4
HLD	31	0	1	96
HLD	31	0	5	96
HLD	31	192	2	96
HLD	31	192	6	96
TAP	32	0	1
TAP	32	0	5
TAP	32	48	2
TAP	32	48	6
TAP	32	96	1
TAP	32	96	5
TAP	32	144	2
TAP	32	144	6
HLD	32	192	1	48
HLD	32	192	5	48
TAP	32	288	0
STR	32	288	6
SI_	32	288	6	96	48	3
BST	33	0	7
SI_	33	0	7	96	48	2
STR	33	96	6
SI_	33	96	6	96	48	4
STR	33	192	7
SI_	33	192	7	96	48	3
XTP	33	288	6
TAP	34	0	5
TAP	34	48	5
STR	34	96	2
SXL	34	96	2	96	96	3
SLL	34	96	2	96	96	3
TAP	34	96	4
HLD	35	0	2	48
HLD	35	0	4	48
HLD	35	96	3	48
HLD	35	96	5	48
BRK	35	192	6
BRK	35	192	7
TAP	35	288	0
TAP	35	336	0
HLD	36	0	1	48
HLD	36	0	3	48
HLD	36	96	4	48
HLD	36	96	6	48
TAP	36	192	2
XTP	36	240	0
XTP	36	240	1
TAP	36	288	0
STR	36	288	1
SUR	36	288	1	96	48	5
STR	37	0	7
SCL	37	0	7	96	48	4
STR	37	96	0
SCR	37	96	0	96	48	3
STR	37	192	6
SUL	37	192	6	96	48	2
XTP	37	288	0
TAP	38	0	1
TAP	38	0	3
TAP	38	48	2
TAP	38	96	3
STR	38	96	4
SXL	38	96	4	96	96	4
SXR	38	96	4	96	96	4
XTP	39	0	5
XTP	39	48	6
XTP	39	96	7
XTP	39	144	0
XTP	39	192	1
XTP	39	240	2
XTP	39	288	3
XTP	39	336	4
TAP	40	0	5
TAP	40	48	4
TAP	40	48	6
TAP	40	96	2
TAP	40	144	1
TAP	40	144	3
TAP	40	192	5
XTP	40	240	6
XTP	40	240	7
XTP	40	288	6
XTP	40	288	7
TTP	41	0	3	B	0	M1
TTP	41	0	3	E	0	M1
TTP	41	0	7	E	0	M1
TTP	41	96	1	E	0	M1
TTP	41	96	5	B	0	M1
TTP	41	96	5	E	0	M1
TTP	41	192	2	B	0	M1
TTP	41	192	3	E	0	M1
TTP	41	192	7	E	0	M1
TTP	41	288	1	E	0	M1
TTP	41	288	4	B	0	M1
TTP	41	288	5	E	0	M1
TTP	42	0	3	B	0	M1
TTP	42	0	3	E	0	M1
TTP	42	0	6	B	0	M1
TTP	42	0	7	E	0	M1
TTP	42	96	1	B	0	M1
TTP	42	96	1	E	0	M1
TTP	42	96	4	B	0	M1
TTP	42	96	5	E	0	M1
TTP	42	192	3	B	0	M1
TTP	42	192	3	E	0	M1
TTP	42	192	6	B	0	M1
TTP	42	192	7	E	0	M1
XTP	42	288	0
XTP	42	336	0
HLD	43	0	6	144
TAP	43	48	4
TAP	43	96	3
TAP	43	144	2
HLD	43	192	1	96
TAP	43	240	3
TAP	43	288	4
TAP	43	336	5
HLD	44	0	6	48
TAP	44	48	4
HLD	44	96	1	48
TAP	44	144	3
TAP	44	192	7
XTP	44	240	0
XTP	44	240	6
XTP	44	288	0
XTP	44	288	6
TTP	45	0	1	E	0	M1
TTP	45	0	4	B	0	M1
TTP	45	0	5	E	0	M1
TTP	45	96	2	B	0	M1
TTP	45	96	3	E	0	M1
TTP	45	96	7	E	0	M1
TTP	45	192	1	E	0	M1
TTP	45	192	5	B	0	M1
TTP	45	192	5	E	0	M1
TTP	45	288	3	B	0	M1
TTP	45	288	3	E	0	M1
TTP	45	288	7	E	0	M1
TTP	46	0	1	B	0	M1
TTP	46	0	1	E	0	M1
TTP	46	0	4	B	0	M1
TTP	46	0	5	E	0	M1
TTP	46	96	3	B	0	M1
TTP	46	96	3	E	0	M1
TTP	46	96	6	B	0	M1
TTP	46	96	7	E	0	M1
TTP	46	192	1	B	0	M1
TTP	46	192	1	E	0	M1
TTP	46	192	4	B	0	M1
TTP	46	192	5	E	0	M1
XTP	46	288	7
XTP	46	336	7
HLD	47	0	1	144
TAP	47	48	3
TAP	47	96	4
TAP	47	144	5
HLD	47	192	6	96
TAP	47	240	4
TAP	47	288	3
TAP	47	336	2
XST	48	0	1
SI_	48	0	1	96	48	5
XST	48	96	7
SI_	48	96	7	96	48	3
XST	48	192	0
SI_	48	192	0	96	48	4
XST	48	288	6
SCL	48	288	6	96	96	7
TTP	49	0	0	C	1	M1
XTP	49	192	2
XTP	49	192	4
XTP	49	288	3
XTP	49	288	5
TAP	50	0	2
TAP	50	0	6
TAP	50	96	5
TAP	50	144	4
TAP	50	144	5
XHO	50	192	3	64
XHO	50	192	6	64
XTP	50	288	3
XTP	50	288	6
XTP	51	0	1
XTP	51	0	5
TAP	51	96	2
TAP	51	144	2
TAP	51	144	3
TAP	51	192	2
TAP	51	240	2
TAP	51	240	3
TAP	51	288	2
TAP	51	336	2
TAP	51	336	3
XTP	52	0	1
XTP	52	0	4
XTP	52	96	3
XTP	52	96	6
XTP	52	192	0
XTP	52	192	7
TAP	52	288	2
TAP	52	288	5
TAP	52	336	2
TAP	52	336	5
HLD	53	0	1	32
HLD	53	48	0	32
HLD	53	96	7	32
HLD	53	144	6	32
HLD	53	192	5	32
HLD	53	240	4	32
HLD	53	288	3	32
HLD	53	336	2	32
HLD	54	0	1	32
HLD	54	48	0	32
TAP	54	96	7
TAP	54	144	7
TAP	54	192	0
TAP	54	192	6
TAP	54	240	5
XTP	54	272	5
XTP	54	320	3
XTP	54	320	4
XTP	54	368	2
XTP	54	368	5
XTP	55	0	2
XTP	55	0	5
STR	55	96	0
SCR	55	96	0	96	120	6
TAP	55	144	7
XTP	55	192	6
TAP	56	0	0
TAP	56	48	1
TAP	56	96	6
TAP	56	144	7
XTP	56	192	0
XTP	56	224	0
XTP	56	256	0
XST	56	288	1
SCR	56	288	1	96	96	5
XTP	56	288	7
HLD	57	0	6	96
TAP	57	192	6
STR	57	288	1
SCR	57	288	1	96	96	5
TAP	57	288	5
HLD	58	0	6	96
TAP	58	192	6
STR	58	288	1
SCR	58	288	1	96	96	5
TAP	58	288	5
HLD	59	0	6	96
TAP	59	192	6
TAP	59	288	1
TAP	59	288	5
XHO	60	0	0	96
XHO	60	0	7	96
TAP	60	192	1
TAP	60	192	6
TAP	60	240	1
TAP	60	240	6
TAP	60	288	2
TAP	60	288	5
TAP	60	336	2
TAP	60	336	5
STR	61	0	3
SUR	61	0	3	96	144	4
TAP	61	0	4
XHO	62	0	2	552
XHO	62	0	6	552
TAP	63	288	3
TAP	63	288	4
TAP	63	336	3
TAP	63	336	4
TAP	64	0	1
TAP	64	0	5
TAP	64	48	2
TAP	64	48	6
TAP	64	96	1
TAP	64	96	5
TAP	64	144	2
TAP	64	144	6
BRK	64	192	1
BRK	64	192	5
TAP	64	288	0
TAP	64	336	0
HLD	65	0	1	48
HLD	65	0	7	48
HLD	65	96	0	48
HLD	65	96	6	48
TTP	65	192	0	B	0	M1
TTP	65	192	0	E	0	M1
TTP	65	192	6	B	0	M1
TTP	65	192	6	E	0	M1
XST	65	288	3
SI_	65	288	3	96	48	0
XST	65	288	4
SI_	65	288	4	96	48	7
XTP	65	336	3
XTP	65	336	4
XHO	66	96	1	48
XHO	66	96	6	48
XHO	66	192	3	48
XHO	66	192	4	48
XTP	66	288	0
XTP	66	288	7
TAP	67	0	4
TAP	67	0	6
TAP	67	48	5
STR	67	96	3
SXL	67	96	3	96	96	3
SXR	67	96	3	96	96	3
TAP	67	96	4
XTP	68	0	2
XTP	68	48	1
XTP	68	96	0
XTP	68	144	7
XTP	68	192	6
XTP	68	240	5
XTP	68	288	3
XTP	68	288	4
XTP	69	0	2
TAP	69	24	3
XTP	69	72	3
TAP	69	96	1
XTP	69	144	5
TAP	69	168	4
XTP	69	216	4
TAP	69	240	6
XTP	69	288	2
TAP	69	312	3
XTP	69	336	2
XTP	70	0	7
XTP	70	32	7
XTP	70	64	7
XTP	70	96	1
XTP	70	128	1
XTP	70	160	1
XTP	70	192	6
XTP	70	224	6
XTP	70	256	6
HLD	70	288	4	48
TAP	71	0	5
TAP	71	48	4
TAP	71	48	6
TAP	71	96	2
TAP	71	144	1
TAP	71	144	3
TAP	71	192	5
XTP	71	240	6
XTP	71	240	7
XTP	71	288	6
XTP	71	288	7
TTP	72	0	1	E	0	M1
TTP	72	0	4	B	0	M1
TTP	72	0	5	E	0	M1
TTP	72	96	2	B	0	M1
TTP	72	96	3	E	0	M1
TTP	72	96	7	E	0	M1
TTP	72	192	1	E	0	M1
TTP	72	192	5	B	0	M1
TTP	72	192	5	E	0	M1
TTP	72	288	3	B	0	M1
TTP	72	288	3	E	0	M1
TTP	72	288	7	E	0	M1
TTP	73	0	1	B	0	M1
TTP	73	0	1	E	0	M1
TTP	73	0	4	B	0	M1
TTP	73	0	5	E	0	M1
TTP	73	96	3	B	0	M1
TTP	73	96	3	E	0	M1
TTP	73	96	6	B	0	M1
TTP	73	96	7	E	0	M1
TTP	73	192	1	B	0	M1
TTP	73	192	1	E	0	M1
TTP	73	192	4	B	0	M1
TTP	73	192	5	E	0	M1
XTP	73	288	7
XTP	73	336	7
TTP	74	0	3	B	0	M1
TTP	74	0	3	E	0	M1
TTP	74	0	6	B	0	M1
TTP	74	0	7	E	0	M1
TTP	74	96	1	B	0	M1
TTP	74	96	1	E	0	M1
TTP	74	96	4	B	0	M1
TTP	74	96	5	E	0	M1
TTP	74	192	3	B	0	M1
TTP	74	192	3	E	0	M1
TTP	74	192	6	B	0	M1
TTP	74	192	7	E	0	M1
TTP	74	288	1	B	0	M1
TTP	74	288	1	E	0	M1
TTP	74	288	4	B	0	M1
TTP	74	288	5	E	0	M1
XHO	75	0	2	48
XHO	75	0	7	48
XTP	75	96	0
XTP	75	96	5
XTP	75	144	0
XTP	75	144	5
BRK	75	240	1
BRK	75	240	6
BRK	75	288	1
BRK	75	288	6

T_REC_TAP	213
T_REC_BRK	14
T_REC_XTP	112
T_REC_HLD	64
T_REC_XHO	22
T_REC_STR	26
T_REC_BST	1
T_REC_XST	7
T_REC_TTP	111
T_REC_THO	0
T_REC_SLD	37
T_REC_ALL	607
T_NUM_TAP	469
T_NUM_BRK	15
T_NUM_HLD	86
T_NUM_SLD	37
T_NUM_ALL	607
T_JUDGE_TAP	484
T_JUDGE_HLD	203
T_JUDGE_SLD	37
T_JUDGE_ALL	724
TTM_EACHPAIRS	127
TTM_SCR_TAP	234500
TTM_SCR_BRK	39000
TTM_SCR_HLD	86000
TTM_SCR_SLD	55500
TTM_SCR_ALL	415000
TTM_SCR_S	401100
TTM_SCR_SS	413500
TTM_RAT_ACV	10036

