VERSION	0.00.00	1.03.00
FES_MODE	0
BPM_DEF	129.000	129.000	129.000	129.000
MET_DEF	4	4
RESOLUTION	384
CLK_DEF	384
COMPATIBLE_CODE	MA2

BPM	0	0	129.000
MET	0	0	4	4

TTP	1	0	4	E	0	L1
TTP	1	192	3	E	0	L1
TTP	2	0	2	E	0	L1
TTP	2	192	1	E	0	L1
TTP	3	0	0	E	0	L1
TTP	3	192	7	E	0	L1
TTP	4	0	6	E	0	L1
TTP	4	192	5	E	0	L1
TTP	5	0	2	E	0	L1
TTP	5	96	2	B	0	L1
TTP	5	192	3	B	0	L1
TTP	6	0	6	E	0	L1
TTP	6	96	5	B	0	L1
TTP	6	192	4	B	0	L1
TTP	7	0	2	E	0	L1
TTP	7	96	2	B	0	L1
TTP	7	192	3	B	0	L1
XTP	8	0	5
XTP	8	96	4
BRK	8	192	3
BRK	8	192	5
TAP	9	0	6
TAP	9	96	6
TAP	9	192	7
TAP	9	288	7
TAP	10	0	0
TAP	10	96	0
TAP	10	192	1
TAP	10	192	7
TAP	11	0	2
TAP	11	96	2
TAP	11	192	3
TAP	11	288	3
TAP	12	0	4
TAP	12	96	4
TAP	12	192	3
TAP	12	192	4
TAP	13	0	5
TAP	13	96	5
TAP	13	192	4
TAP	13	288	4
TAP	14	0	3
TAP	14	96	3
TAP	14	192	2
TAP	14	192	4
TAP	15	0	1
TAP	15	96	1
TAP	15	192	0
TAP	15	288	0
TAP	16	0	7
TAP	16	96	0
TAP	16	96	7
BRK	16	192	1
BRK	16	192	6
HLD	17	0	5	192
TAP	17	192	4
HLD	18	0	2	192
TAP	18	192	3
HLD	19	0	5	192
TAP	19	192	4
XTP	20	0	3
XTP	20	96	3
XTP	20	192	2
XTP	20	192	4
HLD	21	0	1	192
TAP	21	192	0
HLD	22	0	6	192
TAP	22	192	7
HLD	23	0	1	192
TAP	23	192	0
XTP	24	0	7
XTP	24	96	7
XTP	24	192	0
XTP	24	192	7
XST	25	0	6
SI_	25	0	6	96	144	3
XST	26	0	2
SI_	26	0	2	96	144	7
TAP	27	0	6
TAP	27	96	6
TAP	27	192	0
TAP	27	192	7
BRK	28	0	1
BRK	28	0	6
TAP	28	192	7
TAP	28	288	7
XST	29	0	0
SI_	29	0	0	96	144	4
XTP	29	0	7
XST	30	0	5
SI_	30	0	5	96	144	0
HLD	31	0	1	96
HLD	31	192	6	96
TAP	32	0	0
TAP	32	0	7
TAP	32	96	0
TAP	32	96	7
XTP	32	192	1
XTP	32	192	6
BRK	33	0	6
TAP	33	96	6
TAP	33	96	7
TAP	33	192	1
TAP	33	288	0
TAP	33	288	1
TAP	34	0	2
TAP	34	96	2
TAP	34	192	3
TAP	34	288	3
TAP	35	0	4
TAP	35	96	4
XTP	35	192	3
XTP	35	192	5
TAP	36	0	2
TAP	36	96	3
TAP	36	192	2
TAP	36	192	4
BRK	37	0	1
TAP	37	96	0
TAP	37	96	1
TAP	37	192	6
TAP	37	288	6
TAP	37	288	7
TAP	38	0	5
TAP	38	96	5
TAP	38	192	4
TAP	38	288	4
TAP	39	0	3
TAP	39	96	2
TAP	39	192	1
TAP	39	288	0
TAP	40	0	7
TAP	40	96	0
TAP	40	96	7
BRK	40	192	1
BRK	40	192	6
HLD	41	0	5	192
HLD	41	192	4	192
HLD	42	0	3	192
TAP	42	192	2
STR	43	0	1
SI_	43	0	1	96	144	4
TAP	44	0	5
TAP	44	96	5
TAP	44	192	4
TAP	44	192	5
HLD	45	0	6	192
HLD	45	192	7	192
HLD	46	0	0	192
TAP	46	192	1
STR	47	0	2
SI_	47	0	2	96	144	7
XTP	48	0	6
XTP	48	96	7
XTP	48	192	0
XTP	48	288	1
BRK	49	0	0
BST	49	0	7
SCL	49	0	7	96	144	4
XST	50	0	3
SCL	50	0	3	96	144	0
XST	51	0	7
SUL	51	0	7	96	144	3
XTP	52	0	2
XTP	52	96	2
XTP	52	192	3
XTP	52	192	4
TAP	53	0	5
TAP	53	96	5
TAP	53	192	4
TAP	53	192	5
TAP	54	0	2
TAP	54	96	2
TAP	54	192	2
TAP	54	192	3
TAP	55	0	5
TAP	55	96	5
TAP	55	192	4
TAP	55	288	4
TAP	56	0	3
TAP	56	96	3
TAP	56	96	4
BRK	56	192	2
BRK	56	192	5
TTP	57	0	6	E	0	L1
TTP	57	96	5	B	0	L1
TTP	57	192	4	B	0	L1
TTP	58	0	2	E	0	L1
TTP	58	96	2	B	0	L1
TTP	58	192	3	B	0	L1
TTP	59	0	6	E	0	L1
TTP	59	96	5	B	0	L1
TTP	59	192	4	B	0	L1
XHO	60	0	3	96
XHO	60	0	5	96
XHO	60	192	2	96
XHO	60	192	4	96
TAP	61	0	3
TAP	61	96	3
XTP	61	192	3
XTP	61	192	4
THO	62	0	0	576	C	0	L1
XTP	64	0	0
XTP	64	0	7
XTP	64	96	0
XTP	64	96	7
BRK	64	192	1
BRK	64	192	6
TAP	65	0	2
TAP	65	96	2
TAP	65	192	3
HLD	65	288	3	96
HLD	65	288	4	96
BRK	66	96	2
BRK	66	96	5
TAP	66	192	6
TAP	66	288	7
TAP	67	0	0
TAP	67	96	0
TAP	67	192	1
TAP	67	192	7
TAP	68	0	2
TAP	68	0	3
TAP	68	96	2
TAP	68	96	3
TAP	68	192	2
TAP	68	192	3
TAP	69	0	4
TAP	69	0	5
TAP	69	96	4
TAP	69	96	5
TAP	69	192	3
TAP	69	192	6
TAP	70	0	6
TAP	70	0	7
TAP	70	96	6
TAP	70	96	7
TAP	70	192	4
TAP	70	192	5
TAP	70	288	2
TAP	70	288	3
TAP	71	0	0
TAP	71	0	1
TAP	71	96	0
TAP	71	96	1
BRK	71	192	2
BRK	71	192	7
TAP	72	0	6
TAP	72	96	6
TAP	72	192	7
TAP	72	288	7
TAP	73	0	0
TAP	73	96	0
TAP	73	192	1
TAP	73	192	7
TAP	74	0	2
TAP	74	96	2
TAP	74	192	3
TAP	74	288	3
TAP	75	0	4
TAP	75	96	3
TAP	75	96	4
TAP	75	192	2
TAP	75	192	5
BRK	75	288	1
BRK	75	288	6

T_REC_TAP	151
T_REC_BRK	21
T_REC_XTP	29
T_REC_HLD	16
T_REC_XHO	4
T_REC_STR	2
T_REC_BST	1
T_REC_XST	6
T_REC_TTP	26
T_REC_THO	1
T_REC_SLD	9
T_REC_ALL	266
T_NUM_TAP	214
T_NUM_BRK	22
T_NUM_HLD	21
T_NUM_SLD	9
T_NUM_ALL	266
T_JUDGE_TAP	236
T_JUDGE_HLD	76
T_JUDGE_SLD	9
T_JUDGE_ALL	321
TTM_EACHPAIRS	55
TTM_SCR_TAP	107000
TTM_SCR_BRK	57200
TTM_SCR_HLD	21000
TTM_SCR_SLD	13500
TTM_SCR_ALL	198700
TTM_SCR_S	190650
TTM_SCR_SS	196500
TTM_RAT_ACV	10111

