VERSION	0.00.00	1.03.00
FES_MODE	0
BPM_DEF	129.000	129.000	129.000	129.000
MET_DEF	4	4
RESOLUTION	384
CLK_DEF	384
COMPATIBLE_CODE	MA2

BPM	0	0	129.000
MET	0	0	4	4

TAP	5	0	3
TAP	6	0	3
TAP	7	0	4
TAP	8	0	4
TAP	9	0	2
TAP	9	192	2
TAP	10	0	2
TAP	11	0	1
TAP	11	192	1
TAP	12	0	1
TAP	13	0	0
TAP	13	192	0
TAP	14	0	0
TAP	15	0	7
TAP	15	192	7
TAP	16	0	0
TAP	16	0	7
HLD	17	0	6	192
HLD	17	0	7	192
TAP	18	0	6
TAP	18	0	7
HLD	19	0	4	192
HLD	19	0	5	192
TAP	20	0	4
TAP	20	0	5
HLD	21	0	2	192
HLD	21	0	3	192
TAP	22	0	2
TAP	22	0	3
HLD	23	0	0	192
HLD	23	0	1	192
TAP	24	0	0
TAP	24	0	1
STR	25	0	0
SI_	25	0	0	96	288	4
TAP	27	0	7
TAP	27	192	7
TAP	28	0	6
TAP	28	192	6
STR	29	0	5
SI_	29	0	5	96	288	1
TAP	31	0	0
TAP	31	192	0
XTP	32	0	0
XTP	32	0	7
XTP	32	192	0
XTP	32	192	7
TAP	33	0	6
TAP	33	96	6
TAP	33	192	6
TAP	34	0	5
TAP	34	192	5
TAP	35	0	4
TAP	35	96	4
TAP	35	192	3
TAP	35	192	4
TAP	36	0	2
TAP	36	192	2
TAP	37	0	1
TAP	37	96	1
TAP	37	192	1
TAP	38	0	0
TAP	38	192	0
TAP	39	0	7
TAP	39	96	7
TAP	39	192	7
TAP	40	0	0
TAP	40	0	7
XTP	40	192	1
XTP	40	192	6
TAP	41	0	6
TAP	41	192	6
TAP	41	192	7
TAP	42	0	1
TAP	42	192	0
TAP	42	192	1
TAP	43	0	2
TAP	43	96	2
TAP	43	192	2
TAP	44	0	3
TAP	44	96	3
TAP	44	192	3
TAP	45	0	5
TAP	45	192	4
TAP	45	192	5
TAP	46	0	2
TAP	46	192	2
TAP	46	192	3
TAP	47	0	4
TAP	47	96	4
TAP	47	192	4
TAP	48	0	3
TAP	48	96	3
TAP	48	192	3
BRK	49	0	3
BRK	49	0	4
BRK	50	0	2
BRK	50	0	5
BRK	51	0	1
BRK	51	0	6
BRK	52	0	0
BRK	52	0	7
TAP	53	0	6
TAP	53	96	6
TAP	53	192	6
TAP	54	0	4
TAP	54	0	5
TAP	54	192	4
TAP	54	192	5
TAP	55	0	2
TAP	55	96	2
TAP	55	192	2
TAP	56	0	0
TAP	56	0	1
TAP	56	192	0
TAP	56	192	1
STR	57	0	7
SI_	57	0	7	96	288	4
STR	59	0	3
SI_	59	0	3	96	288	0
BRK	61	0	0
TTP	62	0	0	B	0	L1
TTP	62	0	7	B	0	L1
TTP	63	0	1	B	0	L1
TTP	63	0	6	B	0	L1
TTP	64	0	0	C	1	L1
TAP	65	0	0
TAP	65	96	0
TAP	65	192	0
TAP	66	0	1
TAP	66	96	1
TAP	66	192	1
TAP	67	0	2
TAP	67	96	2
TAP	67	192	2
TAP	68	0	3
TAP	68	96	3
TAP	68	192	3
TAP	68	192	4
TAP	69	0	5
TAP	69	96	5
TAP	69	192	4
TAP	69	192	5
TAP	70	0	2
TAP	70	96	2
TAP	70	192	2
TAP	70	192	3
TAP	71	0	3
TAP	71	0	4
TAP	71	96	3
TAP	71	96	4
BRK	71	192	2
BRK	71	192	5
HLD	72	0	6	192
TAP	73	0	6
TAP	73	96	6
TAP	73	192	6
TAP	73	192	7
HLD	74	0	0	192
TAP	75	0	0
TAP	75	96	0
TAP	75	192	7
BRK	75	288	0
BRK	75	288	7

T_REC_TAP	122
T_REC_BRK	13
T_REC_XTP	6
T_REC_HLD	10
T_REC_XHO	0
T_REC_STR	4
T_REC_BST	0
T_REC_XST	0
T_REC_TTP	5
T_REC_THO	0
T_REC_SLD	4
T_REC_ALL	164
T_NUM_TAP	137
T_NUM_BRK	13
T_NUM_HLD	10
T_NUM_SLD	4
T_NUM_ALL	164
T_JUDGE_TAP	150
T_JUDGE_HLD	40
T_JUDGE_SLD	4
T_JUDGE_ALL	194
TTM_EACHPAIRS	34
TTM_SCR_TAP	68500
TTM_SCR_BRK	33800
TTM_SCR_HLD	10000
TTM_SCR_SLD	6000
TTM_SCR_ALL	118300
TTM_SCR_S	113500
TTM_SCR_SS	117000
TTM_RAT_ACV	10111

