VERSION	0.00.00	1.03.00
FES_MODE	0
BPM_DEF	200.000	200.000	200.000	200.000
MET_DEF	4	4
RESOLUTION	384
CLK_DEF	384
COMPATIBLE_CODE	MA2

BPM	0	0	200.000
MET	0	0	4	4

TTP	2	288	5	E	0	M1
TTP	2	312	4	B	0	M1
TTP	2	336	3	B	0	M1
TTP	2	360	3	E	0	M1
TTP	3	0	0	C	0	M1
TAP	3	96	7
TAP	3	192	6
TAP	3	240	6
TAP	3	336	4
TAP	3	336	5
TAP	4	48	3
TAP	4	48	4
TAP	4	144	2
TAP	4	144	3
TAP	4	192	2
TAP	4	208	3
TAP	4	224	2
HLD	4	240	3	48
TAP	5	0	2
TAP	5	96	3
TAP	5	192	4
TAP	5	240	4
TTP	5	336	3	B	0	M1
TTP	5	336	5	B	0	M1
TTP	6	48	2	B	0	M1
TTP	6	48	4	B	0	M1
TTP	6	144	3	E	0	M1
TTP	6	144	6	B	0	M1
TTP	6	240	1	B	0	M1
TTP	6	240	5	E	0	M1
HLD	7	0	2	96
TAP	7	96	3
TAP	7	192	2
TAP	7	240	2
TAP	7	336	2
TAP	7	336	3
TAP	8	48	3
TAP	8	48	4
TAP	8	144	4
TAP	8	144	5
TAP	8	192	5
TAP	8	208	4
TAP	8	224	5
HLD	8	240	4	48
TAP	9	0	5
TAP	9	96	4
TAP	9	192	3
TAP	9	240	3
TAP	9	336	3
TAP	9	336	4
TAP	10	0	3
TAP	10	0	4
TAP	10	48	2
TAP	10	96	2
TAP	10	144	3
TAP	10	144	4
TAP	10	192	5
TAP	10	240	5
TAP	10	288	3
TAP	10	288	4
XTP	11	0	2
XTP	11	0	5
TAP	11	96	4
TAP	11	144	4
TAP	11	192	3
HLD	11	240	5	96
HLD	11	336	4	96
TAP	12	48	5
TAP	12	144	3
TAP	12	144	6
TAP	12	192	5
TAP	12	208	4
TAP	12	224	5
HLD	12	240	4	48
TAP	13	0	5
TAP	13	48	5
TAP	13	96	3
TAP	13	144	4
TAP	13	192	4
TAP	13	240	2
TAP	13	288	3
HLD	13	336	3	96
HLD	14	48	1	96
HLD	14	144	2	96
HLD	14	240	3	96
TAP	14	336	4
TAP	15	0	4
TAP	15	96	1
TAP	15	144	4
TAP	15	192	4
TAP	15	240	2
TAP	15	288	3
HLD	15	336	3	96
TAP	16	48	2
TAP	16	144	1
TAP	16	144	4
TAP	16	192	2
TAP	16	208	3
TAP	16	224	2
HLD	16	240	3	48
TAP	17	0	2
TAP	17	48	3
TAP	17	96	4
TAP	17	144	5
TAP	17	192	6
STR	17	240	0
SI_	17	240	0	96	48	4
TAP	17	240	7
XST	17	336	6
SI_	17	336	6	96	48	2
XST	18	48	0
SI_	18	48	0	96	48	3
SI_	18	48	0	96	48	5
TAP	18	240	4
BRK	18	288	3
BRK	18	288	5
XTP	19	0	5
TAP	19	48	4
HLD	19	96	6	96
TAP	19	192	5
TAP	19	240	4
TAP	19	288	3
HLD	19	336	2	96
TAP	20	48	4
HLD	20	96	1	96
TAP	20	192	3
TAP	20	288	0
TAP	20	288	4
TAP	21	0	2
TAP	21	48	3
HLD	21	96	1	96
TAP	21	192	3
TAP	21	240	3
TAP	21	288	2
HLD	21	336	5	96
TAP	22	48	4
TAP	22	96	3
TAP	22	96	6
TAP	22	192	2
TAP	22	192	4
TAP	22	288	1
TAP	22	288	5
TAP	23	0	0
TAP	23	48	7
HLD	23	96	1	96
TAP	23	192	2
TAP	23	240	3
TAP	23	288	4
HLD	23	336	5	96
TAP	24	48	4
TAP	24	96	4
TAP	24	192	3
TAP	24	192	6
TAP	24	288	2
HLD	24	288	7	96
TAP	25	0	4
TAP	25	48	6
HLD	25	96	3	96
TAP	25	192	5
TAP	25	240	3
TAP	25	288	4
HLD	25	336	2	96
TAP	26	48	3
HLD	26	96	1	96
TAP	26	192	0
BRK	26	288	2
BRK	26	288	7
XST	27	0	6
SI_	27	0	6	96	48	3
TAP	27	48	3
TAP	27	96	2
TAP	27	192	1
TAP	27	240	1
TAP	27	288	3
HLD	27	336	2	96
TAP	28	48	3
HLD	28	96	1	96
TAP	28	192	0
TAP	28	240	0
TAP	28	288	2
TAP	28	288	7
STR	29	0	6
SI_	29	0	6	96	48	3
TAP	29	48	3
TAP	29	96	2
TAP	29	192	1
TAP	29	240	1
TAP	29	288	3
HLD	29	336	2	96
TAP	30	48	3
HLD	30	96	1	96
TAP	30	192	5
TAP	30	288	2
TAP	30	288	4
STR	31	0	1
SI_	31	0	1	96	48	4
TAP	31	48	5
HLD	31	96	6	96
TAP	31	192	5
TAP	31	240	4
TAP	31	288	3
HLD	31	336	2	96
TAP	32	48	3
TAP	32	96	3
TAP	32	144	0
TAP	32	192	0
TAP	32	240	4
TAP	32	288	3
TAP	32	336	2
XTP	33	0	1
XTP	33	0	4
TAP	33	48	2
TAP	33	96	2
XTP	33	144	1
XTP	33	144	4
TAP	33	192	3
TAP	33	240	3
XTP	33	288	1
XTP	33	288	4
TAP	33	336	2
XTP	34	0	2
XTP	34	0	3
XTP	34	48	3
XTP	34	48	4
XTP	34	96	4
XTP	34	96	5
TAP	34	144	5
TAP	34	168	4
TAP	34	192	5
BRK	34	240	1
BRK	34	240	6
XST	35	0	2
SI_	35	0	2	96	48	6
XST	35	0	3
SI_	35	0	3	96	48	7
XTP	35	192	0
XTP	35	192	5
TAP	35	288	4
STR	35	336	4
SCR	35	336	4	96	96	7
TAP	36	48	0
TAP	36	96	1
TAP	36	144	2
HLD	36	192	3	96
TAP	36	288	7
TAP	36	336	7
STR	37	0	4
SI_	37	0	4	96	48	1
STR	37	96	6
SI_	37	96	6	96	48	3
XTP	37	192	0
STR	37	240	0
SCR	37	240	0	96	96	3
STR	37	336	3
SCR	37	336	3	96	96	6
XTP	38	48	6
XTP	38	144	7
XTP	38	192	7
TAP	38	288	3
TAP	38	288	6
TAP	38	336	2
TAP	38	336	7
STR	39	0	0
SI_	39	0	0	96	48	4
STR	39	0	1
SI_	39	0	1	96	48	5
TAP	39	192	3
TAP	39	192	6
TAP	39	288	2
TAP	39	288	7
TAP	39	336	2
HLD	39	336	7	96
TAP	40	48	0
TAP	40	96	0
TAP	40	144	6
TAP	40	192	6
TAP	40	240	4
TAP	40	288	4
TAP	40	336	5
XTP	41	0	4
XTP	41	0	5
TAP	41	48	6
TAP	41	72	7
TAP	41	96	6
TAP	41	144	0
TAP	41	144	5
TAP	41	192	1
TAP	41	216	0
TAP	41	240	1
XTP	41	288	2
XTP	41	288	7
TAP	41	336	2
TAP	41	336	7
TAP	42	48	4
TAP	42	48	5
TAP	42	96	3
TAP	42	96	4
TAP	42	144	2
TAP	42	144	3
HLD	42	192	1	96
TAP	42	288	0
XTP	42	336	0
XST	43	0	6
SI_	43	0	6	96	48	2
XST	43	0	7
SI_	43	0	7	96	48	3
BRK	43	96	6
BRK	43	96	7
XTP	43	192	1
XTP	43	192	4
TAP	43	288	5
STR	43	336	5
SCR	43	336	5	96	96	0
TAP	44	48	0
TAP	44	96	1
TAP	44	144	2
HLD	44	192	3	72
TAP	44	288	7
TAP	44	336	7
STR	45	0	4
SI_	45	0	4	96	48	1
STR	45	96	6
SI_	45	96	6	96	48	3
XTP	45	192	0
STR	45	240	0
SCR	45	240	0	96	96	3
STR	45	336	3
SUL	45	336	3	96	96	6
XTP	46	48	6
XTP	46	144	7
XTP	46	192	7
TAP	46	240	0
TAP	46	288	5
TAP	46	336	3
BRK	47	0	7
TAP	47	96	2
HLD	47	96	6	96
TAP	47	192	4
HLD	47	240	4	96
TAP	47	336	3
TAP	48	48	2
TAP	48	48	3
TAP	48	96	1
TAP	48	96	4
TAP	48	144	0
TAP	48	144	5
TAP	48	192	6
TAP	48	216	7
TAP	48	240	6
TAP	48	288	0
TAP	48	288	5
TAP	48	336	1
STR	49	0	4
SI_	49	0	4	96	48	2
TAP	49	96	0
STR	49	144	1
SI_	49	144	1	96	48	4
TAP	49	240	4
TAP	49	288	5
XTP	49	336	3
XTP	49	336	6
TAP	50	48	0
TAP	50	48	7
TAP	50	144	2
TAP	50	144	3
STR	50	192	2
SI_	50	192	2	96	48	7
STR	50	192	3
SI_	50	192	3	96	48	7
BRK	51	0	0
BRK	51	0	6
TTP	51	192	0	E	0	M1
TTP	52	192	0	C	0	M1
TTP	53	192	4	E	0	M1
TTP	54	192	0	C	0	M1
HLD	55	0	4	1536
TTP	55	192	0	E	0	M1
TTP	56	192	0	C	0	M1
TTP	57	192	4	E	0	M1
TTP	58	192	0	C	0	M1
XST	59	0	0
SCL	59	0	0	96	1248	3
TTP	59	192	0	E	0	M1
TTP	60	192	0	C	0	M1
TTP	61	192	4	E	0	M1
TTP	62	192	0	C	0	M1
STR	63	0	7
SCR	63	0	7	96	1056	4
TTP	63	192	0	E	0	M1
TTP	64	192	0	C	0	M1
THO	65	192	0	192	C	0	M1
TAP	66	288	1
STR	66	288	5
SCR	66	288	5	96	48	0
XTP	67	0	1
TAP	67	16	2
TAP	67	32	3
STR	67	48	4
SCL	67	48	4	96	48	1
XTP	67	96	0
XTP	67	144	0
TAP	67	160	7
TAP	67	176	6
TAP	67	192	5
STR	67	288	2
SCL	67	288	2	96	48	7
TAP	67	288	6
TAP	67	336	3
XTP	68	0	6
TAP	68	16	5
TAP	68	32	4
STR	68	48	3
SCR	68	48	3	96	48	6
XTP	68	96	7
XTP	68	144	7
TAP	68	160	0
TAP	68	176	1
TAP	68	192	2
TAP	68	288	1
STR	68	288	5
SCR	68	288	5	96	48	0
TAP	68	336	4
XTP	69	0	1
TAP	69	16	2
TAP	69	32	3
STR	69	48	4
SCL	69	48	4	96	48	1
XTP	69	96	0
XTP	69	144	0
TAP	69	160	7
TAP	69	176	6
TAP	69	192	5
TAP	69	288	0
TAP	69	336	0
HLD	70	0	3	48
HLD	70	0	6	48
HLD	70	72	4	48
HLD	70	72	5	48
TAP	70	144	2
TAP	70	144	3
XST	70	192	2
SI_	70	192	2	96	48	7
XST	70	192	3
SI_	70	192	3	96	48	6
BRK	70	288	2
BRK	70	288	3
XTP	71	0	0
TAP	71	0	5
TAP	71	48	1
TAP	71	96	2
TAP	71	96	4
TAP	71	144	5
TAP	71	168	4
TAP	71	192	5
TAP	71	240	6
TAP	71	288	0
TAP	71	336	4
TAP	72	0	1
TAP	72	0	3
TAP	72	48	2
TAP	72	96	3
TAP	72	96	6
TAP	72	144	5
TAP	72	168	4
TAP	72	192	5
TAP	72	240	4
TAP	72	240	5
TAP	72	288	3
TAP	72	288	6
TAP	72	336	2
STR	73	0	7
SCL	73	0	7	96	48	4
TAP	73	96	1
STR	73	144	2
SCL	73	144	2	96	48	7
TAP	73	240	4
TAP	73	288	5
TAP	73	336	5
BRK	74	0	6
BRK	74	0	7
TAP	74	96	0
XTP	74	96	1
TAP	74	120	2
TAP	74	144	3
TAP	74	168	4
XTP	74	192	7
TAP	74	216	6
TAP	74	240	5
TAP	74	264	4
XTP	74	288	0
XHO	75	0	4	48
XHO	75	0	6	48
XTP	75	72	4
XTP	75	72	6
TAP	75	144	5
TAP	75	168	4
TAP	75	192	6
TAP	75	240	6
TAP	75	288	3
TAP	75	288	5
TAP	75	336	2
TAP	75	336	4
XHO	76	0	1	48
XHO	76	0	3	48
XTP	76	72	1
XTP	76	72	3
TAP	76	144	2
TAP	76	168	3
TAP	76	192	1
TAP	76	240	1
TAP	76	288	2
TAP	76	288	4
TAP	76	336	3
STR	77	0	5
SCR	77	0	5	96	48	0
TAP	77	96	1
STR	77	144	2
SCR	77	144	2	96	48	5
TAP	77	240	7
STR	77	288	6
SI_	77	288	6	96	48	2
STR	78	0	3
SI_	78	0	3	96	48	0
XTP	78	0	6
XTP	78	96	3
STR	78	96	7
SI_	78	96	7	96	48	3
XTP	78	192	7
BRK	78	288	1
BRK	78	288	5
XTP	79	0	2
TAP	79	48	2
TAP	79	96	3
TAP	79	96	6
TAP	79	144	5
TAP	79	168	4
TAP	79	192	6
TAP	79	240	3
TAP	79	240	7
TAP	79	288	0
TAP	79	336	1
XTP	80	0	2
TAP	80	48	2
TAP	80	96	1
TAP	80	96	4
TAP	80	144	2
TAP	80	168	3
TAP	80	192	1
TAP	80	240	0
TAP	80	240	4
TAP	80	288	0
TAP	80	336	6
TAP	81	0	5
TAP	81	24	4
TAP	81	48	5
TAP	81	72	4
TAP	81	96	6
TAP	81	120	3
TAP	81	144	6
TAP	81	168	3
TAP	81	192	7
TAP	81	216	2
TAP	81	240	7
TAP	81	264	2
TAP	81	288	0
TAP	81	312	1
TAP	81	336	0
TAP	81	360	1
BRK	82	0	2
BRK	82	0	7
TAP	82	192	3
TAP	82	192	4
TAP	82	240	3
TAP	82	240	4
TAP	82	288	2
TAP	82	288	5
TAP	82	336	1
TAP	82	336	6
STR	83	0	0
SI_	83	0	0	96	48	4
STR	83	0	7
SI_	83	0	7	96	48	3
BRK	83	96	0
BRK	83	96	7
TAP	83	192	1
TAP	83	192	6
TAP	83	240	2
TAP	83	288	3
TAP	83	336	5
TAP	83	360	4
TAP	84	0	5
TAP	84	48	3
TAP	84	48	6
TAP	84	96	2
TAP	84	96	7
TAP	84	144	1
TAP	84	168	0
TAP	84	192	1
TAP	84	240	2
TAP	84	240	7
TAP	84	288	2
TAP	84	288	7
TAP	84	336	6
TAP	85	0	0
TAP	85	0	5
TAP	85	16	1
TAP	85	32	2
XHO	85	48	3	48
TAP	85	96	0
TAP	85	144	0
TAP	85	160	1
TAP	85	176	2
XHO	85	192	3	48
TAP	85	240	0
TAP	85	288	0
TAP	85	336	7
HLD	86	0	6	48
HLD	86	0	7	48
HLD	86	72	0	48
HLD	86	72	5	48
TAP	86	144	1
TAP	86	144	4
STR	86	192	1
SI_	86	192	1	96	48	4
STR	86	192	4
SI_	86	192	4	96	48	0
BRK	86	288	1
BRK	86	288	4
XTP	87	0	7
TAP	87	48	6
TAP	87	96	4
TAP	87	96	5
TAP	87	144	2
TAP	87	168	3
TAP	87	192	2
TAP	87	240	1
TAP	87	240	4
TAP	87	288	0
TAP	87	312	7
TAP	87	336	0
TAP	87	360	7
XTP	88	0	0
TAP	88	48	1
TAP	88	96	2
TAP	88	96	6
TAP	88	144	5
TAP	88	168	4
TAP	88	192	6
TAP	88	240	3
TAP	88	240	5
TAP	88	288	2
TAP	88	288	4
TAP	88	336	1
TAP	88	336	3
STR	89	0	0
SCL	89	0	0	96	48	5
TAP	89	48	1
TAP	89	96	2
STR	89	144	3
SCL	89	144	3	96	48	0
TAP	89	192	4
TAP	89	240	5
TAP	89	288	6
TAP	89	336	6
TAP	90	0	6
TAP	90	0	7
XTP	90	96	0
XTP	90	96	5
TAP	90	120	1
TAP	90	144	2
TAP	90	168	3
XTP	90	192	7
TAP	90	216	6
TAP	90	240	5
TAP	90	264	4
TAP	90	288	0
TAP	90	312	1
TAP	90	336	2
TAP	90	360	3
XHO	91	0	4	72
XTP	91	0	5
XTP	91	72	5
TAP	91	144	6
TAP	91	168	7
TAP	91	192	5
TAP	91	240	0
TAP	91	240	4
TAP	91	288	1
XTP	91	288	3
TAP	91	336	2
XHO	92	0	3	72
XTP	92	0	5
TAP	92	72	5
TAP	92	144	6
TAP	92	168	7
TAP	92	192	5
TAP	92	240	0
TAP	92	240	4
XTP	92	288	1
TAP	92	288	3
TAP	92	336	2
XTP	93	0	5
TAP	93	24	4
TAP	93	48	6
TAP	93	96	3
TAP	93	96	7
XTP	93	144	2
TAP	93	168	3
TAP	93	192	1
TAP	93	240	0
TAP	93	240	4
XTP	93	288	6
TAP	93	312	7
TAP	93	336	6
TAP	93	360	7
TAP	94	0	5
TAP	94	48	2
TAP	94	72	3
TAP	94	120	6
TAP	94	144	4
TAP	94	192	7
TAP	94	216	0
TAP	94	240	7
BRK	94	288	1
BRK	94	288	6
XTP	95	0	0
XTP	95	0	5
TAP	95	48	2
TAP	95	72	3
TAP	95	96	2
TAP	95	120	3
XTP	95	144	1
TAP	95	192	5
TAP	95	216	4
TAP	95	240	6
TAP	95	264	3
TAP	95	288	7
TAP	95	336	0
TAP	95	336	1
XTP	96	0	2
XTP	96	0	7
TAP	96	48	5
TAP	96	72	4
TAP	96	96	5
TAP	96	120	4
XTP	96	144	6
TAP	96	192	2
TAP	96	216	3
TAP	96	240	1
TAP	96	288	0
TAP	96	288	5
TAP	96	336	0
TAP	96	336	5
XTP	97	0	0
TAP	97	12	1
TAP	97	24	2
TAP	97	36	3
TAP	97	48	4
TAP	97	60	5
TAP	97	72	6
TAP	97	84	7
XTP	97	96	0
TAP	97	108	1
TAP	97	120	2
TAP	97	132	3
TAP	97	144	4
TAP	97	156	5
TAP	97	168	6
TAP	97	180	7
XTP	97	192	0
TAP	97	204	1
TAP	97	216	2
TAP	97	228	3
TAP	97	240	4
TAP	97	252	5
TAP	97	264	6
TAP	97	276	7
XTP	97	288	0
TAP	97	300	1
TAP	97	312	2
TAP	97	324	3
TAP	97	336	4
TAP	97	348	5
TAP	97	360	6
TAP	97	372	7
XTP	98	0	0
TTP	98	0	0	C	1	M1
STR	98	192	7
SF_	98	192	7	96	48	3
BRK	98	288	7
XTP	99	0	1
TAP	99	24	0
TAP	99	48	2
TAP	99	96	3
TAP	99	96	7
TAP	99	144	6
TAP	99	168	4
TAP	99	192	5
TAP	99	240	3
TAP	99	264	4
TAP	99	288	2
TAP	99	336	1
TAP	99	336	5
TAP	100	0	0
TAP	100	24	7
TAP	100	48	1
TAP	100	96	2
TAP	100	96	6
TAP	100	144	5
TAP	100	168	3
TAP	100	192	4
TAP	100	240	2
TAP	100	264	3
TAP	100	288	1
TAP	100	336	0
TAP	100	336	1
XHO	101	0	2	48
XTP	101	48	0
XTP	101	64	7
XTP	101	80	6
XTP	101	96	5
XHO	101	144	3	48
XTP	101	192	7
XTP	101	208	6
XTP	101	224	5
XTP	101	240	4
XTP	101	288	2
XTP	101	288	3
TAP	101	336	2
TAP	101	336	3
XHO	102	0	1	48
XHO	102	0	4	48
HLD	102	72	0	48
HLD	102	72	5	48
TAP	102	144	6
TAP	102	144	7
STR	102	192	6
SI_	102	192	6	96	48	2
STR	102	192	7
SI_	102	192	7	96	48	3
BRK	102	288	6
BRK	102	288	7
HLD	103	0	0	48
HLD	103	0	1	48
TAP	103	72	0
TAP	103	72	1
TAP	103	144	2
TAP	103	144	7
TAP	103	192	6
TAP	103	216	3
TAP	103	240	5
TAP	103	264	2
TAP	103	288	4
TAP	103	336	1
TAP	103	336	3
HLD	104	0	6	48
HLD	104	0	7	48
TAP	104	72	6
TAP	104	72	7
TAP	104	144	0
TAP	104	144	4
TAP	104	192	1
TAP	104	216	3
TAP	104	240	2
TAP	104	264	4
TAP	104	288	3
TAP	104	336	4
TAP	104	336	5
XHO	105	0	6	48
XTP	105	48	7
XTP	105	64	0
XTP	105	80	1
XTP	105	96	2
XHO	105	144	4	48
XTP	105	192	0
XTP	105	208	1
XTP	105	224	2
XTP	105	240	3
XHO	105	288	5	48
XTP	105	336	1
XTP	105	352	2
XTP	105	368	3
XTP	106	0	4
TAP	106	48	6
TAP	106	48	7
STR	106	96	6
SI_	106	96	6	96	48	2
STR	106	96	7
SI_	106	96	7	96	48	3
BRK	106	192	6
BRK	106	192	7
TAP	106	288	1
TAP	106	288	4
TAP	107	0	2
HLD	107	0	3	72
HLD	107	72	4	72
TAP	107	144	5
TAP	107	192	5
TAP	107	240	4
TAP	107	288	3
TAP	107	288	4
TAP	108	0	2
HLD	108	0	3	72
HLD	108	72	4	72
TAP	108	144	5
TAP	108	192	5
TAP	108	240	3
TAP	108	288	2
TAP	108	288	4
HLD	109	0	5	96
TAP	109	48	3
HLD	109	96	2	96
TAP	109	144	4
HLD	109	192	5	96
TAP	109	240	4
HLD	109	288	2	96
TAP	109	336	3
TAP	110	0	5
TAP	110	48	5
TAP	110	96	3
TAP	110	144	3
TAP	110	192	6
TAP	110	216	5
TAP	110	240	4
TAP	110	264	3
TAP	110	288	2
TAP	111	0	2
TAP	111	48	2
TAP	111	96	4
TAP	111	144	4
TAP	111	192	1
TAP	111	216	2
TAP	111	240	3
TAP	111	264	4
TAP	111	288	5
TAP	112	0	5
TAP	112	48	5
TAP	112	96	3
HLD	112	144	3	96
TAP	112	240	4
TAP	112	288	3
TAP	112	288	4
TAP	113	0	2
TAP	113	48	2
TAP	113	96	5
TAP	113	144	5
TAP	113	192	3
TAP	113	216	4
TAP	113	240	3
TAP	113	264	4
TAP	113	288	3
TAP	113	312	4
TAP	113	336	3
TAP	113	360	4
XTP	114	0	5
XTP	114	16	6
XTP	114	32	7
XTP	114	48	0
XTP	114	64	1
XTP	114	80	2
XTP	114	96	3
XTP	114	112	4
XTP	114	128	5
XTP	114	144	6
XTP	114	160	7
XTP	114	176	0
TAP	114	192	1
TAP	114	208	2
TAP	114	224	3
TAP	114	240	4
TAP	114	256	5
TAP	114	272	6
TAP	114	288	7
TAP	114	304	0
TAP	114	320	1
TAP	114	336	2
TAP	114	352	3
THO	114	368	0	784	C	0	M1
HLD	114	368	4	784

T_REC_TAP	620
T_REC_BRK	30
T_REC_XTP	115
T_REC_HLD	60
T_REC_XHO	15
T_REC_STR	44
T_REC_BST	0
T_REC_XST	10
T_REC_TTP	28
T_REC_THO	2
T_REC_SLD	55
T_REC_ALL	979
T_NUM_TAP	817
T_NUM_BRK	30
T_NUM_HLD	77
T_NUM_SLD	55
T_NUM_ALL	979
T_JUDGE_TAP	847
T_JUDGE_HLD	185
T_JUDGE_SLD	55
T_JUDGE_ALL	1087
TTM_EACHPAIRS	157
TTM_SCR_TAP	408500
TTM_SCR_BRK	78000
TTM_SCR_HLD	77000
TTM_SCR_SLD	82500
TTM_SCR_ALL	646000
TTM_SCR_S	623750
TTM_SCR_SS	643000
TTM_RAT_ACV	10046

