VERSION	0.00.00	1.03.00
FES_MODE	0
BPM_DEF	200.000	200.000	200.000	200.000
MET_DEF	4	4
RESOLUTION	384
CLK_DEF	384
COMPATIBLE_CODE	MA2

BPM	0	0	200.000
MET	0	0	4	4

TAP	3	0	3
TAP	3	0	4
HLD	3	96	2	336
TAP	3	192	3
TAP	3	240	3
HLD	3	336	4	192
TAP	4	144	2
TAP	4	192	2
TAP	4	288	2
TAP	4	288	4
TAP	5	0	4
HLD	5	96	5	336
TAP	5	192	4
TAP	5	240	4
HLD	5	336	3	192
TAP	6	144	5
TAP	6	240	4
TAP	6	336	3
TAP	7	0	3
HLD	7	96	2	336
TAP	7	96	4
TAP	7	192	3
TAP	7	240	3
HLD	7	336	4	192
TAP	8	144	2
TAP	8	192	2
TAP	8	288	2
TAP	8	288	4
TAP	9	0	4
HLD	9	96	5	96
TAP	9	192	4
TAP	9	240	4
TAP	9	336	3
TAP	10	48	2
TAP	10	144	1
TAP	10	240	0
TAP	10	240	5
TAP	10	288	0
TAP	10	288	5
TAP	11	0	4
TAP	11	96	3
TAP	11	96	4
TAP	11	192	5
HLD	11	240	5	192
HLD	11	336	4	96
TAP	12	144	5
TAP	12	192	5
TAP	12	288	4
TAP	12	288	5
TAP	13	0	3
TAP	13	96	3
TAP	13	192	2
TAP	13	192	4
HLD	13	240	2	192
TAP	13	240	4
TAP	13	336	3
TAP	14	48	3
TAP	14	144	2
TAP	14	144	3
TAP	14	240	1
TAP	14	240	4
TAP	14	288	1
TAP	14	288	4
HLD	15	0	4	96
TAP	15	96	3
TAP	15	192	5
HLD	15	240	5	192
HLD	15	336	4	96
TAP	16	144	4
TAP	16	144	5
HLD	16	192	4	96
HLD	16	192	5	96
TTP	17	0	5	E	0	M1
TTP	17	96	4	E	0	M1
THO	17	192	0	144	C	0	M1
TTP	17	192	3	E	0	M1
XTP	17	336	0
XTP	18	48	0
XTP	18	144	1
XTP	18	144	7
TAP	18	288	3
TAP	18	288	4
STR	19	0	2
SI_	19	0	2	96	96	4
XTP	19	0	6
TAP	19	192	7
TAP	19	240	7
TAP	19	336	4
TAP	19	336	6
TAP	20	48	5
TAP	20	144	2
TAP	20	144	4
TAP	20	240	1
TAP	20	240	5
TAP	20	288	1
TAP	20	288	5
TAP	21	0	0
TAP	21	96	0
TAP	21	192	1
TAP	21	192	4
TAP	21	288	2
TAP	21	336	2
TAP	22	48	1
TAP	22	48	5
TAP	22	96	1
TAP	22	96	5
TAP	22	192	2
TAP	22	192	6
TAP	22	288	3
TAP	22	288	4
XTP	23	0	1
STR	23	0	5
SI_	23	0	5	96	96	3
TAP	23	192	0
TAP	23	240	0
TAP	23	336	1
TAP	24	48	2
TAP	24	48	4
TAP	24	144	3
TAP	24	144	5
HLD	24	240	6	96
TAP	24	336	7
TAP	25	48	5
TAP	25	96	5
TAP	25	192	4
TAP	25	192	6
TAP	25	288	3
TAP	25	288	5
TAP	25	336	3
TAP	25	336	5
TAP	26	48	2
TAP	26	48	4
TAP	26	96	2
TAP	26	96	4
TAP	26	192	1
TAP	26	192	5
TAP	26	288	3
TAP	26	288	4
STR	27	0	2
SI_	27	0	2	96	96	4
XTP	27	0	5
TAP	27	192	7
TAP	27	240	7
TAP	27	336	6
TAP	28	48	3
TAP	28	48	5
TAP	28	144	2
TAP	28	144	4
HLD	28	240	1	96
HLD	28	240	3	96
TAP	29	48	0
TAP	29	96	0
TAP	29	192	1
TAP	29	192	5
TAP	29	288	2
TAP	29	288	4
TAP	29	336	2
TAP	29	336	4
TAP	30	48	3
TAP	30	48	5
TAP	30	96	3
TAP	30	96	5
TAP	30	192	2
TAP	30	192	6
TAP	30	288	1
TAP	30	288	3
STR	31	0	0
SI_	31	0	0	96	96	6
TAP	31	0	4
TAP	31	192	5
TAP	31	240	5
TAP	31	336	4
TAP	32	48	3
TAP	32	48	5
TAP	32	144	2
TAP	32	144	4
TAP	32	240	1
HLD	32	288	1	96
HLD	33	0	3	96
HLD	33	96	4	96
TAP	33	192	5
TAP	33	288	4
TAP	33	288	5
TAP	34	0	3
TAP	34	0	4
TAP	34	96	2
TAP	34	96	3
XTP	34	192	0
XTP	34	192	6
BRK	34	240	0
BRK	34	240	6
BRK	35	0	1
BRK	35	0	7
HLD	35	96	2	96
TAP	35	192	3
STR	35	240	3
SUR	35	240	3	96	144	0
TAP	36	48	1
TAP	36	96	1
TAP	36	192	0
TAP	36	192	1
TAP	36	288	2
TAP	37	0	2
TAP	37	0	7
HLD	37	96	6	96
TAP	37	192	7
STR	37	240	7
SUR	37	240	7	96	144	4
TAP	38	48	5
TAP	38	96	5
TAP	38	192	4
TAP	38	192	5
TAP	38	288	2
TAP	38	288	3
TAP	39	0	1
TAP	39	0	4
HLD	39	96	0	96
TAP	39	192	7
STR	39	240	7
SUL	39	240	7	96	144	2
TAP	40	48	1
TAP	40	96	1
TAP	40	192	0
TAP	40	192	1
TAP	40	288	2
TAP	40	288	7
HLD	41	0	6	96
TAP	41	96	4
HLD	41	192	1	96
TAP	41	288	3
TAP	42	0	2
TAP	42	96	1
TAP	42	96	3
STR	42	192	2
SI_	42	192	2	96	48	5
HLD	43	0	6	96
BRK	43	96	7
TAP	43	192	7
TAP	43	288	0
TAP	43	288	6
TAP	43	336	0
TAP	43	336	6
HLD	44	48	5	96
TAP	44	144	4
TAP	44	192	4
TAP	44	288	3
TAP	44	288	6
HLD	45	0	1	96
TAP	45	96	0
TAP	45	192	0
TAP	45	288	1
TAP	45	288	7
TAP	45	336	1
TAP	45	336	7
STR	46	48	2
SCR	46	48	2	96	96	5
XTP	46	240	6
TAP	46	288	6
XST	47	0	6
SI_	47	0	6	96	96	2
XST	47	0	7
SI_	47	0	7	96	96	3
TAP	47	288	1
XST	48	0	0
SI_	48	0	0	96	96	4
XST	48	0	1
SI_	48	0	1	96	96	5
XTP	48	288	7
TAP	49	0	6
TAP	49	48	6
TAP	49	96	4
TAP	49	192	2
TAP	49	240	2
TAP	49	288	3
TAP	50	0	0
TAP	50	0	7
TAP	50	48	0
TAP	50	48	7
TAP	50	144	4
TAP	50	144	5
TAP	50	240	1
TAP	50	240	3
TAP	50	288	1
TAP	50	288	3
TTP	51	0	0	B	0	M1
TTP	51	0	0	C	1	M1
TTP	51	0	5	B	0	M1
TAP	53	0	3
HLD	53	0	5	576
TTP	53	192	4	B	0	M1
TTP	54	192	3	B	0	M1
HLD	55	0	2	576
TTP	55	192	4	B	0	M1
TTP	56	192	2	B	0	M1
HLD	57	0	7	576
TTP	57	192	4	B	0	M1
TTP	57	192	5	B	0	M1
TTP	58	192	0	C	0	M1
HLD	59	0	0	192
HLD	59	192	2	192
HLD	60	0	3	192
TTP	60	192	2	B	0	M1
TTP	60	192	3	B	0	M1
HLD	61	0	6	192
HLD	61	192	5	192
HLD	62	0	4	192
TTP	62	192	3	B	0	M1
TTP	62	192	4	B	0	M1
HLD	63	0	1	192
HLD	63	192	3	192
HLD	64	0	4	192
TTP	64	192	4	B	0	M1
TTP	64	192	5	B	0	M1
STR	65	0	6
SCL	65	0	6	96	288	1
HLD	66	0	0	288
TAP	66	288	7
BRK	67	0	0
BRK	67	0	7
TAP	67	96	0
TAP	67	96	1
TAP	67	144	2
TAP	67	192	3
TAP	67	192	4
TAP	67	288	5
TAP	68	0	1
TAP	68	0	4
TAP	68	96	2
TAP	68	96	3
TAP	68	144	1
TAP	68	192	0
TAP	68	192	6
STR	68	288	5
SI_	68	288	5	96	48	0
TAP	69	0	3
STR	69	96	2
SI_	69	96	2	96	48	5
TAP	69	192	5
HLD	69	288	6	96
TAP	70	0	5
TAP	70	72	4
TAP	70	72	6
TAP	70	144	3
TAP	70	144	5
TAP	70	192	3
TAP	70	192	5
XTP	70	288	0
TAP	71	0	1
TAP	71	0	3
TAP	71	48	2
TAP	71	96	2
STR	71	144	1
SI_	71	144	1	96	48	5
TAP	71	144	3
TAP	71	240	7
TAP	71	288	7
TAP	72	0	4
TAP	72	0	6
TAP	72	48	5
TAP	72	96	5
TAP	72	144	4
STR	72	144	6
SI_	72	144	6	96	48	2
TAP	72	240	0
STR	72	288	0
SCR	72	288	0	96	192	5
BRK	73	0	7
TAP	73	288	6
TAP	74	0	3
TAP	74	0	6
TAP	74	96	4
TAP	74	96	5
TAP	74	192	2
TAP	74	192	3
TAP	74	288	1
TAP	74	288	4
BRK	75	0	0
BRK	75	0	7
TAP	75	96	6
TAP	75	96	7
TAP	75	144	5
TAP	75	192	2
TAP	75	192	4
TAP	75	288	1
TAP	76	0	3
TAP	76	0	6
TAP	76	96	4
TAP	76	96	5
TAP	76	144	6
TAP	76	192	1
TAP	76	192	7
STR	76	288	2
SI_	76	288	2	96	48	7
TAP	77	0	4
STR	77	96	5
SI_	77	96	5	96	48	2
TAP	77	192	2
STR	77	288	0
SI_	77	288	0	96	48	4
TAP	78	0	6
STR	78	96	3
SI_	78	96	3	96	48	0
STR	78	96	5
SI_	78	96	5	96	48	0
XTP	78	288	1
XTP	78	288	7
TAP	79	0	6
TAP	79	48	4
TAP	79	96	5
TAP	79	144	2
TAP	79	192	3
TAP	79	240	1
TAP	79	288	1
TAP	79	336	7
TAP	80	0	2
TAP	80	48	3
TAP	80	96	1
TAP	80	144	6
TAP	80	192	7
TAP	80	240	5
STR	80	288	0
SCL	80	288	0	96	192	4
SCR	80	288	0	96	192	4
TAP	81	288	2
TAP	81	288	6
XHO	82	0	1	144
XHO	82	0	5	144
XTP	82	192	1
XTP	82	192	5
XTP	82	288	2
XTP	82	288	4
TAP	83	0	3
TAP	83	0	5
BRK	83	96	0
TAP	83	192	1
TAP	83	192	3
STR	83	240	1
SI_	83	240	1	96	48	5
TAP	83	240	3
STR	83	336	4
SI_	83	336	4	96	48	7
TAP	84	48	3
TAP	84	144	0
TAP	84	144	1
STR	84	192	0
SI_	84	192	0	96	48	4
STR	84	192	1
SI_	84	192	1	96	48	5
TAP	85	0	3
TAP	85	0	6
TAP	85	96	2
TAP	85	96	3
TAP	85	144	1
TAP	85	144	4
TAP	85	240	4
TAP	85	240	5
TAP	85	288	3
TAP	85	288	6
HLD	86	0	2	72
HLD	86	72	1	72
TAP	86	144	0
TAP	86	192	0
STR	86	288	2
SCL	86	288	2	96	48	7
TAP	86	288	7
TAP	87	0	6
TAP	87	96	4
TAP	87	96	5
TAP	87	192	2
TAP	87	192	3
TAP	87	240	1
TAP	87	240	4
TAP	87	288	0
STR	87	288	5
SCR	87	288	5	96	48	0
TAP	88	0	1
TAP	88	96	2
TAP	88	96	3
TAP	88	192	4
TAP	88	192	5
TAP	88	240	3
TAP	88	240	6
TAP	88	288	2
STR	88	288	7
SCL	88	288	7	96	288	1
TTP	89	0	0	C	1	M1
TAP	90	0	0
TAP	90	0	1
TAP	90	96	6
TAP	90	96	7
TAP	90	192	3
TAP	90	192	4
TAP	90	288	1
TAP	90	288	6
HLD	91	0	5	72
TAP	91	72	4
TAP	91	144	3
TAP	91	144	6
TAP	91	192	3
STR	91	192	6
SI_	91	192	6	96	48	2
TAP	91	288	0
HLD	92	0	1	72
TAP	92	72	0
TAP	92	144	2
TAP	92	144	7
STR	92	192	2
SI_	92	192	2	96	48	7
TAP	92	192	7
TAP	92	288	4
TAP	93	0	0
TAP	93	0	5
TAP	93	96	0
TAP	93	96	1
TAP	93	144	2
TAP	93	144	7
TAP	93	240	6
TAP	93	240	7
TAP	93	288	0
HLD	93	288	5	96
HLD	94	0	7	96
HLD	94	96	0	96
TAP	94	192	3
TAP	94	288	2
TAP	94	288	5
TAP	95	0	1
STR	95	0	6
SI_	95	0	6	96	48	3
TAP	95	96	2
STR	95	144	2
SI_	95	144	2	96	48	6
TAP	95	240	7
TAP	95	288	7
TAP	96	0	0
STR	96	0	5
SI_	96	0	5	96	48	1
TAP	96	96	2
STR	96	144	2
SI_	96	144	2	96	48	6
TAP	96	240	7
STR	96	288	7
SCL	96	288	7	96	288	1
TTP	97	0	0	C	1	M1
XTP	98	0	0
XTP	98	0	7
STR	98	96	1
SI_	98	96	1	96	48	3
STR	98	96	6
SI_	98	96	6	96	48	4
BRK	98	288	1
BRK	98	288	6
TAP	99	0	2
TAP	99	48	3
TAP	99	96	1
TAP	99	144	5
TAP	99	192	4
TAP	99	240	6
TAP	99	288	0
TAP	99	336	0
TAP	100	0	3
TAP	100	48	3
TAP	100	96	1
TAP	100	144	1
TAP	100	192	5
TAP	100	240	5
TAP	100	288	4
TAP	100	336	6
TAP	101	0	1
TAP	101	48	0
TAP	101	96	2
TAP	101	144	6
TAP	101	192	7
TAP	101	240	5
TAP	101	288	3
TAP	101	336	4
HLD	102	0	2	72
HLD	102	72	1	72
TAP	102	144	0
TAP	102	192	0
TAP	102	240	0
XTP	102	288	0
XTP	102	288	7
TAP	103	0	6
TAP	103	48	6
TAP	103	96	4
TAP	103	144	5
TAP	103	192	2
TAP	103	240	2
TAP	103	288	3
TAP	103	336	1
TAP	104	0	7
TAP	104	48	7
TAP	104	96	2
TAP	104	144	2
TAP	104	192	3
TAP	104	240	3
TAP	104	288	1
TAP	104	336	1
TAP	105	0	5
TAP	105	48	4
TAP	105	96	6
TAP	105	144	2
TAP	105	192	3
TAP	105	240	1
TAP	105	288	7
TAP	105	336	0
TAP	106	0	6
TAP	106	48	6
TAP	106	96	3
TAP	106	144	4
TAP	106	192	2
TAP	106	240	2
BRK	106	288	1
BRK	106	288	7
XTP	107	0	2
XTP	107	0	6
TTP	107	144	2	E	0	M1
TTP	107	192	3	E	0	M1
TTP	107	288	4	B	0	M1
TTP	107	288	5	B	0	M1
TTP	108	0	0	C	0	M1
TTP	108	144	6	E	0	M1
TTP	108	192	5	E	0	M1
TTP	108	288	2	B	0	M1
TTP	108	288	3	B	0	M1
TTP	109	0	0	B	0	M1
TTP	109	0	1	E	0	M1
TTP	109	96	4	B	0	M1
TTP	109	96	5	E	0	M1
TTP	109	192	3	B	0	M1
TTP	109	192	3	E	0	M1
TTP	109	288	7	B	0	M1
TTP	109	288	7	E	0	M1
TTP	110	0	2	B	0	M1
TTP	110	0	2	E	0	M1
TTP	110	96	4	B	0	M1
TTP	110	96	4	E	0	M1
TTP	110	192	0	C	0	M1
XTP	111	0	2
XTP	111	0	6
TTP	111	144	6	E	0	M1
TTP	111	192	5	E	0	M1
TTP	111	288	2	B	0	M1
TTP	111	288	2	E	0	M1
TTP	111	288	3	B	0	M1
TTP	112	0	0	C	0	M1
TTP	112	144	2	E	0	M1
TTP	112	192	3	E	0	M1
TTP	112	288	4	B	0	M1
TTP	112	288	5	E	0	M1
TTP	113	0	6	B	0	M1
TTP	113	0	6	E	0	M1
TTP	113	0	7	B	0	M1
TTP	113	96	0	B	0	M1
TTP	113	96	0	E	0	M1
TTP	113	96	1	B	0	M1
TTP	113	192	2	B	0	M1
TTP	113	192	2	E	0	M1
TTP	113	192	3	B	0	M1
TTP	113	288	4	B	0	M1
TTP	113	288	5	B	0	M1
TTP	113	288	6	E	0	M1
THO	114	0	0	360	C	0	M1
TTP	114	360	1	B	0	M1
TTP	114	360	2	B	0	M1
TTP	114	360	5	B	0	M1
TTP	114	360	6	B	0	M1

T_REC_TAP	418
T_REC_BRK	15
T_REC_XTP	26
T_REC_HLD	52
T_REC_XHO	2
T_REC_STR	37
T_REC_BST	0
T_REC_XST	4
T_REC_TTP	69
T_REC_THO	2
T_REC_SLD	42
T_REC_ALL	667
T_NUM_TAP	554
T_NUM_BRK	15
T_NUM_HLD	56
T_NUM_SLD	42
T_NUM_ALL	667
T_JUDGE_TAP	569
T_JUDGE_HLD	200
T_JUDGE_SLD	42
T_JUDGE_ALL	811
TTM_EACHPAIRS	149
TTM_SCR_TAP	277000
TTM_SCR_BRK	39000
TTM_SCR_HLD	56000
TTM_SCR_SLD	63000
TTM_SCR_ALL	435000
TTM_SCR_S	420500
TTM_SCR_SS	433500
TTM_RAT_ACV	10034

