VERSION	0.00.00	1.03.00
FES_MODE	0
BPM_DEF	200.000	200.000	200.000	200.000
MET_DEF	4	4
RESOLUTION	384
CLK_DEF	384
COMPATIBLE_CODE	MA2

BPM	0	0	200.000
MET	0	0	4	4

HLD	3	0	5	384
HLD	4	0	4	384
HLD	5	0	3	384
TAP	6	0	2
TAP	6	192	2
TAP	6	192	3
HLD	7	0	1	384
HLD	8	0	0	384
HLD	9	0	7	384
TAP	10	0	6
TAP	10	192	0
TAP	10	192	7
STR	11	0	1
SI_	11	0	1	96	192	5
STR	12	0	6
SI_	12	0	6	96	192	2
STR	13	0	1
SI_	13	0	1	96	192	4
TAP	14	0	5
TAP	14	96	5
TAP	14	192	4
TAP	14	192	5
STR	15	0	6
SI_	15	0	6	96	192	2
STR	16	0	1
SI_	16	0	1	96	192	5
TAP	17	0	6
STR	17	192	7
SI_	17	192	7	96	192	3
TAP	19	0	1
TAP	19	96	1
TAP	19	192	0
TAP	20	0	6
TAP	20	96	6
TAP	20	192	7
TAP	21	0	1
TAP	21	96	1
TAP	21	192	0
TAP	22	0	7
TAP	22	96	7
TAP	22	192	0
TAP	22	192	6
TAP	23	0	5
TAP	23	96	5
TAP	23	192	4
TAP	24	0	2
TAP	24	96	2
TAP	24	192	3
TAP	25	0	5
TAP	25	96	5
TAP	25	192	4
TAP	26	0	2
TAP	26	96	2
TAP	26	192	3
TAP	26	192	4
TAP	27	0	5
TAP	27	96	5
TAP	27	192	4
TAP	27	288	4
TAP	28	0	3
TAP	28	96	3
TAP	28	192	2
TAP	28	192	4
TAP	29	0	1
TAP	29	96	1
TAP	29	192	0
TAP	29	288	0
TAP	30	0	7
TAP	30	96	7
TAP	30	192	0
TAP	30	192	7
TAP	31	0	6
TAP	31	96	7
TAP	31	192	0
TAP	31	288	1
TAP	32	0	2
TAP	32	96	3
TAP	32	192	4
TAP	32	288	5
TAP	33	0	3
TAP	33	0	4
TAP	33	96	3
TAP	33	96	4
TAP	33	192	2
TAP	33	192	5
TAP	33	288	2
TAP	33	288	5
TAP	34	0	1
TAP	34	0	6
TAP	34	96	1
TAP	34	96	6
BRK	34	192	0
BRK	34	192	7
STR	35	0	6
SI_	35	0	6	96	192	3
HLD	36	0	2	192
TAP	36	192	3
STR	37	0	1
SI_	37	0	1	96	192	4
HLD	38	0	5	192
TAP	38	192	4
STR	39	0	5
SI_	39	0	5	96	192	0
HLD	40	0	1	192
TAP	40	192	0
STR	41	0	2
SI_	41	0	2	96	192	7
HLD	42	0	6	192
TAP	42	192	7
STR	43	0	6
SUL	43	0	6	96	192	2
TAP	44	0	1
TAP	44	96	1
TAP	44	192	0
TAP	44	192	1
STR	45	0	1
SUR	45	0	1	96	192	5
TAP	46	0	6
TAP	46	96	6
TAP	46	192	6
TAP	46	192	7
STR	47	0	6
SCL	47	0	6	96	192	3
TAP	48	0	2
TAP	48	96	2
TAP	48	192	2
TAP	48	192	3
TAP	49	0	5
TAP	49	96	5
TAP	49	192	4
TAP	49	288	4
TAP	50	0	3
TAP	50	96	3
TAP	50	96	4
TAP	50	192	2
TAP	50	192	5
TTP	51	0	4	E	0	L1
TTP	52	0	3	E	0	L1
TTP	53	0	2	E	0	L1
TTP	54	0	1	E	0	L1
TTP	55	0	0	E	0	L1
TTP	56	0	7	E	0	L1
TTP	57	0	6	E	0	L1
TTP	58	0	5	E	0	L1
HLD	59	0	5	384
HLD	60	0	4	384
HLD	61	0	3	384
TAP	62	0	2
HLD	63	0	2	192
HLD	63	0	3	192
HLD	64	0	4	192
HLD	64	0	5	192
TAP	65	0	5
TAP	65	96	5
TAP	65	192	6
TAP	65	288	6
TAP	66	0	0
TAP	66	0	7
BRK	67	0	6
TAP	67	96	6
TAP	67	192	6
TAP	67	192	7
TAP	67	288	6
TAP	67	288	7
TAP	68	0	1
TAP	68	96	1
TAP	68	192	0
TAP	68	192	1
TAP	68	288	0
TAP	68	288	1
TAP	69	0	2
TAP	69	96	2
TAP	69	192	3
TAP	69	288	3
TAP	70	0	4
TAP	70	96	4
TAP	70	192	3
TAP	70	192	5
HLD	71	0	2	96
TAP	71	96	3
TAP	71	192	3
TAP	71	192	4
TAP	71	288	3
TAP	71	288	4
HLD	72	0	5	96
TAP	72	96	4
TAP	72	192	3
TAP	72	192	4
TAP	72	288	3
TAP	72	288	4
TAP	73	0	2
TAP	73	96	2
TAP	73	192	3
TAP	73	288	3
TAP	74	0	4
TAP	74	96	3
TAP	74	96	4
TAP	74	192	2
TAP	74	192	5
BRK	75	0	5
TAP	75	96	5
TAP	75	192	4
TAP	75	192	5
TAP	75	288	4
TAP	75	288	5
TAP	76	0	2
TAP	76	96	2
TAP	76	192	2
TAP	76	192	3
TAP	76	288	2
TAP	76	288	3
TAP	77	0	1
TAP	77	96	1
TAP	77	192	0
TAP	77	288	0
TAP	78	0	7
TAP	78	96	7
TAP	78	192	0
TAP	78	192	6
HLD	79	0	1	96
TAP	79	96	0
TAP	79	192	0
TAP	79	192	7
TAP	79	288	0
TAP	79	288	7
HLD	80	0	6	96
TAP	80	96	7
TAP	80	192	6
TAP	80	192	7
TAP	81	0	1
TAP	81	96	1
TAP	81	192	0
TAP	81	288	0
TAP	82	0	7
TAP	82	96	0
TAP	82	96	7
TAP	82	192	0
TAP	82	192	7
BRK	83	0	6
TAP	83	96	6
TAP	83	96	7
TAP	83	192	6
TAP	83	288	6
TAP	83	288	7
TAP	84	0	1
TAP	84	96	0
TAP	84	96	1
TAP	84	192	1
TAP	84	288	0
TAP	84	288	1
TAP	85	0	2
TAP	85	96	2
TAP	85	192	3
TAP	85	288	3
TAP	86	0	4
TAP	86	96	4
TAP	86	192	3
TAP	86	192	5
HLD	87	0	2	96
TAP	87	96	3
TAP	87	192	1
TAP	87	192	4
HLD	88	0	5	96
TAP	88	96	4
TAP	88	192	3
TAP	88	192	6
TAP	89	0	2
TAP	89	96	2
TAP	89	192	3
TAP	89	288	3
TAP	90	0	3
TAP	90	0	4
TAP	90	96	3
TAP	90	96	4
TAP	90	192	2
TAP	90	192	5
BRK	91	0	5
TAP	91	96	4
TAP	91	96	5
TAP	91	192	5
TAP	91	288	4
TAP	91	288	5
TAP	92	0	2
TAP	92	96	2
TAP	92	96	3
TAP	92	192	2
TAP	92	288	2
TAP	92	288	3
TAP	93	0	1
TAP	93	96	1
TAP	93	192	0
TAP	93	288	0
TAP	94	0	7
TAP	94	96	7
TAP	94	192	0
TAP	94	192	6
HLD	95	0	1	96
TAP	95	96	0
TAP	95	192	2
TAP	95	192	7
HLD	96	0	6	96
TAP	96	96	7
TAP	96	192	0
TAP	96	192	5
TAP	97	0	1
TAP	97	96	1
TAP	97	192	0
TAP	97	288	0
TAP	98	0	0
TAP	98	0	7
TAP	98	96	0
TAP	98	96	7
TAP	98	192	1
TAP	98	192	6
TAP	99	0	5
TAP	99	96	4
TAP	99	96	5
TAP	99	192	2
TAP	99	288	2
TAP	99	288	3
TAP	100	0	5
TAP	100	96	4
TAP	100	192	3
TAP	100	288	2
TAP	101	0	1
TAP	101	96	0
TAP	101	96	1
TAP	101	192	6
TAP	101	288	6
TAP	101	288	7
TAP	102	0	1
TAP	102	96	0
TAP	102	96	7
TAP	102	192	1
TAP	102	192	6
TAP	103	0	2
TAP	103	96	2
TAP	103	96	3
TAP	103	192	5
TAP	103	288	4
TAP	103	288	5
TAP	104	0	2
TAP	104	96	3
TAP	104	192	4
TAP	104	288	5
TAP	105	0	6
TAP	105	96	6
TAP	105	96	7
TAP	105	192	1
TAP	105	288	0
TAP	105	288	1
TAP	106	0	6
TAP	106	96	0
TAP	106	96	7
TAP	106	192	1
TAP	106	192	6
STR	107	0	5
SCR	107	0	5	96	192	0
STR	108	0	1
SCR	108	0	1	96	192	4
STR	109	0	5
SCR	109	0	5	96	192	0
TAP	110	0	1
TAP	110	96	1
TAP	110	192	2
TAP	110	192	3
STR	111	0	4
SCR	111	0	4	96	192	7
STR	112	0	0
SCR	112	0	0	96	192	3
TAP	113	0	4
TAP	113	96	5
TAP	113	192	6
TAP	113	288	7
TAP	114	0	0
TAP	114	96	1
TAP	114	192	2
XST	114	288	3
SXR	114	288	3	96	480	0
XST	114	288	4
SXL	114	288	4	96	480	7

T_REC_TAP	302
T_REC_BRK	6
T_REC_XTP	0
T_REC_HLD	25
T_REC_XHO	0
T_REC_STR	18
T_REC_BST	0
T_REC_XST	2
T_REC_TTP	8
T_REC_THO	0
T_REC_SLD	20
T_REC_ALL	381
T_NUM_TAP	330
T_NUM_BRK	6
T_NUM_HLD	25
T_NUM_SLD	20
T_NUM_ALL	381
T_JUDGE_TAP	336
T_JUDGE_HLD	120
T_JUDGE_SLD	20
T_JUDGE_ALL	476
TTM_EACHPAIRS	77
TTM_SCR_TAP	165000
TTM_SCR_BRK	15600
TTM_SCR_HLD	25000
TTM_SCR_SLD	30000
TTM_SCR_ALL	235600
TTM_SCR_S	227950
TTM_SCR_SS	235000
TTM_RAT_ACV	10025

