VERSION	0.00.00	1.03.00
FES_MODE	0
BPM_DEF	200.000	200.000	200.000	200.000
MET_DEF	4	4
RESOLUTION	384
CLK_DEF	384
COMPATIBLE_CODE	MA2

BPM	0	0	200.000
MET	0	0	4	4

XTP	3	0	0
TAP	5	0	0
TAP	7	0	7
TAP	9	0	7
TAP	11	0	6
TAP	12	0	5
TAP	13	0	4
TAP	14	0	3
TAP	15	0	2
TAP	16	0	1
HLD	17	0	0	336
HLD	17	0	7	336
TAP	19	0	1
TAP	19	192	1
TAP	20	0	1
TAP	21	0	2
TAP	21	192	2
TAP	22	0	2
TAP	23	0	3
TAP	23	192	3
TAP	24	0	3
HLD	25	0	3	384
HLD	25	0	4	384
TAP	27	0	4
TAP	27	192	4
TAP	28	0	4
TAP	29	0	5
TAP	29	192	5
TAP	30	0	5
TAP	31	0	6
TAP	31	192	6
TAP	32	0	6
TAP	33	0	7
TAP	33	192	7
TAP	34	0	0
TAP	34	0	7
STR	35	0	7
SI_	35	0	7	96	384	3
TAP	37	0	0
TAP	37	192	0
TAP	38	0	0
STR	39	0	0
SI_	39	0	0	96	384	4
TAP	41	0	7
TAP	41	192	7
TAP	42	0	7
STR	43	0	6
SI_	43	0	6	96	384	2
TAP	45	0	0
TAP	45	192	0
TAP	46	0	0
STR	47	0	1
SI_	47	0	1	96	384	5
TAP	49	0	6
TAP	49	192	6
TAP	50	0	6
BRK	51	0	0
BRK	51	0	7
TTP	53	0	0	B	0	L1
TTP	54	0	7	B	0	L1
TTP	55	0	1	B	0	L1
TTP	56	0	6	B	0	L1
TTP	57	0	2	B	0	L1
TTP	58	0	5	B	0	L1
TTP	59	0	3	B	0	L1
TTP	60	0	4	B	0	L1
TTP	61	0	4	E	0	L1
TTP	62	0	3	B	0	L1
TTP	62	0	4	B	0	L1
TTP	63	0	2	B	0	L1
TTP	63	0	5	B	0	L1
TTP	64	0	1	B	0	L1
TTP	64	0	6	B	0	L1
THO	65	0	0	384	C	0	L1
XTP	67	0	0
TAP	67	96	0
TAP	67	192	0
TAP	68	0	1
TAP	68	192	1
TAP	69	0	2
TAP	69	192	2
TAP	70	0	2
TAP	70	0	3
TAP	71	0	4
TAP	71	96	4
TAP	71	192	4
TAP	72	0	5
TAP	72	192	5
TAP	73	0	6
TAP	73	192	6
TAP	74	0	6
TAP	74	0	7
TAP	75	0	7
TAP	75	96	7
TAP	75	192	7
TAP	76	0	6
TAP	76	192	6
TAP	77	0	5
TAP	77	192	5
TAP	78	0	4
TAP	78	96	4
TAP	78	192	3
TAP	78	192	4
TAP	79	0	2
TAP	79	96	2
TAP	79	192	2
TAP	80	0	1
TAP	80	96	1
TAP	80	192	1
HLD	81	0	0	384
HLD	81	0	7	384
TAP	83	0	0
TAP	83	96	0
TAP	83	192	0
TAP	84	0	1
TAP	84	96	1
TAP	84	192	1
TAP	85	0	2
TAP	85	96	2
TAP	85	192	2
TAP	86	0	3
TAP	86	0	4
TAP	86	96	3
TAP	86	96	4
TAP	86	192	3
TAP	86	192	4
TAP	87	0	4
TAP	87	96	4
TAP	87	192	4
TAP	88	0	5
TAP	88	96	5
TAP	88	192	5
TAP	89	0	6
TAP	89	96	6
TAP	89	192	6
TAP	90	0	6
TAP	90	0	7
TAP	91	0	7
TAP	91	96	7
TAP	91	192	7
TAP	92	0	6
TAP	92	96	6
TAP	92	192	6
TAP	93	0	5
TAP	93	96	5
TAP	93	192	5
TAP	94	0	3
TAP	94	0	4
TAP	94	96	3
TAP	94	96	4
TAP	94	192	3
TAP	94	192	4
TAP	95	0	2
TAP	95	96	2
TAP	95	192	2
TAP	95	288	2
TAP	96	0	1
TAP	96	96	1
TAP	96	192	1
TAP	96	288	1
HLD	97	0	0	384
HLD	97	0	1	384
TAP	99	0	1
TAP	99	96	1
TAP	99	192	1
TAP	100	0	0
TAP	100	0	1
TAP	100	192	0
TAP	100	192	1
TAP	101	0	2
TAP	101	96	2
TAP	101	192	2
TAP	102	0	2
TAP	102	0	3
TAP	102	192	2
TAP	102	192	3
TAP	103	0	4
TAP	103	96	4
TAP	103	192	4
TAP	104	0	4
TAP	104	0	5
TAP	104	192	4
TAP	104	192	5
TAP	105	0	6
TAP	105	96	6
TAP	105	192	6
TAP	106	0	6
TAP	106	0	7
TAP	106	192	6
TAP	106	192	7
BRK	107	0	0
TTP	109	0	0	B	0	L1
TTP	109	0	7	B	0	L1
TTP	110	0	1	B	0	L1
TTP	110	0	6	B	0	L1
TTP	111	0	2	B	0	L1
TTP	111	0	5	B	0	L1
TTP	112	0	3	B	0	L1
TTP	112	0	4	B	0	L1
TTP	113	0	2	B	0	L1
TTP	113	0	5	B	0	L1
THO	114	0	0	384	C	0	L1
TTP	114	0	1	B	0	L1
TTP	114	0	6	B	0	L1

T_REC_TAP	154
T_REC_BRK	3
T_REC_XTP	2
T_REC_HLD	8
T_REC_XHO	0
T_REC_STR	4
T_REC_BST	0
T_REC_XST	0
T_REC_TTP	27
T_REC_THO	2
T_REC_SLD	4
T_REC_ALL	204
T_NUM_TAP	187
T_NUM_BRK	3
T_NUM_HLD	10
T_NUM_SLD	4
T_NUM_ALL	204
T_JUDGE_TAP	190
T_JUDGE_HLD	78
T_JUDGE_SLD	4
T_JUDGE_ALL	272
TTM_EACHPAIRS	24
TTM_SCR_TAP	93500
TTM_SCR_BRK	7800
TTM_SCR_HLD	10000
TTM_SCR_SLD	6000
TTM_SCR_ALL	117300
TTM_SCR_S	113500
TTM_SCR_SS	117000
TTM_RAT_ACV	10025

