VERSION	0.00.00	1.03.00
FES_MODE	0
BPM_DEF	172.000	172.000	172.000	172.000
MET_DEF	4	4
RESOLUTION	384
CLK_DEF	384
COMPATIBLE_CODE	MA2

BPM	0	0	172.000
MET	0	0	4	4

XHO	1	0	4	72
XTP	1	0	5
HLD	1	72	3	72
TAP	1	144	2
TAP	1	192	1
TAP	1	240	1
TAP	1	288	2
TAP	1	336	2
HLD	2	0	3	72
HLD	2	72	4	72
TAP	2	144	5
TAP	2	192	6
TAP	2	240	6
TAP	2	288	5
TAP	2	336	5
HLD	3	0	4	72
HLD	3	72	3	72
TAP	3	144	2
TAP	3	192	1
TAP	3	240	1
TAP	3	288	2
TAP	3	336	2
HLD	4	0	3	72
HLD	4	72	4	72
TAP	4	144	5
TAP	4	192	6
TAP	4	240	6
TAP	4	288	5
TAP	4	336	5
XHO	5	0	4	72
XTP	5	0	6
HLD	5	72	3	72
TAP	5	144	2
TAP	5	192	1
TAP	5	240	2
TAP	5	288	3
TAP	5	336	2
HLD	6	0	3	72
HLD	6	72	4	72
TAP	6	144	5
TAP	6	192	6
TAP	6	240	5
TAP	6	288	4
TAP	6	336	5
HLD	7	0	4	72
HLD	7	72	3	72
TAP	7	144	2
TAP	7	192	1
TAP	7	240	2
TAP	7	288	3
TAP	7	336	2
HLD	8	0	3	72
HLD	8	72	4	72
TAP	8	144	5
STR	8	192	6
SCL	8	192	6	96	48	4
TAP	9	0	1
XTP	9	0	4
TAP	9	48	2
TAP	9	96	3
TAP	9	96	6
HLD	9	144	5	192
TTP	9	240	0	E	0	M1
TTP	9	264	1	E	0	M1
TTP	9	288	2	E	0	M1
TTP	9	312	3	E	0	M1
TTP	9	336	4	E	0	M1
TAP	10	0	3
TAP	10	0	6
TAP	10	48	5
TAP	10	96	1
TAP	10	96	4
TAP	10	144	2
TAP	10	240	5
TAP	10	264	4
TAP	10	288	5
TAP	10	336	2
TAP	10	360	3
TAP	11	0	2
TAP	11	48	5
TAP	11	96	1
TAP	11	96	4
HLD	11	144	2	192
TTP	11	240	0	E	0	M1
TTP	11	264	7	E	0	M1
TTP	11	288	6	E	0	M1
TTP	11	312	5	E	0	M1
TTP	11	336	4	E	0	M1
TAP	12	0	1
TAP	12	0	4
TAP	12	48	2
TAP	12	96	3
TAP	12	96	6
TAP	12	144	5
TAP	12	240	3
TAP	12	264	4
BRK	12	288	2
TAP	13	0	3
TAP	13	0	6
TAP	13	48	5
TAP	13	96	1
TAP	13	96	4
HLD	13	144	2	192
TTP	13	240	0	E	0	M1
TTP	13	264	7	E	0	M1
TTP	13	288	6	E	0	M1
TTP	13	312	5	E	0	M1
TTP	13	336	4	E	0	M1
TAP	14	0	1
TAP	14	0	4
TAP	14	48	2
TAP	14	96	3
TAP	14	96	6
TAP	14	144	5
TAP	14	240	2
TAP	14	264	3
TAP	14	288	2
TAP	14	336	5
TAP	14	360	4
TAP	15	0	5
TAP	15	48	2
TAP	15	96	3
TAP	15	96	6
HLD	15	144	5	192
TTP	15	240	0	E	0	M1
TTP	15	264	1	E	0	M1
TTP	15	288	2	E	0	M1
TTP	15	312	3	E	0	M1
TTP	15	336	4	E	0	M1
TAP	16	0	3
TAP	16	0	6
TAP	16	48	5
TAP	16	96	1
TAP	16	96	4
TAP	16	144	2
TAP	16	240	7
TAP	16	264	0
XTP	16	288	1
XTP	16	288	6
HLD	17	0	2	672
TAP	17	0	4
TAP	17	96	4
TAP	17	192	5
TAP	17	288	5
TAP	18	0	4
TAP	18	96	3
STR	18	192	1
SI_	18	192	1	96	48	4
TAP	19	0	3
HLD	19	0	5	672
TAP	19	96	3
TAP	19	192	2
TAP	19	288	2
TAP	20	0	3
TAP	20	96	4
STR	20	192	6
SI_	20	192	6	96	48	3
HLD	21	0	2	672
TAP	21	0	3
TAP	21	96	3
TAP	21	192	5
TAP	21	288	5
STR	22	0	3
SCL	22	0	3	96	48	1
STR	22	192	3
SCR	22	192	3	96	48	5
TAP	23	0	4
HLD	23	0	5	576
TAP	23	96	4
TAP	23	192	2
TAP	23	288	2
TAP	24	0	4
TAP	24	96	6
STR	24	192	4
SCL	24	192	4	96	48	2
SCR	24	192	4	96	48	6
BRK	25	0	1
BRK	25	0	7
TAP	25	96	2
TAP	25	96	4
TAP	25	144	3
HLD	25	144	5	192
TAP	25	240	7
TAP	25	264	0
TAP	25	288	1
TAP	25	312	2
TAP	25	336	3
TAP	26	0	6
TAP	26	48	5
TAP	26	96	1
TAP	26	96	4
TAP	26	144	2
TAP	26	240	3
TAP	26	264	5
TAP	26	288	3
TAP	26	336	6
TAP	26	360	4
TAP	27	0	6
TAP	27	48	5
TAP	27	96	1
TAP	27	96	4
HLD	27	144	2	192
TAP	27	240	0
TAP	27	264	7
TAP	27	288	6
TAP	27	312	5
TAP	27	336	4
TAP	28	0	1
TAP	28	48	2
TAP	28	96	3
TAP	28	96	6
TAP	28	144	5
TAP	28	240	1
TAP	28	264	0
XTP	28	288	2
XTP	28	288	7
HLD	29	0	1	96
TAP	29	48	3
HLD	29	96	4	96
TAP	29	144	2
HLD	29	192	1	96
TAP	29	240	3
HLD	29	288	4	96
TAP	29	336	2
HLD	30	0	1	96
TAP	30	48	2
TAP	30	96	4
TAP	30	144	3
STR	30	192	1
SV_	30	192	1	96	48	6
STR	30	192	3
SV_	30	192	3	96	48	6
HLD	31	0	6	96
TAP	31	48	4
HLD	31	96	3	96
TAP	31	144	5
HLD	31	192	6	96
TAP	31	240	4
HLD	31	288	3	96
TAP	31	336	5
HLD	32	0	6	96
TAP	32	48	5
TAP	32	96	3
TAP	32	144	4
STR	32	192	4
SI_	32	192	4	96	48	0
STR	32	192	6
SI_	32	192	6	96	48	2
HLD	33	0	1	96
TAP	33	48	3
HLD	33	96	5	96
TAP	33	144	3
HLD	33	192	1	96
TAP	33	240	3
HLD	33	288	5	96
TAP	33	336	3
HLD	34	0	1	96
TAP	34	48	3
TAP	34	96	5
TAP	34	144	3
STR	34	192	1
SCL	34	192	1	96	48	6
SCR	34	192	1	96	48	4
TAP	34	192	5
HLD	35	0	6	96
TAP	35	48	4
HLD	35	96	2	96
TAP	35	144	4
HLD	35	192	6	96
TAP	35	240	4
TAP	35	288	2
TAP	35	336	4
TAP	36	0	3
TAP	36	0	5
TAP	36	48	4
TAP	36	48	6
TAP	36	96	3
TAP	36	96	5
TAP	36	144	2
TAP	36	144	4
BRK	36	192	1
BRK	36	192	5
STR	37	0	0
SI_	37	0	0	96	48	3
HLD	37	0	4	96
TAP	37	96	0
TAP	37	144	5
TAP	37	192	6
TAP	37	240	7
TAP	37	288	0
TAP	37	336	1
TAP	38	0	2
TAP	38	0	7
TTP	38	96	0	B	0	M1
TTP	38	96	1	B	0	M1
TTP	38	96	1	E	0	M1
TAP	38	192	3
TAP	38	192	6
TTP	38	288	4	B	0	M1
TTP	38	288	5	B	0	M1
TTP	38	288	5	E	0	M1
HLD	39	0	3	96
STR	39	0	7
SI_	39	0	7	96	48	4
TAP	39	96	7
TAP	39	144	2
TAP	39	192	1
TAP	39	240	0
TAP	39	288	7
TAP	39	336	6
TAP	40	0	0
TAP	40	0	5
TTP	40	96	6	B	0	M1
TTP	40	96	7	B	0	M1
TTP	40	96	7	E	0	M1
TAP	40	192	1
TAP	40	192	4
TTP	40	288	2	B	0	M1
TTP	40	288	3	B	0	M1
TTP	40	288	3	E	0	M1
STR	41	0	0
SI_	41	0	0	96	48	3
HLD	41	0	4	96
TAP	41	96	0
TAP	41	144	5
TAP	41	192	6
TAP	41	240	7
TAP	41	288	0
TAP	41	336	1
TAP	42	0	2
TAP	42	0	7
TTP	42	96	0	B	0	M1
TTP	42	96	1	B	0	M1
TTP	42	96	1	E	0	M1
TTP	42	192	0	C	0	M1
TTP	42	192	3	E	0	M1
TTP	42	192	7	E	0	M1
TTP	42	288	4	B	0	M1
TTP	42	288	5	B	0	M1
TTP	42	288	5	E	0	M1
TAP	43	0	2
TAP	43	24	3
TAP	43	48	2
TAP	43	72	3
TAP	43	96	2
TAP	43	120	3
TAP	43	144	2
TAP	43	168	3
TAP	43	192	1
TAP	43	216	4
TAP	43	240	1
TAP	43	264	4
TAP	43	288	1
TAP	43	312	4
TAP	43	336	1
TAP	43	360	4
XST	44	0	1
SI_	44	0	1	96	48	4
SI_	44	0	1	96	48	6
XTP	44	96	1
BRK	44	192	3
BRK	44	192	7
XST	45	0	0
SI_	45	0	0	96	48	4
XTP	45	0	6
TAP	45	72	7
TAP	45	96	0
TAP	45	144	6
XST	45	192	2
SI_	45	192	2	96	48	7
XTP	45	192	4
TAP	45	240	3
BRK	45	288	2
TAP	45	288	4
XTP	46	0	6
XTP	46	0	7
TAP	46	72	5
TAP	46	96	4
TAP	46	144	3
TAP	46	144	6
TAP	46	192	3
STR	46	192	6
SCL	46	192	6	96	48	3
TAP	47	0	1
TAP	47	24	0
TAP	47	72	1
TAP	47	96	0
TAP	47	144	2
TAP	47	144	4
TAP	47	192	3
STR	47	192	5
SI_	47	192	5	96	48	0
TAP	47	240	4
TAP	47	288	3
BRK	47	288	5
TAP	48	0	2
STR	48	0	7
SI_	48	0	7	96	48	4
TAP	48	72	1
STR	48	96	7
SI_	48	96	7	96	48	3
TAP	48	144	0
TAP	48	192	6
TAP	48	192	7
TAP	48	288	2
TAP	48	288	4
XTP	49	0	1
XST	49	0	7
SI_	49	0	7	96	48	3
TAP	49	72	0
TAP	49	96	7
TAP	49	144	1
XTP	49	192	3
XST	49	192	5
SI_	49	192	5	96	48	0
TAP	49	240	4
TAP	49	288	3
BRK	49	288	5
XTP	50	0	0
XTP	50	0	1
TAP	50	72	2
TAP	50	96	3
TAP	50	144	1
TAP	50	144	4
STR	50	192	1
SCR	50	192	1	96	48	5
TAP	50	192	4
HLD	51	0	7	72
HLD	51	72	1	72
TAP	51	144	3
STR	51	192	3
SCL	51	192	3	96	48	0
SCR	51	192	3	96	48	6
TAP	52	0	1
TAP	52	0	5
TAP	52	48	6
TAP	52	72	7
TAP	52	96	6
TAP	52	144	1
TAP	52	168	0
TAP	52	192	1
TAP	52	240	6
TAP	52	264	7
TAP	52	288	6
TAP	52	336	2
TAP	52	336	5
XTP	53	0	1
XST	53	0	7
SI_	53	0	7	96	48	3
TAP	53	72	0
TAP	53	96	7
TAP	53	144	1
XTP	53	192	3
XST	53	192	5
SI_	53	192	5	96	48	0
TAP	53	240	4
TAP	53	288	3
BRK	53	288	5
XTP	54	0	0
XTP	54	0	1
TAP	54	72	2
TAP	54	96	3
TAP	54	144	1
TAP	54	144	4
STR	54	192	1
SCR	54	192	1	96	48	4
TAP	54	192	4
TAP	55	0	6
TAP	55	24	7
TAP	55	72	6
TAP	55	96	7
TAP	55	144	3
TAP	55	144	5
STR	55	192	2
SI_	55	192	2	96	48	7
TAP	55	192	4
TAP	55	240	3
BRK	55	288	2
TAP	55	288	4
STR	56	0	0
SI_	56	0	0	96	48	3
TAP	56	0	5
TAP	56	72	6
STR	56	96	0
SI_	56	96	0	96	48	4
TAP	56	144	7
TAP	56	192	0
TAP	56	192	1
TAP	56	288	3
TAP	56	288	5
XST	57	0	0
SI_	57	0	0	96	48	4
XTP	57	0	6
TAP	57	72	7
TAP	57	96	0
TAP	57	144	6
STR	57	192	2
SI_	57	192	2	96	48	7
XTP	57	192	4
TAP	57	240	3
BRK	57	288	2
TAP	57	288	4
XTP	58	0	6
XTP	58	0	7
TAP	58	72	5
TAP	58	96	4
TAP	58	144	3
TAP	58	144	6
TAP	58	192	3
STR	58	192	6
SCL	58	192	6	96	48	2
HLD	59	0	0	72
HLD	59	72	6	72
TAP	59	144	4
STR	59	192	4
SCL	59	192	4	96	48	1
SCR	59	192	4	96	48	7
TAP	60	0	2
TAP	60	0	6
TAP	60	48	1
TAP	60	72	0
TAP	60	96	1
TAP	60	144	6
TAP	60	168	7
TAP	60	192	6
TAP	60	240	1
TAP	60	264	0
TAP	60	288	1
TAP	60	336	3
TAP	60	336	4
THO	61	0	0	288	C	0	M1
HLD	61	0	5	288
HLD	62	0	1	96
HLD	62	0	7	96
TAP	62	192	2
TAP	62	192	5
TTP	62	288	2	B	0	M1
TTP	62	288	3	B	0	M1
TTP	62	288	4	B	0	M1
TTP	62	288	4	E	0	M1
TTP	62	288	5	B	0	M1
XTP	63	0	1
XTP	63	0	6
TAP	63	48	0
TAP	63	72	7
TAP	63	96	0
TAP	63	144	0
TAP	63	168	7
TAP	63	192	0
TAP	63	240	0
TAP	63	264	5
TAP	63	288	0
TAP	63	336	0
TAP	63	360	3
TAP	64	0	0
TAP	64	48	0
TAP	64	72	2
TAP	64	96	0
TAP	64	144	0
STR	64	168	1
SCR	64	168	1	96	72	5
HLD	64	192	0	96
XTP	65	0	1
XTP	65	0	6
TAP	65	48	7
TAP	65	72	0
TAP	65	96	7
TAP	65	144	7
TAP	65	168	0
TAP	65	192	7
TAP	65	240	7
TAP	65	264	2
TAP	65	288	7
TAP	65	336	7
TAP	65	360	4
TAP	66	0	7
TAP	66	48	7
TAP	66	72	5
TAP	66	96	7
TAP	66	144	7
STR	66	168	6
SCL	66	168	6	96	72	2
HLD	66	192	7	96
XTP	67	0	0
XTP	67	0	5
TAP	67	48	7
TAP	67	72	6
TAP	67	96	7
TAP	67	144	7
TAP	67	168	5
TAP	67	192	7
TAP	67	240	7
TAP	67	264	4
TAP	67	288	7
TAP	67	336	7
TAP	67	360	3
TAP	68	0	7
TAP	68	48	7
TAP	68	72	2
TAP	68	96	7
TAP	68	144	7
STR	68	168	1
SCR	68	168	1	96	72	5
HLD	68	192	7	96
XTP	69	0	2
XTP	69	0	7
TAP	69	48	0
TAP	69	72	1
TAP	69	96	0
TAP	69	144	0
TAP	69	168	2
TAP	69	192	0
TAP	69	240	0
TAP	69	264	3
TAP	69	288	0
TAP	69	336	0
TAP	69	360	4
TAP	70	0	0
TAP	70	48	0
TAP	70	72	5
TAP	70	96	0
TAP	70	144	0
TAP	70	168	6
TAP	70	192	0
TAP	70	288	2
TAP	70	288	5
XTP	71	0	4
TAP	71	24	3
TAP	71	48	4
TAP	71	72	3
TAP	71	96	5
TAP	71	120	2
TAP	71	144	5
TAP	71	168	2
TAP	71	192	4
TAP	71	216	5
TAP	71	240	6
TAP	71	264	7
TAP	71	288	3
TAP	71	312	2
TAP	71	336	1
TAP	71	360	0
XTP	72	0	6
TAP	72	24	7
TAP	72	48	6
TAP	72	72	7
TAP	72	96	5
TAP	72	120	0
TAP	72	144	5
TAP	72	168	0
TAP	72	192	6
TAP	72	216	5
TAP	72	240	4
TAP	72	264	3
TAP	72	288	7
TAP	72	312	0
TAP	72	336	1
TAP	72	360	2
XTP	73	0	5
TAP	73	24	4
TAP	73	48	5
TAP	73	72	4
TAP	73	96	6
TAP	73	120	3
TAP	73	144	6
TAP	73	168	3
TAP	73	192	5
TAP	73	216	6
TAP	73	240	7
TAP	73	264	0
TAP	73	288	4
TAP	73	312	3
TAP	73	336	2
TAP	73	360	1
XTP	74	0	0
XTP	74	0	6
STR	74	288	1
SUR	74	288	1	96	192	2
TTP	75	0	0	C	1	M1
STR	75	288	6
SUL	75	288	6	96	192	5
TTP	76	0	0	C	1	M1
STR	76	288	0
SUL	76	288	0	96	192	7
TTP	77	0	0	C	1	M1
TAP	77	288	1
STR	77	288	6
SI_	77	288	6	96	48	2
STR	78	0	0
SI_	78	0	0	96	48	4
BRK	78	0	6
BRK	78	96	0
BRK	78	96	4
BRK	78	192	2
BRK	78	192	6
TAP	78	288	5
TAP	78	312	3
TAP	78	336	6
TAP	78	360	2
XST	79	0	7
SI_	79	0	7	96	48	3
TAP	79	72	0
TAP	79	96	7
TAP	79	144	1
XTP	79	192	3
XST	79	192	5
SI_	79	192	5	96	48	0
TAP	79	240	4
TAP	79	288	3
BRK	79	288	5
XTP	80	0	0
XTP	80	0	1
TAP	80	72	2
TAP	80	96	3
TAP	80	144	1
TAP	80	144	4
STR	80	192	1
SCR	80	192	1	96	48	5
TAP	80	192	4
HLD	81	0	6	72
HLD	81	72	0	72
TAP	81	144	2
STR	81	192	2
SCL	81	192	2	96	48	7
SCR	81	192	2	96	48	5
TAP	82	0	0
TAP	82	0	4
TAP	82	48	5
TAP	82	72	7
TAP	82	96	5
TAP	82	144	2
TAP	82	168	0
TAP	82	192	2
TAP	82	240	5
TAP	82	264	7
TAP	82	288	5
TAP	82	336	2
TAP	82	336	5
XTP	83	0	1
XST	83	0	7
SI_	83	0	7	96	48	3
TAP	83	72	0
TAP	83	96	7
TAP	83	144	1
XTP	83	192	3
XST	83	192	5
SI_	83	192	5	96	48	0
TAP	83	240	4
TAP	83	288	3
BRK	83	288	5
XTP	84	0	0
XTP	84	0	1
TAP	84	72	2
TAP	84	96	3
TAP	84	144	1
TAP	84	144	4
STR	84	192	1
SCR	84	192	1	96	48	5
TAP	84	192	4
TAP	85	0	6
TAP	85	24	7
TAP	85	72	6
TAP	85	96	7
TAP	85	144	3
TAP	85	144	5
STR	85	192	2
SI_	85	192	2	96	48	7
TAP	85	192	4
TAP	85	240	3
BRK	85	288	2
TAP	85	288	4
STR	86	0	0
SCR	86	0	0	96	48	3
TAP	86	0	5
TAP	86	72	6
STR	86	96	0
SI_	86	96	0	96	48	4
TAP	86	144	7
TAP	86	192	0
TAP	86	192	1
TAP	86	288	3
TAP	86	288	5
XST	87	0	0
SI_	87	0	0	96	48	4
XTP	87	0	6
TAP	87	72	7
TAP	87	96	0
TAP	87	144	6
XST	87	192	2
SI_	87	192	2	96	48	7
XTP	87	192	4
TAP	87	240	3
BRK	87	288	2
TAP	87	288	4
XTP	88	0	6
XTP	88	0	7
TAP	88	72	5
TAP	88	96	4
TAP	88	144	3
TAP	88	144	6
TAP	88	192	3
STR	88	192	6
SCL	88	192	6	96	48	2
HLD	89	0	1	72
HLD	89	72	7	72
TAP	89	144	5
STR	89	192	5
SCL	89	192	5	96	48	2
SCR	89	192	5	96	48	0
TAP	90	0	3
TAP	90	0	7
TAP	90	48	2
TAP	90	72	0
TAP	90	96	2
TAP	90	144	5
TAP	90	168	7
TAP	90	192	5
TAP	90	240	2
TAP	90	264	0
TAP	90	288	2
TAP	90	336	3
TAP	90	336	4
THO	91	0	0	288	C	0	M1
HLD	91	0	5	288
HLD	92	0	1	96
HLD	92	0	7	96
STR	92	192	3
SCR	92	192	3	96	48	5
STR	92	192	5
SCR	92	192	5	96	48	7
XTP	93	0	4
XTP	93	0	6
TAP	93	48	5
TAP	93	96	1
TAP	93	96	3
HLD	93	144	2	192
TAP	93	240	1
TAP	93	264	0
TAP	93	288	7
TAP	93	312	6
TAP	93	336	5
TAP	93	360	4
TAP	94	0	1
TAP	94	0	3
TAP	94	48	2
TAP	94	96	4
TAP	94	96	6
TAP	94	144	5
TAP	94	240	6
TAP	94	264	7
TAP	94	288	5
TAP	94	336	1
TAP	94	360	0
TAP	95	0	2
TAP	95	48	3
TAP	95	96	4
TAP	95	96	6
HLD	95	144	5	192
TAP	95	240	6
TAP	95	264	7
TAP	95	288	0
TAP	95	312	1
TAP	95	336	2
TAP	95	360	3
TAP	96	0	4
TAP	96	0	6
TAP	96	48	5
TAP	96	96	1
TAP	96	96	3
TAP	96	144	2
TAP	96	240	4
TAP	96	264	3
BRK	96	288	5
XTP	97	0	1
XTP	97	0	3
TAP	97	48	2
TAP	97	96	4
TAP	97	96	6
HLD	97	144	5	192
TAP	97	240	6
TAP	97	264	7
TAP	97	288	0
TAP	97	312	1
TAP	97	336	2
TAP	97	360	3
TAP	98	0	4
TAP	98	0	6
TAP	98	48	5
TAP	98	96	1
TAP	98	96	3
TAP	98	144	2
TAP	98	240	1
TAP	98	264	0
TAP	98	288	2
TAP	98	336	6
TAP	98	360	7
TAP	99	0	5
TAP	99	48	4
TAP	99	96	1
TAP	99	96	3
HLD	99	144	2	192
TAP	99	240	1
TAP	99	264	0
TAP	99	288	7
TAP	99	312	6
TAP	99	336	5
TAP	99	360	4
TAP	100	0	1
TAP	100	0	3
TAP	100	48	2
TAP	100	96	4
TAP	100	96	6
TAP	100	144	5
TAP	100	240	3
TAP	100	264	4
TAP	100	288	2
TAP	100	312	5
TAP	100	336	1
TAP	100	360	6
BRK	101	0	0

T_REC_TAP	600
T_REC_BRK	24
T_REC_XTP	52
T_REC_HLD	66
T_REC_XHO	2
T_REC_STR	45
T_REC_BST	0
T_REC_XST	14
T_REC_TTP	49
T_REC_THO	2
T_REC_SLD	66
T_REC_ALL	920
T_NUM_TAP	760
T_NUM_BRK	24
T_NUM_HLD	70
T_NUM_SLD	66
T_NUM_ALL	920
T_JUDGE_TAP	784
T_JUDGE_HLD	222
T_JUDGE_SLD	66
T_JUDGE_ALL	1072
TTM_EACHPAIRS	140
TTM_SCR_TAP	380000
TTM_SCR_BRK	62400
TTM_SCR_HLD	70000
TTM_SCR_SLD	99000
TTM_SCR_ALL	611400
TTM_SCR_S	590750
TTM_SCR_SS	609000
TTM_RAT_ACV	10039

