VERSION	0.00.00	1.03.00
FES_MODE	0
BPM_DEF	172.000	172.000	172.000	172.000
MET_DEF	4	4
RESOLUTION	384
CLK_DEF	384
COMPATIBLE_CODE	MA2

BPM	0	0	172.000
MET	0	0	4	4

TAP	1	0	3
TAP	1	0	5
TAP	1	72	3
TAP	1	72	5
TAP	1	144	3
TAP	1	144	5
TAP	1	240	7
TAP	1	288	7
TAP	2	0	2
TAP	2	0	4
TAP	2	72	2
TAP	2	72	4
TAP	2	144	2
TAP	2	144	4
TAP	2	240	0
TAP	2	288	0
TAP	3	0	3
TAP	3	0	5
TAP	3	72	3
TAP	3	72	5
TAP	3	144	3
TAP	3	144	5
TAP	3	240	7
TAP	3	288	7
TAP	4	0	2
TAP	4	0	4
TAP	4	72	2
TAP	4	72	4
HLD	4	144	2	96
TAP	4	144	4
TAP	4	240	3
TAP	4	288	3
TAP	5	0	1
TAP	5	0	3
TAP	5	72	2
TAP	5	72	4
TAP	5	144	3
TAP	5	144	5
TAP	5	240	0
TAP	5	288	0
TAP	6	0	4
TAP	6	0	6
TAP	6	72	3
TAP	6	72	5
TAP	6	144	2
TAP	6	144	4
TAP	6	240	7
TAP	6	288	7
TAP	7	0	1
TAP	7	0	3
TAP	7	72	2
TAP	7	72	4
TAP	7	144	3
TAP	7	144	5
TAP	7	240	0
TAP	7	288	0
TAP	8	0	4
TAP	8	0	6
TAP	8	72	3
TAP	8	72	5
TAP	8	144	2
TAP	8	144	4
TAP	8	192	2
TAP	8	192	4
BRK	8	288	1
BRK	8	288	5
HLD	9	0	6	96
TAP	9	96	4
TAP	9	144	4
TAP	9	240	0
TAP	9	240	7
TAP	9	288	0
TAP	9	288	7
HLD	10	0	1	96
TAP	10	96	3
TAP	10	144	3
TAP	10	240	2
TAP	10	240	4
TAP	10	288	2
TAP	10	288	4
HLD	11	0	1	96
TAP	11	96	3
TAP	11	144	3
TAP	11	240	0
TAP	11	240	7
TAP	11	288	0
TAP	11	288	7
HLD	12	0	6	96
TAP	12	96	4
TAP	12	144	4
TAP	12	240	3
TAP	12	240	5
TAP	12	288	3
TAP	12	288	5
HLD	13	0	6	96
TAP	13	96	4
TAP	13	144	4
TAP	13	240	0
TAP	13	240	1
TAP	13	288	0
TAP	13	288	1
HLD	14	0	1	96
TAP	14	96	3
TAP	14	144	3
TAP	14	240	2
TAP	14	240	3
TAP	14	288	2
TAP	14	288	3
HLD	15	0	1	96
TAP	15	96	3
TAP	15	144	3
TAP	15	240	6
TAP	15	240	7
TAP	15	288	6
TAP	15	288	7
HLD	16	0	6	96
TAP	16	96	4
TAP	16	144	4
TAP	16	240	3
TAP	16	240	4
TAP	16	288	3
TAP	16	288	4
HLD	17	0	2	768
TAP	17	96	3
TAP	17	192	3
TAP	17	288	3
TAP	18	0	1
TAP	18	96	0
TAP	18	192	7
TAP	18	288	7
HLD	19	0	6	768
TAP	19	96	4
TAP	19	192	4
TAP	19	288	4
TAP	20	0	5
TAP	20	96	5
TAP	20	192	4
TAP	20	288	3
HLD	21	0	2	768
TAP	21	96	3
TAP	21	192	3
TAP	21	288	3
TAP	22	0	1
TAP	22	96	0
TAP	22	192	7
TAP	22	288	7
HLD	23	0	6	672
TAP	23	96	4
TAP	23	192	4
TAP	23	288	4
TAP	24	0	5
TAP	24	96	5
TAP	24	192	4
TAP	24	288	3
TAP	25	0	2
TAP	25	0	7
TAP	25	96	1
TAP	25	96	4
HLD	25	144	1	96
TAP	25	144	4
TAP	25	240	3
TAP	25	288	2
TAP	25	288	4
TAP	26	0	1
TAP	26	0	5
TAP	26	96	3
TAP	26	96	6
TAP	26	144	3
HLD	26	144	6	96
TAP	26	240	4
TAP	26	288	3
TAP	26	288	5
TAP	27	0	2
TAP	27	0	6
TAP	27	96	1
TAP	27	96	4
HLD	27	144	1	96
TAP	27	144	4
TAP	27	240	3
TAP	27	288	2
TAP	27	288	4
TAP	28	0	1
TAP	28	0	5
TAP	28	96	3
TAP	28	96	6
TAP	28	144	3
HLD	28	144	6	96
TAP	28	240	4
TAP	28	288	3
TAP	28	288	5
TAP	29	0	2
TAP	29	96	1
TAP	29	96	4
TAP	29	192	5
TAP	29	240	5
TAP	29	288	4
TAP	30	0	6
TAP	30	0	7
TAP	30	96	0
TAP	30	96	1
TAP	30	192	2
TAP	30	192	3
TAP	30	288	1
TAP	30	288	4
TAP	31	0	5
TAP	31	96	3
TAP	31	96	6
TAP	31	192	2
TAP	31	240	2
TAP	31	288	3
TAP	32	0	0
TAP	32	0	1
TAP	32	96	6
TAP	32	96	7
TAP	32	192	4
TAP	32	192	5
TAP	32	288	3
TAP	32	288	6
TAP	33	0	2
TAP	33	96	1
TAP	33	96	4
TAP	33	192	5
TAP	33	240	5
TAP	33	288	4
TAP	34	0	6
TAP	34	0	7
TAP	34	96	0
TAP	34	96	1
TAP	34	192	2
TAP	34	192	3
TAP	34	288	1
TAP	34	288	4
TAP	35	0	5
TAP	35	96	3
TAP	35	96	6
TAP	35	192	2
TAP	35	240	2
TAP	35	288	3
TAP	36	0	0
TAP	36	0	7
TAP	36	48	0
TAP	36	48	7
TAP	36	96	0
TAP	36	96	7
XTP	36	192	1
XTP	36	192	6
STR	37	0	1
SI_	37	0	1	96	48	4
HLD	37	96	5	144
XTP	37	240	4
XTP	37	288	4
TAP	38	0	3
TAP	38	0	6
TAP	38	96	2
TAP	38	96	3
TAP	38	192	1
TAP	38	192	4
TAP	38	288	4
TAP	38	288	5
STR	39	0	6
SI_	39	0	6	96	48	3
HLD	39	96	2	144
XTP	39	240	3
XTP	39	288	3
TAP	40	0	1
TAP	40	0	4
TAP	40	96	4
TAP	40	96	5
TAP	40	192	3
TAP	40	192	6
TAP	40	288	2
TAP	40	288	3
STR	41	0	1
SI_	41	0	1	96	48	3
STR	41	0	6
SI_	41	0	6	96	48	4
XTP	41	240	3
XTP	41	240	4
XTP	41	288	3
XTP	41	288	4
TTP	42	0	2	B	0	M1
TTP	42	0	3	E	0	M1
TTP	42	96	0	B	0	M1
TTP	42	96	1	E	0	M1
TTP	42	192	7	B	0	M1
TTP	42	192	7	E	0	M1
TTP	42	288	5	B	0	M1
TTP	42	288	5	E	0	M1
TAP	43	0	3
TAP	43	24	4
TAP	43	48	3
TAP	43	72	4
TAP	43	96	3
TAP	43	120	4
TAP	43	144	3
TAP	43	168	4
TAP	43	192	3
TAP	43	216	4
TAP	43	240	3
TAP	43	264	4
TAP	43	288	3
TAP	44	0	2
TAP	44	0	4
TAP	44	96	3
TAP	44	96	5
BRK	44	192	2
BRK	44	192	6
STR	45	0	0
SI_	45	0	0	96	48	4
STR	45	0	1
SI_	45	0	1	96	48	3
TAP	45	192	4
TAP	45	192	5
TAP	45	240	6
HLD	45	288	7	96
TAP	46	0	0
TAP	46	96	1
TAP	46	96	2
TAP	46	192	3
HLD	46	192	5	96
TAP	46	288	4
STR	47	0	0
SI_	47	0	0	96	48	4
STR	47	0	6
SI_	47	0	6	96	48	3
TAP	47	192	7
TAP	47	240	7
STR	47	288	0
SCR	47	288	0	96	192	5
XTP	48	0	7
XTP	48	96	7
XTP	48	192	7
BRK	48	288	0
BRK	48	288	7
STR	49	0	6
SI_	49	0	6	96	48	4
STR	49	0	7
SI_	49	0	7	96	48	3
TAP	49	192	2
TAP	49	192	3
TAP	49	240	1
HLD	49	288	0	96
TAP	50	0	7
TAP	50	96	5
TAP	50	96	6
HLD	50	192	2	96
TAP	50	192	4
TAP	50	288	3
TAP	51	0	2
TAP	51	0	4
TAP	51	72	3
TAP	51	72	5
TAP	51	144	4
TAP	51	144	6
TAP	51	192	4
TAP	51	192	6
TAP	51	288	3
STR	51	288	7
SCL	51	288	7	96	192	0
XTP	52	0	0
XTP	52	288	0
XTP	52	288	7
STR	53	0	6
SI_	53	0	6	96	48	4
STR	53	0	7
SI_	53	0	7	96	48	3
TAP	53	192	2
TAP	53	192	3
TAP	53	240	1
HLD	53	288	0	96
TAP	54	0	7
TAP	54	96	5
TAP	54	96	6
HLD	54	192	2	96
TAP	54	192	4
TAP	54	288	3
STR	55	0	1
SI_	55	0	1	96	48	4
STR	55	0	7
SI_	55	0	7	96	48	3
TAP	55	192	2
TAP	55	240	2
STR	55	288	4
SXL	55	288	4	96	192	3
XTP	56	0	1
XTP	56	96	1
XTP	56	192	1
BRK	56	288	2
BRK	56	288	3
STR	57	0	0
SI_	57	0	0	96	48	4
STR	57	0	1
SI_	57	0	1	96	48	3
TAP	57	192	4
TAP	57	192	5
TAP	57	240	6
HLD	57	288	7	96
TAP	58	0	0
TAP	58	96	1
TAP	58	96	2
TAP	58	192	3
HLD	58	192	5	96
TAP	58	288	4
TAP	59	0	3
TAP	59	0	5
TAP	59	72	2
TAP	59	72	4
TAP	59	144	1
TAP	59	144	3
TAP	59	192	1
TAP	59	192	3
STR	59	288	0
SCR	59	288	0	96	192	7
TAP	59	288	4
XTP	60	0	7
XST	60	288	0
SSL	60	288	0	96	288	4
STR	62	0	7
SI_	62	0	7	96	96	3
TAP	62	192	2
TAP	62	240	2
TAP	62	288	3
TAP	62	288	4
HLD	63	0	6	96
HLD	63	96	4	96
HLD	63	192	3	96
HLD	63	288	1	96
HLD	64	0	6	96
STR	64	96	0
SI_	64	96	0	96	48	4
STR	64	192	5
SI_	64	192	5	96	48	2
HLD	65	0	1	96
HLD	65	96	3	96
HLD	65	192	4	96
HLD	65	288	6	96
HLD	66	0	1	96
STR	66	96	7
SI_	66	96	7	96	48	3
STR	66	192	0
SI_	66	192	0	96	48	4
HLD	67	0	5	96
HLD	67	96	7	96
HLD	67	192	0	96
HLD	67	288	2	96
HLD	68	0	5	96
STR	68	96	4
SI_	68	96	4	96	48	0
STR	68	192	7
SI_	68	192	7	96	48	3
HLD	69	0	2	96
HLD	69	96	0	96
HLD	69	192	7	96
HLD	69	288	5	96
HLD	70	0	2	96
STR	70	96	3
SI_	70	96	3	96	48	7
BRK	70	192	0
XTP	71	0	1
TAP	71	48	1
TAP	71	96	3
TAP	71	144	3
TAP	71	192	2
TAP	71	240	2
TAP	71	288	3
TAP	71	288	5
XTP	72	0	6
TAP	72	48	6
TAP	72	96	4
TAP	72	144	4
TAP	72	192	5
TAP	72	240	5
TAP	72	288	2
TAP	72	288	4
XTP	73	0	1
TAP	73	48	1
TAP	73	96	7
TAP	73	144	7
TAP	73	192	4
TAP	73	240	4
TAP	73	288	5
TAP	73	336	5
HLD	74	0	1	384
STR	75	0	7
SCL	75	0	7	96	144	3
STR	76	0	0
SCR	76	0	0	96	144	4
STR	77	0	7
SCL	77	0	7	96	144	3
XHO	78	0	0	96
XTP	78	96	7
BRK	78	192	1
BRK	78	192	6
STR	79	0	6
SI_	79	0	6	96	48	4
STR	79	0	7
SI_	79	0	7	96	48	3
TAP	79	192	2
TAP	79	192	3
TAP	79	240	1
TAP	79	240	2
HLD	79	288	0	96
STR	80	0	6
SI_	80	0	6	96	48	3
STR	80	96	2
SI_	80	96	2	96	48	7
HLD	80	192	5	96
TAP	80	288	3
TAP	81	0	3
TAP	81	0	5
TAP	81	72	2
TAP	81	72	4
TAP	81	144	1
TAP	81	144	3
TAP	81	192	1
TAP	81	192	3
TAP	81	288	0
STR	81	288	4
SCR	81	288	4	96	192	3
XTP	82	0	3
XTP	82	288	0
XTP	82	288	7
STR	83	0	0
SI_	83	0	0	96	48	4
STR	83	0	1
SI_	83	0	1	96	48	3
TAP	83	192	4
TAP	83	192	5
TAP	83	240	5
TAP	83	240	6
HLD	83	288	7	96
STR	84	0	1
SI_	84	0	1	96	48	4
STR	84	96	5
SI_	84	96	5	96	48	0
HLD	84	192	2	96
TAP	84	288	4
STR	85	0	1
SI_	85	0	1	96	48	4
STR	85	0	6
SI_	85	0	6	96	48	3
TAP	85	192	2
TAP	85	240	2
STR	85	288	4
SXL	85	288	4	96	192	3
TAP	86	0	1
TAP	86	96	1
TAP	86	192	1
TAP	86	288	2
TAP	86	288	4
STR	87	0	0
SI_	87	0	0	96	48	4
STR	87	0	1
SI_	87	0	1	96	48	3
TAP	87	192	4
TAP	87	192	5
TAP	87	240	5
TAP	87	240	6
HLD	87	288	7	96
STR	88	0	1
SI_	88	0	1	96	48	4
STR	88	96	5
SI_	88	96	5	96	48	0
HLD	88	192	2	96
TAP	88	288	4
TAP	89	0	2
TAP	89	0	4
TAP	89	72	3
TAP	89	72	5
TAP	89	144	4
TAP	89	144	6
TAP	89	192	4
TAP	89	192	6
STR	89	288	3
SCL	89	288	3	96	192	4
TAP	89	288	7
XTP	90	0	4
TAP	90	288	7
HLD	91	0	7	576
HLD	92	0	0	192
BRK	92	288	1
BRK	92	288	6
TAP	93	0	2
HLD	93	0	5	96
TAP	93	96	4
TAP	93	144	4
TAP	93	240	7
TAP	93	288	0
TAP	93	288	6
HLD	94	0	1	96
TAP	94	96	3
TAP	94	144	3
TAP	94	240	4
TAP	94	288	3
TAP	94	288	5
HLD	95	0	1	96
TAP	95	96	3
TAP	95	144	3
TAP	95	240	0
TAP	95	288	1
TAP	95	288	7
HLD	96	0	6	96
TAP	96	96	4
TAP	96	144	4
TAP	96	240	3
TAP	96	288	2
TAP	96	288	4
HLD	97	0	6	96
TAP	97	96	4
TAP	97	144	4
TAP	97	240	0
TAP	97	240	5
TAP	97	288	0
TAP	97	288	5
HLD	98	0	1	96
TAP	98	96	3
TAP	98	144	3
TAP	98	240	0
TAP	98	240	4
TAP	98	288	0
TAP	98	288	4
HLD	99	0	1	96
TAP	99	96	3
TAP	99	144	3
TAP	99	240	2
TAP	99	240	7
TAP	99	288	2
TAP	99	288	7
HLD	100	0	6	96
TAP	100	96	4
TAP	100	144	4
TAP	100	240	3
TAP	100	240	7
STR	100	288	3
SI_	100	288	3	96	48	0
TAP	100	288	7
BRK	101	0	5

T_REC_TAP	422
T_REC_BRK	14
T_REC_XTP	28
T_REC_HLD	64
T_REC_XHO	1
T_REC_STR	49
T_REC_BST	0
T_REC_XST	1
T_REC_TTP	8
T_REC_THO	0
T_REC_SLD	50
T_REC_ALL	637
T_NUM_TAP	508
T_NUM_BRK	14
T_NUM_HLD	65
T_NUM_SLD	50
T_NUM_ALL	637
T_JUDGE_TAP	522
T_JUDGE_HLD	204
T_JUDGE_SLD	50
T_JUDGE_ALL	776
TTM_EACHPAIRS	163
TTM_SCR_TAP	254000
TTM_SCR_BRK	36400
TTM_SCR_HLD	65000
TTM_SCR_SLD	75000
TTM_SCR_ALL	430400
TTM_SCR_S	416150
TTM_SCR_SS	429000
TTM_RAT_ACV	10032

