VERSION	0.00.00	1.03.00
FES_MODE	0
BPM_DEF	172.000	172.000	172.000	172.000
MET_DEF	4	4
RESOLUTION	384
CLK_DEF	384
COMPATIBLE_CODE	MA2

BPM	0	0	172.000
MET	0	0	4	4

HLD	1	0	2	384
HLD	2	0	3	384
HLD	3	0	4	384
TAP	4	0	5
HLD	5	0	6	384
HLD	6	0	7	384
HLD	7	0	0	384
TAP	8	0	1
TAP	9	0	6
TAP	9	96	6
TAP	9	192	7
TAP	9	288	7
TAP	10	0	0
TAP	10	96	0
TAP	10	192	1
TAP	10	192	7
TAP	11	0	2
TAP	11	96	2
TAP	11	192	3
TAP	11	288	3
TAP	12	0	4
TAP	12	96	4
TAP	12	192	3
TAP	12	192	4
TAP	13	0	5
TAP	13	96	5
TAP	13	192	4
TAP	13	288	4
TAP	14	0	3
TAP	14	96	3
TAP	14	192	2
TAP	14	192	4
TAP	15	0	1
TAP	15	96	1
TAP	15	192	0
TAP	15	288	0
TAP	16	0	0
TAP	16	0	7
TAP	16	96	0
TAP	16	96	7
TAP	16	192	1
TAP	16	192	6
HLD	17	0	5	192
TAP	17	192	4
HLD	18	0	2	192
TAP	18	192	3
HLD	19	0	5	192
TAP	19	192	4
TAP	20	0	2
TAP	20	0	3
TAP	20	96	2
TAP	20	96	3
TAP	20	192	2
TAP	20	192	3
HLD	21	0	1	192
TAP	21	192	0
HLD	22	0	6	192
TAP	22	192	7
HLD	23	0	1	192
TAP	23	192	0
TAP	24	0	0
TAP	24	0	7
TAP	24	96	0
TAP	24	96	7
TAP	24	192	1
TAP	24	192	6
TTP	25	0	6	E	0	L1
TTP	25	96	5	B	0	L1
TTP	25	192	4	B	0	L1
TTP	26	0	2	E	0	L1
TTP	26	96	2	B	0	L1
TTP	26	192	3	B	0	L1
TTP	27	0	6	E	0	L1
TTP	27	96	5	B	0	L1
TTP	27	192	4	B	0	L1
TTP	28	0	2	E	0	L1
TTP	28	96	2	B	0	L1
TTP	28	192	3	B	0	L1
XTP	29	0	5
TAP	29	96	5
TAP	29	192	4
TAP	29	192	5
TAP	30	0	2
TAP	30	96	2
TAP	30	192	2
TAP	30	192	3
TAP	31	0	5
TAP	31	96	5
TAP	31	192	4
TAP	31	192	5
TAP	32	0	3
TAP	32	96	3
TAP	32	192	2
TAP	32	192	4
TAP	33	0	1
TAP	33	96	1
TAP	33	192	0
TAP	33	192	1
TAP	34	0	6
TAP	34	96	6
TAP	34	192	6
TAP	34	192	7
TAP	35	0	1
TAP	35	96	1
TAP	35	192	0
TAP	35	192	1
TAP	36	0	0
TAP	36	0	7
TAP	36	96	0
TAP	36	96	7
TAP	36	192	0
TAP	36	192	7
STR	37	0	6
SCL	37	0	6	96	192	3
TAP	38	0	2
TAP	38	96	2
TAP	38	192	2
TAP	38	192	3
STR	39	0	1
SCR	39	0	1	96	192	4
TAP	40	0	5
TAP	40	96	5
TAP	40	192	4
TAP	40	192	5
STR	41	0	5
SCR	41	0	5	96	192	0
TAP	42	0	1
TAP	42	96	1
TAP	42	192	0
TAP	42	192	1
TAP	43	0	2
TAP	43	96	2
TAP	43	192	3
TAP	43	288	3
XTP	44	0	3
XTP	44	0	4
XTP	44	96	3
XTP	44	96	4
XTP	44	192	2
XTP	44	192	5
BRK	45	0	6
TAP	45	96	6
TAP	45	192	6
TAP	45	192	7
TAP	45	288	6
TAP	45	288	7
TAP	46	0	5
TAP	46	96	4
TAP	46	192	3
TAP	46	192	5
TAP	47	0	2
TAP	47	96	2
TAP	47	192	2
TAP	47	192	3
TAP	47	288	2
TAP	47	288	3
TAP	48	0	1
TAP	48	96	0
TAP	48	192	0
TAP	48	192	7
BRK	49	0	1
TAP	49	96	1
TAP	49	192	0
TAP	49	192	1
TAP	49	288	0
TAP	49	288	1
TAP	50	0	2
TAP	50	96	3
TAP	50	192	2
TAP	50	192	4
TAP	51	0	5
TAP	51	96	5
TAP	51	192	4
TAP	51	192	5
TAP	51	288	4
TAP	51	288	5
TAP	52	0	6
TAP	52	96	7
TAP	52	192	0
TAP	52	192	7
BRK	53	0	1
TAP	53	96	1
TAP	53	192	2
TAP	53	192	3
TAP	53	288	2
TAP	53	288	3
TAP	54	0	4
TAP	54	96	4
TAP	54	192	3
TAP	54	192	5
TAP	55	0	5
TAP	55	96	5
TAP	55	192	6
TAP	55	192	7
TAP	55	288	6
TAP	55	288	7
TAP	56	0	0
TAP	56	96	0
TAP	56	192	0
TAP	56	192	7
BRK	57	0	6
TAP	57	96	6
TAP	57	192	4
TAP	57	192	5
TAP	57	288	4
TAP	57	288	5
TAP	58	0	3
TAP	58	96	3
TAP	58	192	2
TAP	58	192	4
TAP	59	0	2
TAP	59	96	2
TAP	59	192	0
TAP	59	192	1
TAP	59	288	0
TAP	59	288	1
TAP	60	0	7
TAP	60	96	7
TAP	60	192	0
TAP	60	192	7
XST	61	0	0
SI_	61	0	0	96	192	3
XST	61	0	7
SI_	61	0	7	96	192	4
XTP	62	0	2
XTP	62	0	5
TAP	62	192	3
TAP	62	192	4
TAP	62	288	3
TAP	62	288	4
TAP	63	0	5
TAP	63	96	5
TAP	63	192	4
TAP	63	288	4
TAP	64	0	3
TAP	64	96	3
TAP	64	192	2
TAP	64	192	4
TAP	65	0	1
TAP	65	96	1
TAP	65	192	0
TAP	65	288	0
TAP	66	0	7
TAP	66	96	7
TAP	66	192	0
TAP	66	192	7
TAP	67	0	6
TAP	67	96	6
TAP	67	192	7
TAP	67	288	7
TAP	68	0	0
TAP	68	96	0
TAP	68	192	1
TAP	68	192	7
TAP	69	0	2
TAP	69	96	2
TAP	69	192	3
TAP	69	288	3
TAP	70	0	4
TAP	70	96	3
TAP	70	96	4
BRK	70	192	2
BRK	70	192	5
STR	71	0	6
SCL	71	0	6	96	192	3
STR	72	0	2
SCL	72	0	2	96	192	7
STR	73	0	6
SUL	73	0	6	96	192	2
XTP	74	0	0
HLD	75	0	1	384
HLD	76	0	0	384
HLD	77	0	7	384
XTP	78	0	6
XTP	78	96	6
XTP	78	192	0
XTP	78	192	7
BRK	79	0	1
TAP	79	96	1
TAP	79	192	0
TAP	79	192	7
TAP	79	288	0
TAP	79	288	7
TAP	80	0	6
TAP	80	96	6
TAP	80	192	4
TAP	80	192	5
TAP	81	0	2
TAP	81	96	2
TAP	81	192	3
TAP	81	288	3
TAP	82	0	4
TAP	82	96	3
TAP	82	96	4
TAP	82	192	2
TAP	82	192	5
BRK	83	0	6
TAP	83	96	6
TAP	83	96	7
TAP	83	192	6
TAP	83	288	6
TAP	83	288	7
TAP	84	0	5
TAP	84	96	4
TAP	84	192	3
TAP	84	288	2
TAP	85	0	1
TAP	85	96	0
TAP	85	96	1
TAP	85	192	1
TAP	85	288	0
TAP	85	288	1
TAP	86	0	2
TAP	86	96	3
TAP	86	192	2
TAP	86	192	4
BRK	87	0	5
TAP	87	96	4
TAP	87	96	5
TAP	87	192	5
TAP	87	288	4
TAP	87	288	5
TAP	88	0	6
TAP	88	96	7
TAP	88	192	0
TAP	88	288	1
TAP	89	0	2
TAP	89	96	2
TAP	89	96	3
TAP	89	192	2
TAP	89	288	2
TAP	89	288	3
TAP	90	0	1
TAP	90	96	0
TAP	90	96	7
TAP	90	192	1
TAP	90	192	6
XST	91	0	0
SI_	91	0	0	96	192	3
XST	91	0	7
SI_	91	0	7	96	192	4
XTP	92	0	2
XTP	92	0	5
TAP	92	192	3
TAP	92	192	4
TAP	92	288	3
TAP	92	288	4
TAP	93	0	5
TAP	93	96	5
TAP	93	192	4
TAP	93	192	5
TAP	94	0	2
TAP	94	96	2
TAP	94	192	2
TAP	94	192	3
TAP	95	0	5
TAP	95	96	5
TAP	95	192	4
TAP	95	288	4
TAP	96	0	3
TAP	96	96	3
TAP	96	192	2
TAP	96	192	4
TAP	97	0	1
TAP	97	96	1
TAP	97	192	0
TAP	97	192	1
TAP	98	0	6
TAP	98	96	6
TAP	98	192	6
TAP	98	192	7
TAP	99	0	1
TAP	99	96	1
TAP	99	192	0
TAP	99	288	0
TAP	100	0	0
TAP	100	0	7
TAP	100	96	0
TAP	100	96	7
TAP	100	192	1
TAP	100	192	6
TAP	100	288	1
TAP	100	288	6
BRK	101	0	2
BRK	101	0	5

T_REC_TAP	311
T_REC_BRK	11
T_REC_XTP	16
T_REC_HLD	15
T_REC_XHO	0
T_REC_STR	6
T_REC_BST	0
T_REC_XST	4
T_REC_TTP	12
T_REC_THO	0
T_REC_SLD	10
T_REC_ALL	385
T_NUM_TAP	349
T_NUM_BRK	11
T_NUM_HLD	15
T_NUM_SLD	10
T_NUM_ALL	385
T_JUDGE_TAP	360
T_JUDGE_HLD	96
T_JUDGE_SLD	10
T_JUDGE_ALL	466
TTM_EACHPAIRS	92
TTM_SCR_TAP	174500
TTM_SCR_BRK	28600
TTM_SCR_HLD	15000
TTM_SCR_SLD	15000
TTM_SCR_ALL	233100
TTM_SCR_S	225050
TTM_SCR_SS	232000
TTM_RAT_ACV	10047

