VERSION	0.00.00	1.03.00
FES_MODE	0
BPM_DEF	172.000	172.000	172.000	172.000
MET_DEF	4	4
RESOLUTION	384
CLK_DEF	384
COMPATIBLE_CODE	MA2

BPM	0	0	172.000
MET	0	0	4	4

HLD	1	0	0	384
HLD	3	0	7	384
TAP	5	0	7
TAP	6	0	7
TAP	7	0	0
TAP	8	0	0
TAP	8	0	7
TAP	9	0	0
TAP	10	0	1
TAP	11	0	2
TAP	12	0	3
TAP	13	0	4
TAP	14	0	5
TAP	15	0	6
TAP	16	0	0
TAP	16	0	7
TAP	17	0	7
TAP	17	192	7
TAP	18	0	7
TAP	19	0	6
TAP	19	192	6
TAP	20	0	6
TAP	21	0	5
TAP	21	192	5
TAP	22	0	5
TAP	23	0	4
TAP	23	192	4
TAP	24	0	3
TAP	24	0	4
TAP	25	0	2
TAP	26	0	2
TAP	27	0	1
TAP	28	0	0
TAP	28	0	1
TAP	29	0	0
TAP	29	192	0
TAP	30	0	1
TAP	31	0	2
TAP	31	192	2
TAP	32	0	3
TAP	33	0	4
TAP	33	192	4
TAP	34	0	5
TAP	35	0	6
TAP	35	192	6
TAP	36	0	0
TAP	36	0	7
STR	37	0	0
SI_	37	0	0	96	288	3
STR	39	0	4
SI_	39	0	4	96	288	7
STR	41	0	0
SI_	41	0	0	96	288	4
TAP	43	0	7
TAP	43	192	7
TAP	44	0	0
TAP	44	0	7
TAP	45	0	7
TAP	45	192	7
TAP	46	0	6
TAP	46	96	6
TAP	46	192	6
TAP	47	0	5
TAP	47	192	5
TAP	48	0	4
TAP	48	96	4
TAP	48	192	4
TAP	49	0	3
TAP	49	192	3
TAP	50	0	2
TAP	50	96	2
TAP	50	192	2
TAP	51	0	1
TAP	51	192	1
TAP	52	0	0
TAP	52	0	7
TAP	52	192	0
TAP	52	192	7
TAP	53	0	1
TAP	53	192	1
TAP	54	0	2
TAP	54	96	2
TAP	54	192	2
TAP	55	0	3
TAP	55	192	3
TAP	56	0	4
TAP	56	96	4
TAP	56	192	4
TAP	57	0	5
TAP	57	192	5
TAP	58	0	6
TAP	58	96	6
TAP	58	192	6
TAP	59	0	7
TAP	59	192	7
TAP	60	0	0
TAP	60	0	7
STR	61	0	0
SI_	61	0	0	96	288	3
STR	61	0	7
SI_	61	0	7	96	288	4
TAP	63	0	5
TAP	63	192	5
TAP	64	0	4
TAP	64	0	5
TAP	65	0	6
TAP	65	192	6
TAP	66	0	6
TAP	66	0	7
TAP	67	0	1
TAP	67	192	1
TAP	68	0	0
TAP	68	0	1
TAP	69	0	2
TAP	69	192	2
TAP	70	0	2
TAP	70	0	3
TTP	71	0	2	B	0	L1
TTP	71	0	3	B	0	L1
TTP	72	0	4	B	0	L1
TTP	72	0	5	B	0	L1
THO	73	0	0	384	C	0	L1
HLD	75	0	0	384
HLD	75	0	1	384
HLD	77	0	6	384
HLD	77	0	7	384
XTP	78	192	6
XTP	78	192	7
TAP	79	0	0
TAP	79	192	0
TAP	80	0	1
TAP	80	96	1
TAP	80	192	1
TAP	81	0	2
TAP	81	192	2
TAP	82	0	3
TAP	82	0	4
TAP	82	192	3
TAP	82	192	4
TAP	83	0	4
TAP	83	96	4
TAP	83	192	4
TAP	84	0	5
TAP	84	96	5
TAP	84	192	5
TAP	85	0	6
TAP	85	96	6
TAP	85	192	6
TAP	86	0	7
TAP	86	96	7
TAP	86	192	0
TAP	86	192	7
TAP	87	0	1
TAP	87	96	1
TAP	87	192	1
TAP	88	0	0
TAP	88	0	1
TAP	88	96	0
TAP	88	96	1
TAP	88	192	0
TAP	88	192	1
TAP	89	0	7
TAP	89	96	7
TAP	89	192	7
TAP	90	0	0
TAP	90	0	7
TAP	90	192	0
TAP	90	192	7
STR	91	0	0
SI_	91	0	0	96	288	3
STR	91	0	7
SI_	91	0	7	96	288	4
BRK	93	0	5
TAP	93	192	5
TAP	94	0	6
TAP	94	192	6
TAP	95	0	7
TAP	95	192	7
TAP	96	0	0
TAP	96	0	7
TAP	96	192	0
TAP	96	192	7
TAP	97	0	1
TAP	97	192	1
TAP	98	0	2
TAP	98	192	2
TAP	99	0	3
TAP	99	192	3
TAP	100	0	3
TAP	100	0	4
TAP	100	192	3
TAP	100	192	4
BRK	101	0	2
BRK	101	0	5

T_REC_TAP	164
T_REC_BRK	3
T_REC_XTP	2
T_REC_HLD	6
T_REC_XHO	0
T_REC_STR	7
T_REC_BST	0
T_REC_XST	0
T_REC_TTP	4
T_REC_THO	1
T_REC_SLD	7
T_REC_ALL	194
T_NUM_TAP	177
T_NUM_BRK	3
T_NUM_HLD	7
T_NUM_SLD	7
T_NUM_ALL	194
T_JUDGE_TAP	180
T_JUDGE_HLD	56
T_JUDGE_SLD	7
T_JUDGE_ALL	243
TTM_EACHPAIRS	31
TTM_SCR_TAP	88500
TTM_SCR_BRK	7800
TTM_SCR_HLD	7000
TTM_SCR_SLD	10500
TTM_SCR_ALL	113800
TTM_SCR_S	110100
TTM_SCR_SS	113500
TTM_RAT_ACV	10026

