VERSION	0.00.00	1.03.00
FES_MODE	0
BPM_DEF	185.000	185.000	185.000	185.000
MET_DEF	4	4
RESOLUTION	384
CLK_DEF	384
COMPATIBLE_CODE	MA2

BPM	0	0	185.000
MET	0	0	4	4

TAP	1	0	3
TAP	1	48	4
TAP	1	96	3
TAP	1	96	4
TAP	1	144	5
TAP	1	168	4
TAP	1	192	5
TAP	1	216	4
TAP	1	240	5
TAP	1	288	2
TAP	1	312	3
TAP	1	336	1
TAP	1	360	2
BST	2	0	0
SCR	2	0	0	96	768	0
SV_	2	0	0	96	192	2
STR	4	0	0
SCR	4	0	0	96	768	0
SV_	4	0	0	96	288	3
STR	6	0	0
SI_	6	0	0	96	384	4
SCR	6	0	0	96	768	0
STR	8	0	0
SCR	8	0	0	96	480	5
SV_	8	0	0	96	480	5
HLD	10	0	3	96
TAP	10	0	4
TAP	10	96	4
TAP	10	144	2
TAP	10	192	4
TAP	10	240	3
TAP	10	288	4
TAP	10	336	1
HLD	11	0	1	96
TAP	11	0	3
TAP	11	96	3
TAP	11	144	2
TAP	11	192	3
TAP	11	240	1
TAP	11	288	3
TAP	11	336	2
TAP	12	0	3
HLD	12	0	4	96
TAP	12	96	3
TAP	12	144	5
TAP	12	192	3
TAP	12	240	4
TAP	12	288	3
TAP	12	336	6
TAP	13	0	4
HLD	13	0	6	96
TAP	13	96	4
TAP	13	144	5
TAP	13	192	4
TAP	13	240	6
TAP	13	288	4
TAP	13	288	6
XTP	14	0	3
TAP	14	24	4
TAP	14	48	3
TAP	14	96	2
TAP	14	144	1
XTP	14	192	7
TAP	14	216	0
TAP	14	240	7
TAP	14	288	6
TAP	14	336	5
XTP	15	0	7
TAP	15	24	6
TAP	15	48	7
TAP	15	96	0
TAP	15	144	1
XTP	15	192	3
TAP	15	216	2
TAP	15	240	3
TAP	15	288	4
TAP	15	336	5
XTP	16	0	7
TAP	16	24	6
TAP	16	48	7
TAP	16	72	6
TAP	16	96	0
TAP	16	120	5
TAP	16	144	0
TAP	16	168	5
TAP	16	192	1
TAP	16	216	4
TAP	16	240	1
TAP	16	264	4
TAP	16	288	2
TAP	16	312	3
TAP	16	336	2
TAP	16	360	3
STR	17	0	2
SXL	17	0	2	96	48	4
STR	17	48	4
SCL	17	48	4	96	48	2
STR	17	96	2
SCL	17	96	2	96	48	0
STR	17	192	7
SUR	17	192	7	96	48	3
SV_	17	192	7	96	48	4
XTP	17	288	7
TAP	18	0	1
TAP	18	48	5
TAP	18	96	2
TAP	18	96	6
TAP	18	144	7
TAP	18	192	0
TAP	18	192	3
TAP	18	288	2
TAP	18	288	6
TAP	18	336	5
STR	19	0	1
SCL	19	0	1	96	96	5
TAP	19	0	4
STR	19	96	5
SCR	19	96	5	96	96	1
TAP	19	192	3
TAP	19	240	4
TAP	19	288	5
TAP	20	0	6
TAP	20	48	2
TAP	20	96	1
TAP	20	96	5
TAP	20	144	0
TAP	20	192	4
TAP	20	192	7
TAP	20	288	1
TAP	20	288	5
TAP	20	336	2
TAP	21	0	3
STR	21	0	6
SCR	21	0	6	96	96	2
STR	21	96	2
SCL	21	96	2	96	96	6
TAP	21	192	4
TAP	21	240	3
TAP	21	288	2
TAP	22	0	2
TAP	22	48	6
TAP	22	96	1
TAP	22	96	5
TAP	22	144	4
TAP	22	192	0
TAP	22	192	3
TAP	22	288	1
TAP	22	288	5
TAP	22	336	6
STR	23	0	2
SCR	23	0	2	96	96	6
TAP	23	0	7
STR	23	96	6
SCL	23	96	6	96	96	2
TAP	23	192	0
TAP	23	240	7
TAP	23	288	6
TAP	24	0	7
TAP	24	48	1
TAP	24	96	2
TAP	24	96	6
TAP	24	144	3
TAP	24	192	4
TAP	24	192	5
TAP	24	288	3
TAP	24	288	6
TAP	24	336	2
TTP	25	0	7	B	0	M1
TTP	25	0	7	E	0	M1
TTP	25	48	1	B	0	M1
TTP	25	48	2	E	0	M1
TTP	25	96	5	B	0	M1
TTP	25	96	6	E	0	M1
TTP	25	144	3	B	0	M1
TTP	25	144	3	E	0	M1
TTP	25	192	0	E	0	M1
TTP	25	240	0	C	0	M1
TTP	25	288	4	E	0	M1
STR	26	0	1
SI_	26	0	1	96	48	5
TAP	26	48	6
TAP	26	144	4
STR	26	192	0
SI_	26	192	0	96	48	4
TAP	26	240	5
TAP	26	336	3
STR	27	0	7
SI_	27	0	7	96	48	3
TAP	27	48	4
TAP	27	144	2
TAP	27	192	0
TAP	27	240	1
TAP	27	288	2
TAP	27	288	5
STR	28	0	6
SI_	28	0	6	96	48	2
TAP	28	48	1
TAP	28	144	3
STR	28	192	7
SI_	28	192	7	96	48	3
TAP	28	240	2
TAP	28	336	4
STR	29	0	0
SI_	29	0	0	96	48	4
TAP	29	48	3
TAP	29	144	5
TAP	29	192	7
TAP	29	240	6
TAP	29	288	2
TAP	29	288	5
STR	30	0	2
SI_	30	0	2	96	48	6
TAP	30	48	5
TAP	30	144	7
STR	30	192	3
SI_	30	192	3	96	48	7
TAP	30	240	6
TAP	30	336	0
STR	31	0	4
SI_	31	0	4	96	48	0
TAP	31	48	7
TAP	31	144	1
TAP	31	192	3
TAP	31	240	2
TAP	31	288	1
TAP	31	288	7
TAP	31	336	6
TTP	32	0	0	B	0	M1
TTP	32	0	0	C	1	M1
TTP	32	0	1	B	0	M1
BRK	32	0	5
TTP	32	192	0	C	1	M1
BRK	32	192	1
TTP	32	192	4	B	0	M1
TTP	32	192	5	B	0	M1
TAP	33	0	2
STR	33	0	6
SI_	33	0	6	96	48	3
STR	33	96	1
SI_	33	96	1	96	48	4
STR	33	192	7
SI_	33	192	7	96	48	4
TAP	33	288	3
STR	34	0	0
SI_	34	0	0	96	48	4
TAP	34	0	1
TAP	34	96	0
TAP	34	96	1
TTP	34	104	2	E	0	M1
TTP	34	112	2	B	0	M1
TTP	34	120	3	B	0	M1
TTP	34	128	4	E	0	M1
XHO	34	192	4	48
XHO	34	192	5	48
HLD	34	264	3	48
HLD	34	264	4	48
TAP	34	336	2
TAP	34	336	3
TAP	35	0	6
STR	35	0	7
SI_	35	0	7	96	48	3
TAP	35	96	6
TAP	35	96	7
TTP	35	104	6	E	0	M1
TTP	35	112	5	B	0	M1
TTP	35	120	4	B	0	M1
TTP	35	128	4	E	0	M1
XHO	35	192	2	48
XHO	35	192	3	48
HLD	35	264	3	48
HLD	35	264	4	48
TAP	35	336	4
TAP	35	336	5
STR	36	0	0
SI_	36	0	0	96	48	4
TAP	36	0	7
TAP	36	96	0
TAP	36	96	1
TTP	36	104	2	E	0	M1
TTP	36	112	2	B	0	M1
TTP	36	120	3	B	0	M1
TTP	36	128	4	E	0	M1
XHO	36	192	4	48
XHO	36	192	5	48
HLD	36	264	3	48
HLD	36	264	4	48
TAP	36	336	2
TAP	36	336	3
TAP	37	0	0
STR	37	0	7
SI_	37	0	7	96	48	3
TAP	37	96	6
TAP	37	96	7
TTP	37	104	6	E	0	M1
TTP	37	112	5	B	0	M1
TTP	37	120	4	B	0	M1
TTP	37	128	4	E	0	M1
XHO	37	192	2	48
XHO	37	192	3	48
HLD	37	264	3	48
HLD	37	264	4	48
TAP	37	336	4
TAP	37	336	5
XTP	38	0	2
XST	38	0	6
SCL	38	0	6	96	48	3
TTP	38	108	2	E	0	M1
TTP	38	120	1	E	0	M1
TTP	38	132	0	E	0	M1
XTP	38	192	3
XST	38	192	7
SCR	38	192	7	96	48	2
TTP	38	300	4	E	0	M1
TTP	38	312	5	E	0	M1
TTP	38	324	6	E	0	M1
XTP	39	0	3
XST	39	0	7
SCL	39	0	7	96	48	4
TTP	39	108	3	E	0	M1
TTP	39	120	2	E	0	M1
TTP	39	132	1	E	0	M1
XST	39	192	0
SCR	39	192	0	96	48	3
XTP	39	192	4
TTP	39	300	5	E	0	M1
TTP	39	312	6	E	0	M1
TTP	39	324	7	E	0	M1
TAP	40	0	7
TAP	40	24	2
TAP	40	48	7
TAP	40	72	2
TAP	40	96	6
TAP	40	120	1
TAP	40	144	6
TAP	40	168	1
TAP	40	192	5
TAP	40	216	0
TAP	40	240	5
TAP	40	264	0
TAP	40	288	4
TAP	40	300	3
TAP	40	312	2
TAP	40	324	1
TAP	40	336	0
TAP	40	348	7
TAP	40	360	6
TAP	40	372	5
HLD	41	0	4	96
TAP	41	96	2
TAP	41	128	3
TAP	41	160	1
TAP	41	192	5
TAP	41	224	4
TAP	41	256	6
BST	41	288	0
SF_	41	288	0	96	24	4
TAP	42	0	0
TTP	42	6	0	B	0	M1
TTP	42	12	0	C	1	M1
TTP	42	18	3	B	0	M1
TTP	42	18	4	B	0	M1
TTP	42	18	5	B	0	M1
HLD	42	192	1	96
TAP	42	192	6
HLD	42	288	3	48
HLD	42	336	2	48
THO	43	0	0	96	C	0	M1
HLD	43	96	0	48
HLD	43	144	2	48
HLD	43	192	1	48
HLD	43	240	3	48
HLD	43	288	2	48
HLD	43	336	4	48
THO	44	0	0	48	C	0	M1
HLD	44	48	0	48
HLD	44	96	2	48
HLD	44	144	1	48
HLD	44	192	3	48
HLD	44	240	2	48
THO	44	288	0	48	C	0	M1
HLD	44	336	0	48
HLD	45	0	2	48
HLD	45	48	1	48
HLD	45	96	3	48
HLD	45	144	2	48
TAP	45	192	4
TAP	45	240	4
TAP	45	288	6
TAP	45	336	6
TAP	46	0	0
TAP	46	48	0
STR	46	96	1
SI_	46	96	1	96	24	5
TAP	46	96	7
TAP	46	144	1
TAP	46	144	7
TAP	46	192	1
HLD	46	192	7	96
TTP	46	204	0	C	1	M1
TAP	47	0	0
HLD	47	0	6	96
HLD	47	96	2	48
HLD	47	144	3	48
HLD	47	192	0	48
HLD	47	240	7	48
HLD	47	288	4	48
HLD	47	336	5	48
HLD	48	0	3	96
HLD	48	192	1	96
HLD	48	192	5	96
STR	49	0	7
SI_	49	0	7	96	48	3
STR	49	96	7
SCR	49	96	7	96	48	2
STR	49	192	7
SCL	49	192	7	96	48	4
STR	49	288	7
SF_	49	288	7	96	24	3
TAP	50	0	7
TTP	50	6	7	B	0	M1
TTP	50	12	0	C	1	M1
TTP	50	18	2	B	0	M1
TTP	50	18	3	B	0	M1
TTP	50	18	4	B	0	M1
TAP	50	192	1
HLD	50	192	6	96
HLD	50	288	4	48
HLD	50	336	5	48
THO	51	0	0	96	C	0	M1
HLD	51	96	7	48
HLD	51	144	5	48
HLD	51	192	6	48
HLD	51	240	4	48
HLD	51	288	5	48
HLD	51	336	3	48
THO	52	0	0	48	C	0	M1
HLD	52	48	7	48
HLD	52	96	5	48
HLD	52	144	6	48
HLD	52	192	4	48
HLD	52	240	5	48
THO	52	288	0	48	C	0	M1
HLD	52	336	7	48
HLD	53	0	5	48
HLD	53	48	6	48
HLD	53	96	4	48
HLD	53	144	5	48
TAP	53	192	3
TAP	53	256	6
TAP	53	256	7
TAP	53	320	0
TAP	53	320	1
STR	54	0	2
SV_	54	0	2	96	48	5
STR	54	0	3
SV_	54	0	3	96	48	5
HLD	54	192	6	96
TAP	54	192	7
HLD	54	288	4	48
HLD	54	336	5	48
THO	55	0	0	96	C	0	M1
HLD	55	96	6	48
HLD	55	144	5	48
HLD	55	192	7	48
HLD	55	240	4	48
HLD	55	288	0	48
HLD	55	336	3	48
HLD	56	0	1	48
TAP	56	48	3
TAP	56	72	2
TAP	56	96	3
TAP	56	144	7
TAP	56	168	0
TAP	56	192	7
TAP	56	240	4
TAP	56	264	5
TAP	56	288	4
TAP	56	336	3
TAP	56	336	5
TAP	57	0	2
STR	57	0	6
SCL	57	0	6	96	48	3
STR	57	96	0
SCR	57	96	0	96	48	3
STR	57	192	7
SUL	57	192	7	96	48	3
STR	57	288	1
SI_	57	288	1	96	48	5
XTP	58	0	3
TAP	58	96	3
TAP	58	192	2
TAP	58	288	2
TAP	59	0	1
TAP	59	96	1
TAP	59	192	0
TAP	59	288	0
TAP	60	0	1
TAP	60	24	7
TAP	60	48	1
TAP	60	72	7
TAP	60	96	2
TAP	60	120	6
TAP	60	144	2
TAP	60	168	6
TAP	60	192	3
TAP	60	216	5
TAP	60	240	3
TAP	60	264	5
TAP	60	288	4
TAP	60	312	4
TAP	60	336	4
TAP	60	360	4
STR	61	0	4
SF_	61	0	4	96	96	0
BRK	61	288	2
BRK	61	288	6
XST	62	0	0
SI_	62	0	0	96	48	4
XTP	62	0	7
TAP	62	72	1
XTP	62	96	0
HLD	62	144	3	96
XTP	62	192	2
TAP	62	216	1
TAP	62	240	0
TAP	62	264	7
XTP	62	288	2
XTP	62	288	6
TAP	62	312	5
TAP	62	336	4
TAP	62	360	3
XST	63	0	7
SI_	63	0	7	96	48	3
TAP	63	72	6
XTP	63	96	7
HLD	63	144	5	96
XST	63	192	6
SI_	63	192	6	96	48	2
STR	63	240	0
SI_	63	240	0	96	48	4
XTP	63	288	6
TAP	63	336	0
XST	64	0	3
SCR	64	0	3	96	96	7
XST	64	96	7
SCR	64	96	7	96	192	7
TTP	64	192	0	C	1	M1
XST	64	288	7
SCR	64	288	7	96	192	7
TTP	65	0	0	C	1	M1
XTP	65	96	0
TAP	65	144	0
TAP	65	192	1
TAP	65	240	1
TAP	65	288	0
TAP	65	288	2
XTP	66	0	1
XST	66	0	7
SI_	66	0	7	96	48	3
TAP	66	72	6
XTP	66	96	7
HLD	66	144	4	96
XTP	66	192	5
TAP	66	216	6
TAP	66	240	7
TAP	66	264	0
XTP	66	288	1
XTP	66	288	5
TAP	66	312	2
TAP	66	336	3
TAP	66	360	4
XST	67	0	0
SCL	67	0	0	96	48	6
TAP	67	72	1
XST	67	96	0
SI_	67	96	0	96	48	5
TAP	67	144	2
XST	67	192	0
SI_	67	192	0	96	48	4
TAP	67	240	3
XTP	67	288	0
TAP	67	336	2
TAP	68	0	1
TAP	68	24	3
TAP	68	48	1
TAP	68	72	3
STR	68	96	1
SI_	68	96	1	96	48	5
TAP	68	144	0
XTP	68	192	1
XST	68	192	7
SI_	68	192	7	96	48	2
XST	68	288	4
SI_	68	288	4	96	48	0
XTP	68	288	7
XTP	69	0	4
TAP	69	0	5
TAP	69	96	6
TAP	69	144	5
BRK	69	192	0
BRK	69	192	4
TAP	69	240	1
TAP	69	288	2
TAP	69	288	5
TAP	69	336	6
TAP	70	0	1
XST	70	0	7
SCR	70	0	7	96	48	2
TAP	70	72	6
XTP	70	96	7
HLD	70	144	3	96
XTP	70	192	4
TAP	70	216	5
TAP	70	240	6
TAP	70	264	7
XTP	70	288	0
XTP	70	288	4
TAP	70	312	1
TAP	70	312	5
TAP	70	336	2
TAP	70	336	6
TAP	70	360	3
TAP	70	360	7
XST	71	0	0
SI_	71	0	0	96	48	4
XTP	71	0	4
TAP	71	72	1
XTP	71	96	0
HLD	71	144	2	96
XST	71	192	1
SI_	71	192	1	96	48	5
STR	71	240	7
SI_	71	240	7	96	48	3
XTP	71	288	1
TAP	71	336	7
XST	72	0	4
SCL	72	0	4	96	96	0
XST	72	96	0
SCL	72	96	0	96	192	0
TTP	72	192	0	C	1	M1
XST	72	288	0
SCL	72	288	0	96	192	0
TTP	73	0	0	C	1	M1
XTP	73	96	7
TAP	73	144	7
TAP	73	192	6
TAP	73	240	6
TAP	73	288	5
TAP	73	288	7
XST	74	0	3
SCR	74	0	3	96	48	6
TAP	74	0	5
TAP	74	72	2
XTP	74	96	3
HLD	74	144	7	96
XTP	74	192	0
TAP	74	216	1
TAP	74	240	2
TAP	74	264	3
XTP	74	288	0
XTP	74	288	4
TAP	74	312	1
TAP	74	312	5
TAP	74	336	2
TAP	74	336	6
TAP	74	360	3
TAP	74	360	7
XTP	75	0	0
XST	75	0	4
SCL	75	0	4	96	48	2
TAP	75	72	5
XST	75	96	4
SI_	75	96	4	96	48	1
TAP	75	144	6
XST	75	192	4
SI_	75	192	4	96	48	0
TAP	75	240	7
XTP	75	288	4
TAP	75	336	6
TAP	76	0	5
TAP	76	24	7
TAP	76	48	5
TAP	76	72	7
STR	76	96	5
SI_	76	96	5	96	48	1
TAP	76	144	4
XST	76	192	3
SI_	76	192	3	96	48	6
BRK	76	192	5
XST	76	288	0
SF_	76	288	0	96	24	4
BRK	76	288	3
BRK	77	0	0
TTP	77	12	0	C	1	M1
TAP	77	288	2
TAP	77	288	5
STR	78	0	7
SCR	78	0	7	96	96	2
STR	78	96	2
SUR	78	96	2	96	96	7
STR	78	192	7
SUR	78	192	7	96	96	4
STR	78	288	4
SCR	78	288	4	96	96	7
STR	79	0	7
SCR	79	0	7	96	96	2
STR	79	96	2
SCR	79	96	2	96	96	5
TAP	79	192	5
TAP	79	288	0
STR	80	0	2
SUL	80	0	2	96	96	5
STR	80	96	5
SCL	80	96	5	96	96	2
STR	80	192	2
SCL	80	192	2	96	96	7
STR	80	288	7
SUL	80	288	7	96	96	2
STR	81	0	2
SUL	81	0	2	96	96	5
STR	81	96	5
SCL	81	96	5	96	96	2
TAP	81	192	2
TAP	81	288	7
STR	82	0	5
SCL	82	0	5	96	96	2
STR	82	96	2
SUL	82	96	2	96	96	5
STR	82	192	5
SUL	82	192	5	96	96	0
STR	82	288	0
SCL	82	288	0	96	96	5
STR	83	0	5
SCL	83	0	5	96	96	2
STR	83	96	2
SCL	83	96	2	96	96	7
TAP	83	192	7
TAP	83	288	4
STR	84	0	2
SUL	84	0	2	96	96	5
STR	84	96	5
SCL	84	96	5	96	96	2
TAP	84	192	2
STR	84	288	7
SUL	84	288	7	96	192	4
SUR	84	288	7	96	192	2
TAP	85	0	7
BRK	85	288	1
BRK	85	288	6
TAP	86	0	1
XST	86	0	7
SCR	86	0	7	96	48	2
TAP	86	72	6
XTP	86	96	7
HLD	86	144	3	96
XTP	86	192	4
TAP	86	216	5
TAP	86	240	6
TAP	86	264	7
XTP	86	288	0
TAP	86	312	1
TAP	86	312	7
TAP	86	336	2
TAP	86	336	6
TAP	86	360	3
TAP	86	360	5
XST	87	0	4
SCR	87	0	4	96	48	6
TAP	87	72	3
XTP	87	96	4
HLD	87	144	7	96
XTP	87	192	0
TAP	87	216	1
TAP	87	240	2
TAP	87	264	3
XTP	87	288	4
TAP	87	312	3
TAP	87	312	5
TAP	87	336	2
TAP	87	336	6
TAP	87	360	1
TAP	87	360	7
XST	88	0	0
SCR	88	0	0	96	48	3
TAP	88	72	7
XTP	88	96	0
HLD	88	144	4	96
XTP	88	192	5
TAP	88	216	6
TAP	88	240	7
TAP	88	264	0
XTP	88	288	1
XTP	88	288	5
TAP	88	312	2
TAP	88	336	3
TAP	88	360	4
STR	89	0	7
SI_	89	0	7	96	48	5
STR	89	48	0
SI_	89	48	0	96	48	2
STR	89	96	7
SI_	89	96	7	96	48	3
STR	89	144	0
SI_	89	144	0	96	48	4
TAP	89	192	7
TAP	89	240	0
BRK	89	288	6
TAP	89	336	5
STR	90	0	0
SI_	90	0	0	96	48	5
TAP	90	24	1
STR	90	48	2
SI_	90	48	2	96	48	7
TAP	90	96	0
TAP	90	144	2
STR	90	192	4
SI_	90	192	4	96	48	1
TAP	90	216	5
STR	90	240	6
SI_	90	240	6	96	48	3
TAP	90	288	4
TAP	90	336	6
STR	91	0	7
SI_	91	0	7	96	48	4
TAP	91	24	0
STR	91	48	1
SI_	91	48	1	96	48	6
TAP	91	96	7
TAP	91	144	1
STR	91	192	3
SI_	91	192	3	96	48	0
TAP	91	216	4
STR	91	240	5
SI_	91	240	5	96	48	2
TAP	91	288	3
TAP	91	336	5
TAP	92	0	7
TAP	92	24	3
TAP	92	48	0
TAP	92	72	4
TAP	92	96	1
TAP	92	120	5
TAP	92	144	2
TAP	92	168	6
BRK	92	192	3
TAP	92	204	4
TAP	92	216	5
TAP	92	228	6
TAP	92	240	7
TAP	92	252	0
TAP	92	264	1
TAP	92	276	2
BRK	92	288	3
TAP	92	300	4
TAP	92	312	5
TAP	92	324	6
TAP	92	336	7
TAP	92	348	0
TAP	92	360	1
TAP	92	372	2
BRK	93	0	3
XST	93	0	7
SI_	93	0	7	96	48	3
XST	93	96	3
SCL	93	96	3	96	96	4
XTP	93	96	7
XST	93	288	0
SF_	93	288	0	96	24	4
BRK	94	0	0
TTP	94	12	0	C	1	M1

T_REC_TAP	409
T_REC_BRK	16
T_REC_XTP	53
T_REC_HLD	81
T_REC_XHO	8
T_REC_STR	78
T_REC_BST	2
T_REC_XST	34
T_REC_TTP	62
T_REC_THO	7
T_REC_SLD	120
T_REC_ALL	870
T_NUM_TAP	636
T_NUM_BRK	18
T_NUM_HLD	96
T_NUM_SLD	120
T_NUM_ALL	870
T_JUDGE_TAP	654
T_JUDGE_HLD	121
T_JUDGE_SLD	120
T_JUDGE_ALL	895
TTM_EACHPAIRS	100
TTM_SCR_TAP	318000
TTM_SCR_BRK	46800
TTM_SCR_HLD	96000
TTM_SCR_SLD	180000
TTM_SCR_ALL	640800
TTM_SCR_S	619850
TTM_SCR_SS	639000
TTM_RAT_ACV	10028

