VERSION	0.00.00	1.03.00
FES_MODE	0
BPM_DEF	185.000	185.000	185.000	185.000
MET_DEF	4	4
RESOLUTION	384
CLK_DEF	384
COMPATIBLE_CODE	MA2

BPM	0	0	185.000
MET	0	0	4	4

TAP	1	0	3
TAP	1	48	3
TAP	1	96	4
TAP	1	144	4
TAP	1	192	3
TAP	1	240	3
XTP	1	288	3
XTP	1	288	4
BST	2	0	1
SCR	2	0	1	96	480	4
HLD	2	0	6	768
TAP	4	0	4
TAP	4	192	4
TAP	5	0	3
TAP	5	192	3
TAP	5	192	4
HLD	6	0	2	144
HLD	6	0	3	240
TAP	7	0	3
TAP	7	96	3
TAP	7	192	2
TAP	7	192	4
HLD	8	0	3	144
HLD	8	0	5	240
TAP	9	0	3
TAP	9	0	5
TAP	9	96	3
TAP	9	96	5
TAP	9	192	2
TAP	9	192	6
HLD	10	0	2	384
TAP	10	0	5
TAP	10	144	3
TAP	10	240	3
TAP	10	336	4
HLD	11	0	4	384
TAP	11	144	2
TAP	11	240	2
TAP	11	336	3
HLD	12	0	3	384
TAP	12	144	4
TAP	12	240	4
TAP	12	336	5
HLD	13	0	5	384
TAP	13	144	4
TAP	13	240	4
TAP	13	336	2
XHO	14	0	2	288
TAP	14	192	3
TAP	14	288	3
XTP	15	0	1
XHO	15	0	5	288
TAP	15	192	4
TAP	15	288	4
HLD	16	0	3	96
HLD	16	0	6	96
HLD	16	192	1	96
HLD	16	192	4	96
TTP	17	0	2	B	0	M1
TTP	17	96	5	B	0	M1
TTP	17	192	0	C	0	M1
BRK	17	288	0
BRK	17	288	7
TAP	18	0	1
TAP	18	48	1
TAP	18	96	3
TAP	18	144	3
TAP	18	192	2
TAP	18	288	4
TAP	18	288	5
TAP	18	336	4
TAP	18	336	5
TAP	19	0	4
TAP	19	0	5
TAP	19	96	3
TAP	19	96	6
TAP	19	192	2
TAP	19	192	3
TAP	19	288	1
TAP	19	288	4
TAP	20	0	6
TAP	20	48	6
TAP	20	96	4
TAP	20	144	4
TAP	20	192	5
TAP	20	288	2
TAP	20	288	3
TAP	20	336	2
TAP	20	336	3
TAP	21	0	2
TAP	21	0	3
TAP	21	96	0
TAP	21	96	1
TAP	21	192	2
TAP	21	192	7
TAP	21	288	2
TAP	21	288	7
TAP	22	0	1
TAP	22	48	1
TAP	22	96	3
TAP	22	144	3
TAP	22	192	2
TAP	22	288	4
TAP	22	288	5
TAP	22	336	4
TAP	22	336	5
TAP	23	0	4
TAP	23	0	5
TAP	23	96	3
TAP	23	96	6
TAP	23	192	2
TAP	23	192	3
TAP	23	288	1
TAP	23	288	4
TAP	24	0	2
TAP	24	48	2
TAP	24	96	3
TAP	24	144	3
HLD	24	192	1	96
STR	24	288	0
SCL	24	288	0	96	192	2
BRK	25	192	0
TAP	26	0	1
TAP	26	48	0
TAP	26	48	1
TAP	26	144	1
TAP	26	144	7
TAP	26	240	2
TAP	26	240	3
TAP	26	336	4
TAP	26	336	5
TAP	27	0	5
TAP	27	48	3
TAP	27	48	6
TAP	27	144	1
TAP	27	144	4
TAP	27	240	6
TAP	27	240	7
TAP	27	336	0
TAP	27	336	1
TAP	28	0	1
TAP	28	48	2
TAP	28	48	7
TAP	28	144	0
TAP	28	144	5
TAP	28	240	4
TAP	28	240	5
TAP	28	336	2
TAP	28	336	3
TAP	29	0	2
TAP	29	48	1
TAP	29	48	4
TAP	29	144	0
TAP	29	144	7
TAP	29	240	3
TAP	29	240	6
BRK	29	288	3
BRK	29	288	6
TAP	30	0	2
TAP	30	48	2
TAP	30	48	3
TAP	30	144	1
TAP	30	144	5
TAP	30	240	3
TAP	30	240	6
TAP	30	336	0
TAP	30	336	1
TAP	31	0	1
TAP	31	48	2
TAP	31	48	7
TAP	31	144	0
TAP	31	144	5
TAP	31	240	2
TAP	31	240	4
TAP	31	336	6
TAP	31	336	7
XHO	32	0	6	96
XHO	32	0	7	96
XHO	32	192	0	96
XHO	32	192	1	96
HLD	33	0	2	96
HLD	33	96	3	96
TAP	33	192	4
TAP	33	288	2
TAP	33	288	4
XHO	34	0	3	96
HLD	34	0	5	96
TAP	34	192	4
TAP	34	288	3
TAP	34	288	5
HLD	35	0	4	96
HLD	35	0	6	96
TAP	35	192	5
TAP	35	288	4
TAP	35	288	6
HLD	36	0	1	96
XHO	36	0	3	96
TAP	36	192	2
TAP	36	288	1
TAP	36	288	3
HLD	37	0	2	96
HLD	37	0	5	96
TAP	37	192	3
TAP	37	192	4
TAP	37	288	2
TAP	37	288	5
HLD	38	0	1	96
BRK	38	0	6
TAP	38	96	3
BRK	38	192	2
HLD	38	192	5	96
TAP	38	288	4
HLD	39	0	2	96
BRK	39	0	6
TAP	39	96	3
BRK	39	192	1
HLD	39	192	5	96
TAP	39	288	4
TAP	40	0	7
TAP	40	96	7
TAP	40	192	0
TAP	40	192	6
TAP	40	240	0
TAP	40	240	6
TAP	40	288	0
TAP	40	288	6
TAP	40	336	0
TAP	40	336	6
BRK	41	0	1
BRK	41	0	5
XTP	41	288	3
XTP	41	288	4
XHO	42	0	1	96
XHO	42	0	6	96
TAP	42	144	1
TAP	42	144	6
TAP	42	192	1
TAP	42	192	6
STR	42	288	2
SUL	42	288	2	96	192	5
HLD	43	0	4	192
TAP	43	288	3
STR	43	288	4
SSL	43	288	4	96	192	0
HLD	44	0	2	192
STR	44	288	1
SSR	44	288	1	96	192	5
TAP	44	288	7
HLD	45	0	6	192
XTP	45	288	4
XTP	45	288	5
TAP	46	0	3
TAP	46	48	3
TAP	46	96	4
BRK	46	192	1
BRK	46	192	5
STR	46	288	0
SCR	46	288	0	96	192	5
TAP	46	288	6
HLD	47	0	7	192
XTP	47	288	4
XTP	47	288	6
HLD	48	0	3	96
HLD	48	0	5	96
TAP	48	144	3
TAP	48	144	5
TAP	48	192	3
TAP	48	192	5
STR	48	288	2
SI_	48	288	2	96	48	4
TAP	48	288	4
XTP	49	96	6
XTP	49	192	6
XTP	49	288	3
XTP	49	288	6
HLD	50	0	2	96
HLD	50	0	7	96
TAP	50	144	2
TAP	50	144	7
TAP	50	192	2
TAP	50	192	7
STR	50	288	3
SCL	50	288	3	96	192	6
TAP	50	288	6
HLD	51	0	5	192
TAP	51	288	4
STR	51	288	5
SSL	51	288	5	96	192	1
HLD	52	0	3	192
TAP	52	288	0
TAP	52	288	7
HLD	53	0	2	96
HLD	53	0	5	96
TAP	53	144	2
TAP	53	144	5
XTP	53	192	2
XTP	53	192	5
XTP	53	256	4
XTP	53	256	5
XTP	53	320	3
XTP	53	320	4
XTP	54	0	2
XTP	54	0	3
BRK	54	96	0
XTP	54	192	1
XTP	54	192	4
STR	54	288	2
SCL	54	288	2	96	192	5
HLD	55	0	3	192
TAP	55	288	4
TAP	55	288	5
HLD	56	0	3	96
HLD	56	0	6	96
TAP	56	144	3
TAP	56	144	6
TAP	56	192	3
TAP	56	192	6
TAP	56	288	4
TAP	56	288	5
TAP	57	0	3
TAP	57	0	4
TAP	57	96	1
TAP	57	96	3
TAP	57	192	0
TAP	57	192	7
XTP	57	288	4
XTP	57	288	6
HLD	58	0	3	96
HLD	58	0	4	96
HLD	58	192	2	96
HLD	58	192	3	96
HLD	59	0	3	96
HLD	59	0	4	96
HLD	59	192	2	96
HLD	59	192	5	96
TAP	60	0	1
TAP	60	48	1
TAP	60	96	6
TAP	60	144	6
TAP	60	192	0
TAP	60	216	7
TAP	60	240	0
TAP	60	264	7
TAP	60	288	0
TAP	60	312	7
TAP	60	336	0
TAP	60	360	7
XHO	61	0	1	288
BRK	61	288	0
TAP	62	0	2
TAP	62	0	4
TAP	62	72	4
TAP	62	72	5
TAP	62	144	6
TAP	62	192	6
TAP	62	240	7
TAP	62	288	0
TAP	62	336	1
TAP	63	0	2
TAP	63	0	4
TAP	63	72	4
TAP	63	72	5
TAP	63	144	6
TAP	63	192	6
TAP	63	192	7
TAP	63	240	0
TAP	63	240	5
STR	63	288	1
SI_	63	288	1	96	48	4
TAP	63	288	4
TAP	64	0	7
TAP	64	96	3
STR	64	96	6
SI_	64	96	6	96	48	3
TAP	64	192	0
STR	64	288	1
SI_	64	288	1	96	48	5
TAP	64	288	4
TAP	65	0	7
XTP	65	96	6
XTP	65	96	7
TAP	65	144	0
TAP	65	144	5
TAP	65	192	1
TAP	65	192	4
BRK	65	288	2
BRK	65	288	6
TAP	66	0	3
TAP	66	0	5
TAP	66	72	2
TAP	66	72	3
TAP	66	144	1
TAP	66	192	1
TAP	66	240	0
TAP	66	288	7
TAP	66	336	6
TAP	67	0	3
TAP	67	0	5
TAP	67	72	2
TAP	67	72	3
TAP	67	144	1
TAP	67	192	0
TAP	67	192	1
TAP	67	240	2
TAP	67	240	7
TAP	67	288	3
TAP	67	288	6
HLD	68	0	4	48
HLD	68	0	5	48
HLD	68	96	3	48
HLD	68	96	6	48
HLD	68	192	2	48
HLD	68	192	3	48
HLD	68	288	1	48
HLD	68	288	4	48
STR	69	0	0
SI_	69	0	0	96	48	4
TAP	69	0	5
STR	69	96	7
SI_	69	96	7	96	48	3
BRK	69	192	2
XTP	69	288	1
XTP	69	288	5
TAP	70	0	0
TAP	70	0	6
TAP	70	72	0
TAP	70	72	1
TAP	70	144	2
TAP	70	192	2
TAP	70	240	3
TAP	70	288	4
TAP	70	336	5
TAP	71	0	0
TAP	71	0	6
TAP	71	72	0
TAP	71	72	1
TAP	71	144	2
TAP	71	192	2
TAP	71	192	3
TAP	71	240	1
TAP	71	240	4
TAP	71	288	0
STR	71	288	5
SI_	71	288	5	96	48	0
TAP	72	0	3
STR	72	96	2
SI_	72	96	2	96	48	7
TAP	72	96	7
TAP	72	192	4
STR	72	288	0
SI_	72	288	0	96	48	3
STR	72	288	5
SI_	72	288	5	96	48	0
XTP	73	96	2
XTP	73	96	7
XTP	73	144	2
XTP	73	144	7
XTP	73	192	2
XTP	73	192	7
BRK	73	288	0
BRK	73	288	5
TAP	74	0	2
TAP	74	0	4
TAP	74	72	4
TAP	74	72	5
TAP	74	144	6
TAP	74	192	6
TAP	74	192	7
TAP	74	240	0
TAP	74	288	1
TAP	74	336	2
TAP	75	0	2
TAP	75	0	4
TAP	75	72	4
TAP	75	72	5
TAP	75	144	6
TAP	75	192	6
TAP	75	192	7
TAP	75	240	0
TAP	75	240	5
XTP	75	288	1
XTP	75	288	4
XTP	76	0	2
XTP	76	24	3
XTP	76	48	2
XTP	76	72	3
XTP	76	96	2
XST	76	192	1
SI_	76	192	1	96	48	7
XTP	76	192	4
STR	76	288	5
SI_	76	288	5	96	48	3
BST	77	0	1
SSR	77	0	1	96	144	5
BRK	77	288	7
XTP	78	0	0
XHO	78	0	6	576
TAP	78	192	7
TAP	78	288	7
TAP	79	0	5
TAP	79	96	4
TAP	79	192	3
TAP	79	288	2
TAP	79	288	4
HLD	80	0	1	480
TAP	80	96	0
TAP	80	192	0
TAP	80	288	2
TAP	81	0	0
TAP	81	96	0
TAP	81	192	2
TAP	81	192	7
TAP	81	288	2
TAP	81	288	7
HLD	82	0	1	576
TTP	82	96	1	E	0	M1
TTP	82	192	3	E	0	M1
TTP	82	288	0	C	0	M1
TTP	83	0	0	E	0	M1
TTP	83	96	2	E	0	M1
TTP	83	192	4	E	0	M1
TTP	83	288	0	C	0	M1
TAP	84	0	0
TAP	84	0	7
TAP	84	96	1
TAP	84	96	6
TAP	84	192	2
TAP	84	192	5
TAP	84	240	2
TAP	84	240	5
STR	84	288	2
SCL	84	288	2	96	192	5
TAP	84	288	5
BRK	85	288	0
BRK	85	288	7
TAP	86	0	1
TAP	86	0	3
TAP	86	72	3
TAP	86	72	4
TAP	86	144	4
TAP	86	144	5
STR	86	192	6
SI_	86	192	6	96	48	2
TAP	86	240	6
TAP	86	288	7
TAP	86	336	0
XTP	87	0	1
XTP	87	0	3
TAP	87	72	3
TAP	87	72	4
TAP	87	144	4
TAP	87	144	5
STR	87	192	6
SI_	87	192	6	96	48	2
TAP	87	240	6
TAP	87	288	7
TAP	87	336	0
XTP	88	0	1
XTP	88	0	3
TAP	88	72	3
TAP	88	72	4
TAP	88	144	4
TAP	88	144	5
STR	88	192	6
SI_	88	192	6	96	48	2
TAP	88	240	6
TAP	88	288	7
TAP	88	336	0
STR	89	0	1
SI_	89	0	1	96	48	4
TAP	89	48	1
STR	89	96	0
SI_	89	96	0	96	48	5
TAP	89	144	0
TAP	89	192	3
BRK	89	288	1
BRK	89	288	4
TAP	90	0	0
TAP	90	0	5
TAP	90	48	5
TAP	90	96	2
TAP	90	144	3
TAP	90	192	1
TAP	90	192	4
TAP	90	240	1
TAP	90	288	5
TAP	90	336	4
TAP	91	0	3
TAP	91	0	6
TAP	91	48	6
TAP	91	96	1
TAP	91	144	0
TAP	91	192	2
TAP	91	192	7
TAP	91	240	2
TAP	91	288	5
TAP	91	336	5
TAP	92	0	3
TAP	92	24	4
TAP	92	48	3
TAP	92	72	4
TAP	92	96	2
TAP	92	120	5
TAP	92	144	2
TAP	92	168	5
TAP	92	192	1
TAP	92	216	6
TAP	92	240	1
TAP	92	264	6
TAP	92	288	0
TAP	92	312	7
TAP	92	336	0
TAP	92	360	7
STR	93	0	0
SI_	93	0	0	96	48	5
STR	93	96	6
SI_	93	96	6	96	48	3
STR	93	192	2
SI_	93	192	2	96	48	7
BST	93	288	4
SI_	93	288	4	96	48	0
TTP	94	0	0	C	1	M1

T_REC_TAP	403
T_REC_BRK	25
T_REC_XTP	48
T_REC_HLD	59
T_REC_XHO	12
T_REC_STR	28
T_REC_BST	3
T_REC_XST	1
T_REC_TTP	11
T_REC_THO	0
T_REC_SLD	32
T_REC_ALL	622
T_NUM_TAP	491
T_NUM_BRK	28
T_NUM_HLD	71
T_NUM_SLD	32
T_NUM_ALL	622
T_JUDGE_TAP	519
T_JUDGE_HLD	234
T_JUDGE_SLD	32
T_JUDGE_ALL	785
TTM_EACHPAIRS	190
TTM_SCR_TAP	245500
TTM_SCR_BRK	72800
TTM_SCR_HLD	71000
TTM_SCR_SLD	48000
TTM_SCR_ALL	437300
TTM_SCR_S	421500
TTM_SCR_SS	434500
TTM_RAT_ACV	10064

