VERSION	0.00.00	1.03.00
FES_MODE	0
BPM_DEF	185.000	185.000	185.000	185.000
MET_DEF	4	4
RESOLUTION	384
CLK_DEF	384
COMPATIBLE_CODE	MA2

BPM	0	0	185.000
MET	0	0	4	4

TAP	1	0	3
TAP	1	0	4
TAP	1	192	2
TAP	1	192	5
THO	2	0	0	1152	C	0	L1
STR	6	0	7
SXR	6	0	7	96	480	4
STR	8	0	3
SXR	8	0	3	96	480	0
HLD	10	0	6	192
HLD	10	192	7	192
HLD	11	0	0	192
TAP	11	192	1
HLD	12	0	2	192
HLD	12	192	3	192
HLD	13	0	4	192
TAP	13	192	5
STR	14	0	6
SI_	14	0	6	96	144	3
STR	15	0	2
SI_	15	0	2	96	144	7
TAP	16	0	6
TAP	16	192	0
TAP	16	192	1
TAP	17	0	7
TAP	17	96	0
TAP	17	96	7
TAP	17	192	1
TAP	17	192	6
TAP	18	0	5
TAP	18	96	5
TAP	18	192	4
TAP	18	288	4
TAP	19	0	3
TAP	19	96	3
TAP	19	192	2
TAP	19	192	4
TAP	20	0	1
TAP	20	96	1
TAP	20	192	0
TAP	20	288	0
TAP	21	0	7
TAP	21	96	7
TAP	21	192	0
TAP	21	192	6
TAP	22	0	6
TAP	22	96	6
TAP	22	192	7
TAP	22	288	7
TAP	23	0	0
TAP	23	96	0
TAP	23	192	1
TAP	23	192	7
TAP	24	0	2
TAP	24	96	2
TAP	24	192	3
TAP	24	288	3
XTP	25	0	3
XTP	25	0	4
XTP	25	96	3
XTP	25	96	4
XTP	25	192	3
XTP	25	192	4
TAP	26	0	5
TAP	26	96	5
TAP	26	192	3
TAP	26	288	3
TAP	27	0	4
TAP	27	0	5
TAP	27	96	4
TAP	27	96	5
TAP	27	192	3
TAP	27	192	6
TAP	28	0	2
TAP	28	96	2
TAP	28	192	4
TAP	28	288	4
TAP	29	0	2
TAP	29	0	3
TAP	29	96	2
TAP	29	96	3
TAP	29	192	1
TAP	29	192	4
TAP	30	0	5
TAP	30	96	5
TAP	30	192	6
TAP	30	288	6
TAP	31	0	7
TAP	31	96	7
TAP	31	192	0
TAP	31	288	0
TAP	32	0	0
TAP	32	0	1
TAP	32	192	6
TAP	32	192	7
XTP	33	0	0
XTP	33	0	7
XTP	33	96	1
XTP	33	96	6
XTP	33	192	2
XTP	33	192	5
STR	34	0	3
SI_	34	0	3	96	144	0
STR	35	0	7
SI_	35	0	7	96	144	4
STR	36	0	3
SCL	36	0	3	96	144	0
STR	37	0	7
SCL	37	0	7	96	144	4
HLD	38	0	2	192
HLD	38	192	3	192
HLD	39	0	4	192
TAP	39	192	5
TAP	40	0	6
TAP	40	96	7
TAP	40	192	0
TAP	40	288	1
BRK	41	0	0
BRK	41	0	7
TTP	42	0	7	E	0	L1
TTP	42	192	6	E	0	L1
TTP	43	0	5	E	0	L1
TTP	43	192	4	E	0	L1
TTP	44	0	3	E	0	L1
TTP	44	192	2	E	0	L1
TTP	45	0	1	E	0	L1
TTP	45	192	0	E	0	L1
TTP	46	0	6	B	0	L1
TTP	46	0	7	B	0	L1
TTP	46	192	4	B	0	L1
TTP	46	192	5	B	0	L1
TTP	47	0	2	B	0	L1
TTP	47	0	3	B	0	L1
TTP	47	192	0	B	0	L1
TTP	47	192	1	B	0	L1
TTP	48	0	5	B	0	L1
TTP	48	0	6	B	0	L1
TTP	48	192	1	B	0	L1
TTP	48	192	2	B	0	L1
TTP	49	0	0	C	1	L1
TTP	49	0	3	B	0	L1
TTP	49	0	4	B	0	L1
STR	50	0	7
SI_	50	0	7	96	144	3
TAP	51	0	2
TAP	51	96	2
TAP	51	192	2
TAP	51	192	3
STR	52	0	1
SI_	52	0	1	96	144	4
TAP	53	0	5
TAP	53	96	5
TAP	53	192	4
TAP	53	192	5
STR	54	0	5
SCL	54	0	5	96	144	2
TAP	55	0	1
TAP	55	96	1
TAP	55	192	0
TAP	55	192	1
TAP	56	0	6
TAP	56	96	6
TAP	56	192	6
TAP	56	192	7
XST	57	0	0
SI_	57	0	0	96	144	3
XST	57	0	7
SI_	57	0	7	96	144	4
TAP	58	0	5
TAP	58	96	4
TAP	58	192	3
TAP	58	288	2
TAP	59	0	1
TAP	59	96	0
TAP	59	192	7
TAP	59	288	6
TAP	60	0	5
TAP	60	48	5
TAP	60	96	5
TAP	60	192	3
TAP	60	240	3
TAP	60	288	3
BRK	61	0	2
BRK	61	0	5
TAP	62	0	6
TAP	62	96	6
TAP	62	192	6
TAP	62	192	7
TAP	62	288	6
TAP	62	288	7
TAP	63	0	1
TAP	63	96	1
TAP	63	192	0
TAP	63	192	1
TAP	63	288	0
TAP	63	288	1
TAP	64	0	2
TAP	64	96	2
TAP	64	192	3
TAP	64	288	3
TAP	65	0	4
TAP	65	96	4
TAP	65	192	3
TAP	65	192	5
TAP	66	0	2
TAP	66	96	2
TAP	66	192	2
TAP	66	192	3
TAP	66	288	2
TAP	66	288	3
TAP	67	0	5
TAP	67	96	5
TAP	67	192	4
TAP	67	192	5
TAP	67	288	4
TAP	67	288	5
TAP	68	0	6
TAP	68	96	6
TAP	68	192	7
TAP	68	288	7
TAP	69	0	0
TAP	69	96	0
TAP	69	96	7
BRK	69	192	1
BRK	69	192	6
TAP	70	0	5
TAP	70	96	4
TAP	70	96	5
TAP	70	192	6
TAP	70	240	6
TAP	70	288	6
TAP	71	0	7
TAP	71	96	0
TAP	71	96	7
TAP	71	192	1
TAP	71	240	1
TAP	71	288	1
TAP	72	0	2
TAP	72	48	2
TAP	72	96	2
TAP	72	192	3
TAP	72	288	4
TAP	72	288	5
TAP	73	0	6
TAP	73	96	6
TAP	73	96	7
TAP	73	192	0
TAP	73	192	5
TAP	74	0	1
TAP	74	96	0
TAP	74	96	1
TAP	74	192	2
TAP	74	240	2
TAP	74	288	2
TAP	75	0	3
TAP	75	96	3
TAP	75	96	4
TAP	75	192	5
TAP	75	240	5
TAP	75	288	5
TAP	76	0	6
TAP	76	48	6
TAP	76	96	6
TAP	76	192	6
TAP	76	192	7
TAP	76	288	0
TAP	76	288	5
BST	77	0	4
SI_	77	0	4	96	144	1
SI_	77	0	4	96	144	7
TAP	78	0	6
TAP	78	96	6
TAP	78	192	7
TAP	78	288	7
TAP	79	0	0
TAP	79	96	0
TAP	79	192	1
TAP	79	192	7
TAP	80	0	2
TAP	80	96	2
TAP	80	192	3
TAP	80	288	3
TAP	81	0	4
TAP	81	96	4
TAP	81	192	3
TAP	81	192	5
TAP	82	0	5
TAP	82	96	5
TAP	82	192	4
TAP	82	288	4
TAP	83	0	3
TAP	83	96	3
TAP	83	192	2
TAP	83	192	4
TAP	84	0	1
TAP	84	96	1
TAP	84	192	0
TAP	84	288	0
TAP	85	0	7
TAP	85	96	7
TAP	85	192	0
TAP	85	192	6
TAP	86	0	5
TAP	86	96	4
TAP	86	96	6
TAP	86	192	5
TAP	86	240	5
TAP	86	288	5
TAP	87	0	2
TAP	87	96	1
TAP	87	96	3
TAP	87	192	2
TAP	87	240	2
TAP	87	288	2
TAP	88	0	3
TAP	88	0	4
TAP	88	96	2
TAP	88	96	5
TAP	88	192	6
TAP	88	240	6
TAP	88	288	6
TAP	89	0	0
TAP	89	48	0
TAP	89	96	0
BRK	89	192	1
BRK	89	192	6
TAP	90	0	5
TAP	90	96	4
TAP	90	192	3
TAP	90	288	2
TAP	91	0	1
TAP	91	96	0
TAP	91	192	7
TAP	91	288	6
TAP	92	0	0
TAP	92	0	7
TAP	92	48	0
TAP	92	48	7
TAP	92	96	0
TAP	92	96	7
TAP	92	192	1
TAP	92	192	6
TAP	92	240	1
TAP	92	240	6
TAP	92	288	1
TAP	92	288	6
TAP	93	0	2
TAP	93	0	5
TAP	93	96	3
TAP	93	96	4
HLD	93	192	2	96
HLD	93	192	5	96
BRK	94	0	1
BRK	94	0	6

T_REC_TAP	268
T_REC_BRK	10
T_REC_XTP	12
T_REC_HLD	11
T_REC_XHO	0
T_REC_STR	11
T_REC_BST	1
T_REC_XST	2
T_REC_TTP	23
T_REC_THO	1
T_REC_SLD	15
T_REC_ALL	354
T_NUM_TAP	316
T_NUM_BRK	11
T_NUM_HLD	12
T_NUM_SLD	15
T_NUM_ALL	354
T_JUDGE_TAP	327
T_JUDGE_HLD	64
T_JUDGE_SLD	15
T_JUDGE_ALL	406
TTM_EACHPAIRS	68
TTM_SCR_TAP	158000
TTM_SCR_BRK	28600
TTM_SCR_HLD	12000
TTM_SCR_SLD	22500
TTM_SCR_ALL	221100
TTM_SCR_S	213400
TTM_SCR_SS	220000
TTM_RAT_ACV	10050

