VERSION	0.00.00	1.03.00
FES_MODE	0
BPM_DEF	185.000	185.000	185.000	185.000
MET_DEF	4	4
RESOLUTION	384
CLK_DEF	384
COMPATIBLE_CODE	MA2

BPM	0	0	185.000
MET	0	0	4	4

HLD	2	0	0	768
TAP	5	0	0
TAP	5	192	0
HLD	6	0	7	384
TAP	7	192	7
HLD	8	0	0	384
HLD	8	0	7	384
XTP	9	192	0
XTP	9	192	7
TAP	10	0	0
TAP	10	192	0
TAP	11	0	1
TAP	11	192	1
TAP	12	0	2
TAP	12	192	2
TAP	13	0	3
TAP	13	192	3
TAP	14	0	3
TAP	14	0	4
TAP	14	192	5
TAP	15	0	4
TAP	15	0	5
TAP	15	192	6
TAP	16	0	6
TAP	16	0	7
TAP	16	192	0
BRK	17	0	0
BRK	17	0	7
TAP	18	0	7
TAP	18	192	7
TAP	19	0	7
TAP	19	192	6
TAP	19	192	7
TAP	20	0	5
TAP	20	192	5
TAP	21	0	5
TAP	21	192	4
TAP	21	192	5
TAP	22	0	2
TAP	22	192	2
TAP	23	0	1
TAP	23	192	0
TAP	23	192	1
TAP	24	0	7
TAP	24	192	7
TAP	25	0	0
TAP	25	0	7
TAP	26	0	0
TAP	26	192	0
TAP	27	0	1
TAP	27	192	1
TAP	28	0	2
TAP	28	192	2
TAP	29	0	3
TAP	29	192	3
TAP	29	192	4
TAP	30	0	4
TAP	30	192	4
TAP	31	0	5
TAP	31	192	5
TAP	32	0	7
TAP	32	192	7
BRK	33	0	0
BRK	33	0	7
TTP	34	0	0	B	0	L1
TTP	34	192	1	B	0	L1
TTP	35	0	2	B	0	L1
TTP	35	192	3	B	0	L1
TTP	36	0	4	B	0	L1
TTP	36	192	5	B	0	L1
TTP	37	0	6	B	0	L1
TTP	38	0	4	B	0	L1
TTP	38	0	5	B	0	L1
TTP	39	0	2	B	0	L1
TTP	39	0	3	B	0	L1
THO	40	0	0	384	C	0	L1
HLD	42	0	0	192
HLD	42	0	1	192
TAP	43	0	0
TAP	43	0	1
TAP	43	192	0
TAP	43	192	1
TAP	44	0	2
TAP	44	96	2
TAP	44	192	2
TAP	45	0	3
TAP	45	96	3
TAP	45	192	3
HLD	46	0	3	192
HLD	46	0	4	192
TAP	47	0	3
TAP	47	0	4
TAP	47	192	3
TAP	47	192	4
TAP	48	0	5
TAP	48	96	5
TAP	48	192	5
TAP	49	0	6
TAP	49	96	6
TAP	49	192	6
HLD	50	0	6	192
HLD	50	0	7	192
TAP	51	0	6
TAP	51	0	7
TAP	51	192	6
TAP	51	192	7
TAP	52	0	5
TAP	52	96	5
TAP	52	192	5
TAP	53	0	4
TAP	53	96	4
TAP	53	192	3
TAP	53	192	4
HLD	54	0	2	192
HLD	54	0	3	192
TAP	55	0	1
TAP	55	96	1
TAP	55	192	1
HLD	56	0	0	192
HLD	56	0	7	192
XTP	57	0	0
XTP	57	0	7
TTP	58	0	0	B	0	L1
TTP	58	0	7	B	0	L1
TTP	58	192	1	B	0	L1
TTP	58	192	6	B	0	L1
TTP	59	0	2	B	0	L1
TTP	59	0	5	B	0	L1
TTP	59	192	3	B	0	L1
TTP	59	192	4	B	0	L1
THO	60	0	0	384	C	1	L1
BRK	62	0	0
TAP	62	96	0
TAP	62	192	0
TAP	63	0	1
TAP	63	96	1
TAP	63	192	1
TAP	64	0	2
TAP	64	96	2
TAP	64	192	2
TAP	65	0	3
TAP	65	96	3
TAP	65	192	3
TAP	65	192	4
TAP	66	0	4
TAP	66	96	4
TAP	66	192	4
TAP	67	0	5
TAP	67	96	5
TAP	67	192	5
TAP	68	0	6
TAP	68	96	6
TAP	68	192	6
TAP	69	0	7
TAP	69	96	7
BRK	69	192	0
BRK	69	192	7
TAP	70	0	6
TAP	70	96	6
TAP	70	192	6
TAP	70	288	6
TAP	71	0	5
TAP	71	96	5
TAP	71	192	5
TAP	72	0	4
TAP	72	96	4
TAP	72	192	4
TAP	72	288	4
TAP	73	0	3
TAP	73	96	3
TAP	73	192	3
TAP	73	192	4
TAP	74	0	2
TAP	74	96	2
TAP	74	192	2
TAP	74	288	2
TAP	75	0	1
TAP	75	96	1
TAP	75	192	0
TAP	75	192	1
TAP	76	0	7
TAP	76	96	7
TAP	76	192	7
TAP	76	288	7
TAP	77	0	0
TAP	77	96	0
BRK	77	192	0
BRK	77	192	7
STR	78	0	0
SI_	78	0	0	96	288	3
STR	80	0	4
SI_	80	0	4	96	288	0
STR	82	0	1
SI_	82	0	1	96	288	5
STR	84	0	6
SI_	84	0	6	96	288	2
BRK	86	0	0
TAP	86	96	0
TAP	86	192	1
TAP	86	288	1
TAP	87	0	2
TAP	87	96	2
TAP	87	192	2
TAP	87	192	3
TAP	87	288	2
TAP	87	288	3
BRK	88	0	4
TAP	88	96	4
TAP	88	192	5
TAP	88	288	5
TAP	89	0	6
TAP	89	96	6
TAP	89	192	0
TAP	89	192	7
TAP	90	0	7
TAP	90	96	7
TAP	90	192	6
TAP	90	288	6
TAP	91	0	5
TAP	91	96	5
TAP	91	192	4
TAP	91	288	4
TAP	92	0	3
TAP	92	0	4
TAP	92	96	3
TAP	92	96	4
TAP	92	192	2
TAP	92	192	5
TAP	92	288	2
TAP	92	288	5
TAP	93	0	1
TAP	93	0	6
TAP	93	96	1
TAP	93	96	6
XTP	93	192	0
XTP	93	192	7
XTP	93	288	0
XTP	93	288	7
BRK	94	0	1
BRK	94	0	6

T_REC_TAP	176
T_REC_BRK	13
T_REC_XTP	8
T_REC_HLD	14
T_REC_XHO	0
T_REC_STR	4
T_REC_BST	0
T_REC_XST	0
T_REC_TTP	19
T_REC_THO	2
T_REC_SLD	4
T_REC_ALL	240
T_NUM_TAP	207
T_NUM_BRK	13
T_NUM_HLD	16
T_NUM_SLD	4
T_NUM_ALL	240
T_JUDGE_TAP	220
T_JUDGE_HLD	96
T_JUDGE_SLD	4
T_JUDGE_ALL	320
TTM_EACHPAIRS	42
TTM_SCR_TAP	103500
TTM_SCR_BRK	33800
TTM_SCR_HLD	16000
TTM_SCR_SLD	6000
TTM_SCR_ALL	159300
TTM_SCR_S	153300
TTM_SCR_SS	158000
TTM_RAT_ACV	10082

