VERSION	0.00.00	1.03.00
FES_MODE	0
BPM_DEF	162.000	162.000	162.000	162.000
MET_DEF	4	4
RESOLUTION	384
CLK_DEF	384
COMPATIBLE_CODE	MA2

BPM	0	0	162.000
MET	0	0	4	4
MET	9	0	4	2
MET	9	192	4	4
MET	81	192	4	3
MET	84	192	4	4

THO	1	0	0	288	C	0	M1
XHO	2	0	0	384
XST	2	0	7
SCL	2	0	7	96	192	3
HLD	3	0	2	192
HLD	3	192	4	192
STR	4	0	6
SCL	4	0	6	96	384	6
SCR	4	0	6	96	384	6
STR	5	192	5
SCL	5	192	5	96	48	2
XTP	6	0	0
XTP	6	0	1
XTP	6	48	2
XTP	6	48	7
XTP	6	144	6
XTP	6	144	7
XTP	6	192	0
XTP	6	192	5
XTP	6	288	2
XTP	6	288	3
XTP	6	336	1
XTP	6	336	4
XTP	7	48	4
XTP	7	48	5
XTP	7	96	3
XTP	7	96	6
XTP	7	192	0
XTP	7	192	7
TAP	7	240	2
TAP	7	264	3
TAP	7	288	2
TAP	7	336	5
TAP	7	360	4
TAP	8	0	5
XTP	8	48	3
XTP	8	48	6
HLD	8	144	0	96
HLD	8	144	7	96
STR	8	288	0
SCR	8	288	0	96	96	6
STR	8	288	1
SCR	8	288	1	96	96	6
BRK	9	192	0
BRK	9	192	1
TAP	9	264	3
TAP	9	288	2
TAP	9	336	4
TAP	10	0	3
TAP	10	0	5
TAP	10	48	6
TAP	10	96	0
TAP	10	96	7
TAP	10	120	6
TAP	10	144	5
TAP	10	168	4
TAP	10	192	2
TAP	10	192	3
TAP	10	240	1
TAP	10	264	0
TAP	10	288	2
TAP	10	336	6
TAP	10	360	7
TAP	11	0	5
TAP	11	48	0
TAP	11	48	4
TAP	11	96	2
TAP	11	120	3
TAP	11	144	0
TAP	11	168	4
BRK	11	192	7
TAP	11	216	5
TAP	11	240	4
TAP	11	264	5
BRK	11	288	0
TAP	11	312	4
TAP	11	336	3
TAP	11	360	4
BRK	12	0	1
TAP	12	24	3
TAP	12	48	2
TAP	12	72	3
BRK	12	96	0
TAP	12	120	4
TAP	12	144	3
TAP	12	168	4
TAP	12	192	7
TAP	12	216	0
TAP	12	240	1
TAP	12	264	2
TAP	12	288	3
TAP	12	288	7
TAP	12	312	6
TAP	12	336	5
TAP	12	360	4
TAP	13	0	0
STR	13	0	3
SI_	13	0	3	96	48	7
XTP	13	96	3
XTP	13	96	5
HLD	13	192	6	72
TAP	13	264	4
TAP	13	288	5
TAP	13	336	3
TTP	14	0	7	E	0	M1
TTP	14	24	7	B	0	M1
TTP	14	48	0	B	0	M1
TTP	14	72	1	E	0	M1
TAP	14	96	4
TAP	14	144	4
TTP	14	192	3	E	0	M1
TTP	14	216	3	B	0	M1
TTP	14	240	4	B	0	M1
TTP	14	264	5	E	0	M1
TTP	14	288	1	E	0	M1
TTP	14	312	0	B	0	M1
TTP	14	336	7	B	0	M1
TTP	14	360	7	E	0	M1
HLD	15	0	2	96
TAP	15	96	4
TAP	15	120	3
TAP	15	144	2
TAP	15	168	1
XTP	15	192	0
XTP	15	192	7
TAP	15	240	6
TAP	15	264	4
TAP	15	288	5
TAP	15	312	3
TAP	15	336	4
TAP	15	360	2
TAP	16	0	1
TAP	16	0	7
TAP	16	48	0
TAP	16	72	0
TAP	16	96	0
TAP	16	144	3
TAP	16	144	5
BST	16	192	2
SV_	16	192	2	96	144	4
BST	16	192	6
SV_	16	192	6	96	144	0
XTP	16	288	2
XTP	16	288	6
STR	17	192	1
SCR	17	192	1	96	48	3
STR	18	0	6
SCL	18	0	6	96	48	4
STR	18	192	2
SI_	18	192	2	96	48	4
STR	18	288	6
SI_	18	288	6	96	48	4
STR	19	0	0
SI_	19	0	0	96	48	4
HLD	19	192	5	48
HLD	19	240	3	48
HLD	19	288	5	48
HLD	19	336	4	48
HLD	20	0	6	96
HLD	20	48	3	48
HLD	20	144	1	96
HLD	20	144	4	96
HLD	20	288	3	48
HLD	20	288	5	48
HLD	21	0	2	48
HLD	21	0	4	48
HLD	21	96	1	48
HLD	21	96	5	48
STR	21	192	0
SI_	21	192	0	96	48	2
STR	21	192	7
SI_	21	192	7	96	48	3
STR	22	0	0
SI_	22	0	0	96	48	4
STR	22	0	7
SI_	22	0	7	96	48	5
STR	22	192	5
SI_	22	192	5	96	48	3
STR	22	240	5
SI_	22	240	5	96	48	7
STR	23	0	2
SI_	23	0	2	96	48	0
SI_	23	0	2	96	48	4
HLD	23	192	5	48
HLD	23	240	0	48
HLD	23	288	6	48
HLD	23	336	1	48
HLD	24	0	7	96
HLD	24	48	2	48
HLD	24	144	0	96
HLD	24	144	5	96
HLD	24	288	1	48
HLD	24	288	6	48
HLD	25	0	2	48
HLD	25	0	7	48
HLD	25	96	0	48
HLD	25	96	3	48
XST	25	192	1
SI_	25	192	1	96	48	3
XST	25	192	2
SI_	25	192	2	96	48	0
XTP	25	240	1
XTP	25	240	2
XST	26	0	5
SI_	26	0	5	96	48	7
XST	26	0	6
SI_	26	0	6	96	48	4
XTP	26	48	5
XTP	26	48	6
XTP	26	192	1
XTP	26	192	3
TAP	26	240	2
XTP	26	288	4
XTP	26	288	6
TAP	26	336	5
XTP	27	0	3
XTP	27	0	4
BRK	27	96	1
BRK	27	96	6
STR	27	192	2
SI_	27	192	2	96	48	0
STR	27	192	3
SI_	27	192	3	96	48	7
STR	28	0	4
SI_	28	0	4	96	48	0
STR	28	0	5
SI_	28	0	5	96	48	7
TAP	28	192	2
TAP	28	192	4
TAP	28	240	3
TAP	28	240	5
STR	28	288	4
SUR	28	288	4	96	96	3
STR	28	288	6
SCR	28	288	6	96	96	1
XST	29	192	3
SUL	29	192	3	96	96	1
XTP	29	240	4
XTP	29	288	5
XTP	29	336	6
XST	30	0	7
SUL	30	0	7	96	96	5
XTP	30	48	0
XTP	30	96	1
XTP	30	144	2
XST	30	192	3
SI_	30	192	3	96	48	0
XTP	30	240	3
XST	30	288	3
SXL	30	288	3	96	96	3
XTP	31	96	0
XST	31	192	4
SXL	31	192	4	96	96	4
TAP	31	240	0
TAP	31	288	1
TAP	31	336	2
XST	32	0	3
SXR	32	0	3	96	96	3
TAP	32	48	7
TAP	32	96	6
TAP	32	144	5
HLD	32	192	4	96
TTP	32	288	5	B	0	M1
TTP	32	288	6	B	0	M1
TTP	32	336	0	C	0	M1
TTP	33	0	1	B	0	M1
TTP	33	0	2	B	0	M1
BRK	33	96	0
BRK	33	96	7
TAP	33	192	3
TAP	33	192	4
TAP	33	288	6
TAP	33	336	7
TAP	34	0	0
TAP	34	48	1
STR	34	96	2
SCR	34	96	2	96	96	5
TTP	34	192	0	B	0	M1
TTP	34	192	7	B	0	M1
TAP	35	0	4
TAP	35	0	6
TAP	35	48	3
TAP	35	48	5
TAP	35	96	2
TAP	35	96	4
TAP	35	144	1
TAP	35	144	3
XTP	35	192	1
TAP	35	216	3
TAP	35	240	1
TAP	35	264	3
TAP	35	288	1
TAP	35	312	3
TAP	35	336	1
TAP	35	360	3
TAP	36	0	1
TAP	36	24	3
TAP	36	48	1
TAP	36	72	3
XTP	36	96	2
TAP	36	120	3
TAP	36	144	2
TAP	36	168	3
XTP	36	192	2
TAP	36	216	4
TAP	36	240	2
TAP	36	264	4
TAP	36	288	2
TAP	36	312	4
TAP	36	336	2
TAP	36	360	4
TAP	37	0	2
TAP	37	24	4
TAP	37	48	2
TAP	37	72	4
TAP	37	96	3
TAP	37	120	4
TAP	37	144	3
TAP	37	168	4
XTP	37	192	3
TAP	37	216	5
XTP	37	240	3
TAP	37	264	5
TAP	37	288	3
TAP	37	312	5
TAP	37	336	3
TAP	37	360	5
TAP	38	0	3
TAP	38	24	5
TAP	38	48	3
TAP	38	72	5
XTP	38	96	2
XTP	38	96	6
XTP	38	192	0
XTP	38	192	7
XTP	38	240	2
XTP	38	240	3
XTP	38	288	4
XTP	38	288	5
BRK	38	336	1
BRK	38	336	6
TAP	39	48	3
TAP	39	48	5
STR	39	96	2
SCL	39	96	2	96	24	0
STR	39	96	6
SCL	39	96	6	96	24	4
XST	39	192	2
SV_	39	192	2	96	24	7
XST	39	192	6
SV_	39	192	6	96	24	3
TAP	39	288	2
TAP	39	288	6
TTP	39	300	0	C	1	M1
BRK	40	0	1
BRK	40	0	5
TAP	40	96	2
TAP	40	96	7
STR	40	144	1
SI_	40	144	1	96	48	5
TAP	40	192	1
STR	40	240	0
SCL	40	240	0	96	48	4
TAP	40	288	0
TAP	40	336	3
TAP	41	0	2
BRK	41	72	1
BRK	41	72	3
STR	41	144	0
SI_	41	144	0	96	48	5
STR	41	192	5
SI_	41	192	5	96	48	3
TAP	41	240	6
TAP	41	264	6
STR	41	336	7
SI_	41	336	7	96	48	2
STR	42	0	2
SI_	42	0	2	96	48	4
TAP	42	48	1
TAP	42	72	1
TAP	42	144	0
TAP	42	192	1
TAP	42	192	5
TAP	42	240	6
TAP	42	264	4
TAP	42	312	1
TAP	42	336	3
TAP	43	0	0
TAP	43	0	1
TAP	43	48	0
TAP	43	48	1
TAP	43	96	2
TAP	43	96	3
TAP	43	144	4
TAP	43	144	5
TAP	43	192	6
STR	43	192	7
SCR	43	192	7	96	48	2
STR	43	288	4
SCR	43	288	4	96	48	7
TAP	43	288	7
STR	44	0	1
SCR	44	0	1	96	48	4
TAP	44	0	4
TAP	44	96	7
TAP	44	144	7
TAP	44	192	4
TAP	44	192	6
TAP	44	240	3
TAP	44	240	4
TAP	44	288	1
TAP	44	288	3
TAP	44	336	0
TAP	44	336	7
TAP	45	0	4
TAP	45	0	6
TTP	45	48	0	C	1	M1
TTP	45	48	3	E	0	M1
TTP	45	48	5	E	0	M1
TAP	45	144	7
XTP	45	192	0
XTP	45	192	6
TAP	45	240	5
TAP	45	288	4
TAP	45	288	6
TAP	45	336	3
TAP	46	0	0
TAP	46	0	2
TAP	46	48	1
TAP	46	48	7
TAP	46	96	0
TAP	46	96	6
TAP	46	144	5
STR	46	192	3
SI_	46	192	3	96	48	0
STR	46	192	4
SI_	46	192	4	96	48	7
BRK	46	288	3
BRK	46	288	4
XHO	47	0	1	48
XHO	47	0	3	48
XHO	47	72	5	48
XHO	47	72	7	48
XTP	47	144	0
XTP	47	144	4
BRK	47	192	2
BRK	47	192	6
TAP	47	288	3
TAP	47	288	4
HLD	48	0	0	72
HLD	48	72	2	72
TAP	48	144	3
HLD	48	192	6	72
HLD	48	264	5	72
TAP	48	336	4
HLD	49	0	2	72
HLD	49	72	3	72
TAP	49	144	4
TTP	49	192	7	E	0	M1
TTP	49	216	6	B	0	M1
TTP	49	240	5	B	0	M1
TTP	49	264	5	E	0	M1
TTP	49	288	1	E	0	M1
TTP	49	312	1	B	0	M1
TTP	49	336	2	B	0	M1
TTP	49	360	3	E	0	M1
TTP	50	0	7	E	0	M1
TTP	50	24	7	B	0	M1
TTP	50	48	0	B	0	M1
TTP	50	72	1	E	0	M1
TTP	50	96	5	E	0	M1
TTP	50	120	4	B	0	M1
TTP	50	144	3	B	0	M1
TTP	50	168	3	E	0	M1
TAP	50	192	7
TAP	50	216	6
TAP	50	240	5
TAP	50	264	4
TAP	50	288	0
TAP	50	312	1
TAP	50	336	2
TAP	50	360	3
XTP	51	0	4
XTP	51	0	5
XTP	51	72	0
XTP	51	72	7
XTP	51	144	1
XTP	51	144	2
XST	51	192	0
SCR	51	192	0	96	288	4
XTP	51	192	3
TAP	52	144	5
TAP	52	168	6
STR	52	192	7
SCL	52	192	7	96	288	3
TAP	53	0	2
TAP	53	72	1
TAP	53	144	0
STR	53	192	0
SCR	53	192	0	96	288	4
TAP	54	144	5
TAP	54	168	6
STR	54	192	7
SCL	54	192	7	96	288	3
TAP	55	0	1
THO	55	192	0	384	C	0	M1
STR	56	288	7
SSR	56	288	7	96	96	3
HLD	57	192	1	48
HLD	57	240	3	48
HLD	57	288	5	48
HLD	57	336	7	48
HLD	58	0	1	48
HLD	58	48	3	48
HLD	58	96	5	48
HLD	58	144	7	48
HLD	58	192	1	48
HLD	58	240	3	48
HLD	58	288	5	48
HLD	58	336	7	48
TAP	59	0	0
BRK	59	48	1
BRK	59	48	6
XTP	59	192	0
XTP	59	192	4
TAP	59	240	1
TAP	59	264	3
TAP	59	288	2
TAP	59	312	4
TAP	59	336	3
TAP	59	360	5
TAP	60	0	0
TAP	60	0	6
TAP	60	48	7
TAP	60	72	7
TAP	60	96	7
TAP	60	144	2
TAP	60	144	4
XTP	60	192	3
XTP	60	192	5
TAP	60	240	5
TAP	60	264	4
XTP	60	288	3
XTP	60	288	6
TAP	60	336	2
TAP	60	360	3
BRK	61	0	1
XTP	61	0	4
BRK	61	48	1
XTP	61	48	4
BRK	61	96	2
XTP	61	96	5
BRK	61	144	3
XTP	61	144	6
XTP	61	192	6
TAP	61	216	3
TAP	61	240	6
TAP	61	264	3
TAP	61	288	6
TAP	61	312	3
TAP	61	336	6
TAP	61	360	3
TAP	62	0	6
TAP	62	24	3
TAP	62	48	6
TAP	62	72	3
TAP	62	96	5
TAP	62	120	3
TAP	62	144	5
TAP	62	168	3
XTP	62	192	5
TAP	62	216	2
TAP	62	240	5
TAP	62	264	2
TAP	62	288	5
TAP	62	312	2
TAP	62	336	5
TAP	62	360	2
TAP	63	0	5
TAP	63	24	2
TAP	63	48	5
TAP	63	72	2
TAP	63	96	4
TAP	63	120	2
TAP	63	144	4
TAP	63	168	2
XTP	63	192	4
TAP	63	216	1
XTP	63	240	4
TAP	63	264	1
TAP	63	288	4
TAP	63	312	1
TAP	63	336	4
TAP	63	360	1
TAP	64	0	4
TAP	64	24	1
TAP	64	48	4
TAP	64	72	1
TAP	64	96	3
TAP	64	120	2
TAP	64	144	3
TAP	64	168	2
XTP	64	192	1
XTP	64	192	4
XTP	64	240	1
XTP	64	240	4
XTP	64	288	3
XTP	64	288	6
BRK	64	336	3
BRK	64	336	6
TAP	65	48	2
TAP	65	48	4
XTP	65	96	1
TAP	65	108	2
TAP	65	120	3
TAP	65	132	4
TAP	65	144	5
TAP	65	156	6
TAP	65	168	7
TAP	65	180	0
XST	65	192	1
SV_	65	192	1	96	24	4
XST	65	192	5
SV_	65	192	5	96	24	0
XTP	65	288	1
XTP	65	288	5
TTP	65	300	0	C	1	M1
BRK	66	0	2
BRK	66	0	6
TAP	66	96	0
TAP	66	96	5
STR	66	144	6
SI_	66	144	6	96	48	2
TAP	66	192	6
STR	66	240	7
SCR	66	240	7	96	48	3
TAP	66	288	7
TAP	66	336	4
TAP	67	0	5
BRK	67	72	4
BRK	67	72	6
STR	67	144	6
SI_	67	144	6	96	48	4
STR	67	192	4
SI_	67	192	4	96	48	0
TAP	67	240	2
TAP	67	264	2
STR	67	336	1
SLR	67	336	1	96	96	7
TAP	68	0	3
TAP	68	48	5
TAP	68	72	5
TAP	68	144	6
TAP	68	192	0
TAP	68	192	6
TAP	68	240	1
TAP	68	264	3
TAP	68	312	6
TAP	68	336	4
BRK	69	0	3
BRK	69	0	7
TAP	69	48	6
TAP	69	96	2
TAP	69	96	5
TAP	69	144	3
STR	69	192	4
SI_	69	192	4	96	48	0
TAP	69	192	5
TAP	69	288	4
STR	69	288	6
SI_	69	288	6	96	48	2
TAP	70	0	6
STR	70	0	7
SCR	70	0	7	96	48	2
STR	70	96	5
SI_	70	96	5	96	48	1
TAP	70	96	7
STR	70	192	0
SI_	70	192	0	96	48	4
TAP	70	192	5
TAP	70	288	6
TAP	70	336	6
TAP	71	0	4
TAP	71	0	5
TTP	71	48	0	C	1	M1
TTP	71	48	3	B	0	M1
TTP	71	48	6	B	0	M1
TAP	71	144	0
XTP	71	192	1
XTP	71	192	7
TAP	71	240	2
TAP	71	288	3
TAP	71	288	4
TAP	71	336	5
TAP	72	0	0
TAP	72	0	6
TAP	72	48	0
TAP	72	48	6
XTP	72	96	7
XTP	72	120	7
XTP	72	144	7
XTP	72	168	7
XTP	72	192	7
XTP	72	288	1
XTP	72	288	5
XTP	73	0	0
XTP	73	0	6
TAP	73	192	3
TAP	74	0	2
TAP	74	0	4
TAP	74	96	2
TAP	74	96	4
HLD	74	192	5	96
TAP	74	288	4
HLD	75	0	2	96
TAP	75	96	3
XST	75	192	1
SCR	75	192	1	96	24	3
XST	75	192	6
SCL	75	192	6	96	24	4
TAP	75	240	0
TAP	75	240	7
BRK	75	288	1
BRK	75	288	6
XTP	76	0	1
XTP	76	0	3
TAP	76	48	2
XTP	76	96	4
XTP	76	96	6
TAP	76	144	5
XST	76	192	3
SI_	76	192	3	96	48	7
XTP	76	192	4
TAP	76	288	3
TAP	76	288	5
TAP	76	360	6
STR	77	0	6
SI_	77	0	6	96	48	2
TAP	77	48	5
STR	77	96	1
SI_	77	96	1	96	48	5
TAP	77	96	6
TAP	77	144	0
TAP	77	192	1
STR	77	192	7
SI_	77	192	7	96	48	3
TAP	77	240	6
TAP	77	288	0
TAP	77	288	7
TAP	77	336	1
TAP	78	0	2
TAP	78	0	3
TTP	78	48	0	C	1	M1
TTP	78	48	1	B	0	M1
TTP	78	48	4	B	0	M1
TAP	78	144	7
TAP	78	192	0
STR	78	192	6
SI_	78	192	6	96	48	3
TAP	78	240	1
TAP	78	240	7
TAP	78	288	0
TAP	78	288	6
TAP	79	0	0
STR	79	0	6
SI_	79	0	6	96	48	3
TAP	79	48	1
TAP	79	48	7
TAP	79	96	2
TAP	79	96	6
TAP	79	192	2
STR	79	192	4
SI_	79	192	4	96	48	0
TAP	79	240	3
TAP	79	240	5
TAP	79	288	2
TAP	79	288	4
TAP	80	0	2
STR	80	0	4
SI_	80	0	4	96	48	0
TAP	80	48	3
TAP	80	48	5
TAP	80	96	1
TAP	80	96	4
STR	80	192	1
SI_	80	192	1	96	48	5
TAP	80	192	4
TAP	80	240	0
TAP	80	240	3
TAP	80	288	1
TAP	80	288	6
TAP	80	336	6
STR	81	0	1
SI_	81	0	1	96	48	5
TAP	81	0	4
TAP	81	48	0
TAP	81	48	3
TAP	81	96	1
TAP	81	96	6
TAP	81	144	6
XST	81	192	3
SXR	81	192	3	96	384	3
XST	81	192	7
SXR	81	192	7	96	384	7
TAP	83	0	6
TAP	83	48	5
HLD	83	96	5	144
TAP	83	144	3
TAP	83	192	2
HLD	83	240	2	144
TAP	83	288	4
TAP	83	336	3
HLD	84	0	3	384
STR	84	48	1
SSR	84	48	1	96	240	5
TAP	84	96	1
TTP	85	192	0	C	1	M1
TTP	85	192	5	B	0	M1
TTP	85	192	5	E	0	M1
TTP	85	192	6	E	0	M1
XHO	85	192	7	96
TTP	86	0	0	C	1	M1
XHO	86	0	0	96
TTP	86	0	2	B	0	M1
TTP	86	0	2	E	0	M1
TTP	86	0	3	E	0	M1
TTP	86	192	0	C	1	M1
XHO	86	192	5	96
TTP	86	192	6	B	0	M1
TTP	86	192	6	E	0	M1
TTP	86	192	7	E	0	M1
TTP	87	0	0	C	1	M1
TTP	87	0	1	B	0	M1
TTP	87	0	1	E	0	M1
TTP	87	0	2	E	0	M1
XHO	87	0	2	96
TTP	87	168	7	B	0	M1
TTP	87	174	6	B	0	M1
TTP	87	180	5	B	0	M1
TTP	87	186	4	B	0	M1
TTP	87	192	3	B	0	M1
TTP	87	198	2	B	0	M1
TTP	87	204	1	B	0	M1
TTP	87	210	0	B	0	M1
BRK	88	0	0
XHO	88	0	7	96
XTP	88	96	1
XTP	88	108	2
XTP	88	120	3
XTP	88	132	4
XTP	88	144	5
XTP	88	156	6
XTP	88	168	7
XTP	88	180	0
XTP	88	192	1
XTP	88	204	2
XTP	88	216	3
XTP	88	228	4
XTP	88	240	5
XTP	88	252	6
XTP	88	264	7
XTP	88	276	0
XTP	88	288	1
XTP	88	300	2
XTP	88	312	3
XTP	88	324	4
XTP	88	336	5
XTP	88	348	6
XTP	88	360	7
XTP	88	372	0
XTP	89	0	1
XTP	89	12	2
XTP	89	24	3
XTP	89	36	4
XTP	89	48	5
XTP	89	60	6
XTP	89	72	7
XTP	89	84	0
XTP	89	96	1
XTP	89	108	2
XTP	89	120	3
XTP	89	132	4
XTP	89	144	5
XTP	89	156	6
XTP	89	168	7
XTP	89	180	0
XTP	89	192	1
XTP	89	204	2
XTP	89	216	3
XTP	89	228	4
XTP	89	240	5
XTP	89	252	6
XTP	89	264	7
XTP	89	276	0
XTP	89	288	1
XTP	89	300	2
XTP	89	312	3
XTP	89	324	4
XTP	89	336	5
XTP	89	348	6
XTP	89	360	7
XTP	89	372	0
TTP	90	0	0	C	1	M1
BRK	90	0	1
TTP	90	0	3	B	0	M1
TTP	90	0	4	B	0	M1

T_REC_TAP	392
T_REC_BRK	38
T_REC_XTP	163
T_REC_HLD	58
T_REC_XHO	10
T_REC_STR	61
T_REC_BST	2
T_REC_XST	21
T_REC_TTP	73
T_REC_THO	2
T_REC_SLD	86
T_REC_ALL	906
T_NUM_TAP	710
T_NUM_BRK	40
T_NUM_HLD	70
T_NUM_SLD	86
T_NUM_ALL	906
T_JUDGE_TAP	750
T_JUDGE_HLD	130
T_JUDGE_SLD	86
T_JUDGE_ALL	966
TTM_EACHPAIRS	164
TTM_SCR_TAP	355000
TTM_SCR_BRK	104000
TTM_SCR_HLD	70000
TTM_SCR_SLD	129000
TTM_SCR_ALL	658000
TTM_SCR_S	634400
TTM_SCR_SS	654000
TTM_RAT_ACV	10061

