VERSION	0.00.00	1.03.00
FES_MODE	0
BPM_DEF	162.000	162.000	162.000	162.000
MET_DEF	4	4
RESOLUTION	384
CLK_DEF	384
COMPATIBLE_CODE	MA2

BPM	0	0	162.000
MET	0	0	4	4
MET	9	0	4	2
MET	9	192	4	4
MET	81	192	4	3
MET	84	192	4	4

TTP	2	0	0	C	1	M1
TTP	2	0	2	B	0	M1
TTP	2	0	3	B	0	M1
TTP	2	0	4	B	0	M1
TTP	2	0	5	B	0	M1
TTP	4	0	0	C	1	M1
TTP	4	0	1	B	0	M1
TTP	4	0	2	B	0	M1
TTP	4	0	5	B	0	M1
TTP	4	0	6	B	0	M1
THO	5	192	0	96	C	0	M1
TTP	5	192	3	B	0	M1
TTP	5	192	4	B	0	M1
XTP	6	0	0
XTP	6	0	7
XTP	6	48	0
XTP	6	48	7
TAP	6	144	6
TAP	6	144	7
TAP	6	192	6
TAP	6	192	7
TAP	6	288	0
TAP	6	288	1
TAP	6	336	0
TAP	6	336	1
TAP	7	48	0
TAP	7	48	7
STR	7	96	0
SXL	7	96	0	96	144	0
STR	7	96	7
SXR	7	96	7	96	144	7
XST	8	48	0
SXL	8	48	0	96	288	5
XTP	8	48	7
HLD	9	96	6	96
BRK	9	192	0
TAP	9	288	4
TAP	9	288	5
TAP	10	0	2
TAP	10	48	2
TAP	10	96	4
TAP	10	144	4
STR	10	192	1
SI_	10	192	1	96	48	3
STR	10	288	7
SI_	10	288	7	96	48	5
STR	11	0	0
SI_	11	0	0	96	48	4
TAP	11	192	7
TAP	11	240	7
TAP	11	288	6
TAP	11	336	6
TAP	12	0	5
TAP	12	48	5
TAP	12	96	3
TAP	12	96	4
TAP	12	144	3
TAP	12	144	4
TAP	12	192	2
TAP	12	240	2
TAP	12	288	1
TAP	12	336	1
HLD	13	0	0	96
BRK	13	96	7
HLD	13	192	1	96
HLD	13	192	2	96
HLD	14	0	3	96
HLD	14	0	4	96
HLD	14	192	5	96
HLD	14	192	6	96
HLD	15	0	0	96
HLD	15	0	7	96
STR	15	192	6
SI_	15	192	6	96	48	2
STR	15	288	1
SCL	15	288	1	96	192	3
TTP	16	192	0	C	1	M1
XHO	16	288	0	192
XHO	16	288	7	192
TAP	17	192	2
TAP	17	192	3
TAP	17	288	2
TAP	17	288	3
TAP	18	0	4
TAP	18	0	5
TAP	18	96	4
TAP	18	96	5
TAP	18	192	0
TAP	18	192	1
TAP	18	288	0
TAP	18	288	1
TAP	19	0	6
TAP	19	0	7
TAP	19	96	6
TAP	19	96	7
TAP	19	192	5
TAP	19	288	4
TAP	19	288	6
TAP	20	0	2
TAP	20	96	1
TAP	20	96	3
TAP	20	192	3
TAP	20	192	4
STR	20	288	3
SXR	20	288	3	96	96	1
STR	20	288	4
SXL	20	288	4	96	96	6
TAP	21	192	0
TAP	21	192	1
TAP	21	288	0
TAP	21	288	1
TAP	22	0	6
TAP	22	0	7
TAP	22	96	6
TAP	22	96	7
TAP	22	192	2
TAP	22	192	3
TAP	22	288	2
TAP	22	288	3
TAP	23	0	4
TAP	23	0	5
TAP	23	96	4
TAP	23	96	5
TAP	23	192	7
TAP	23	288	6
TAP	23	288	7
TAP	24	0	0
TAP	24	96	0
TAP	24	96	1
TAP	24	192	7
STR	24	288	0
SCR	24	288	0	96	96	3
STR	24	288	4
SCR	24	288	4	96	96	7
XST	25	192	3
SI_	25	192	3	96	48	0
XST	25	192	7
SI_	25	192	7	96	48	4
XST	26	0	0
SI_	26	0	0	96	48	3
XST	26	0	4
SI_	26	0	4	96	48	7
XST	26	192	3
SI_	26	192	3	96	48	0
XST	26	192	7
SI_	26	192	7	96	48	4
XTP	27	0	0
XTP	27	0	4
XTP	27	96	2
XTP	27	96	6
TAP	27	192	3
TAP	27	192	5
TAP	27	288	3
TAP	27	288	5
TAP	28	0	2
TAP	28	0	4
TAP	28	48	2
TAP	28	48	4
TAP	28	96	2
TAP	28	96	4
TAP	28	192	3
TAP	28	192	5
TAP	28	288	3
STR	28	288	5
SCR	28	288	5	96	96	2
SV_	28	288	5	96	96	2
TAP	29	192	1
TAP	29	192	7
TAP	29	288	0
TAP	29	288	6
TAP	30	0	5
TAP	30	0	7
TAP	30	96	0
TAP	30	96	6
TAP	30	192	1
TAP	30	192	7
TAP	30	288	0
TAP	30	288	2
TAP	31	0	1
TAP	31	0	7
TAP	31	96	2
TAP	31	96	6
TTP	31	192	0	C	0	M1
TTP	31	192	3	B	0	M1
TTP	31	192	4	B	0	M1
TTP	32	0	0	C	0	M1
TTP	32	0	2	B	0	M1
TTP	32	0	5	B	0	M1
TTP	32	192	0	C	0	M1
TTP	32	192	1	B	0	M1
TTP	32	192	6	B	0	M1
TTP	32	288	0	E	0	M1
TTP	33	0	0	C	1	M1
TTP	33	0	3	B	0	M1
TTP	33	0	4	B	0	M1
TAP	33	192	0
TAP	33	192	7
TAP	33	288	6
TAP	33	288	7
TAP	34	0	0
TAP	34	0	7
TAP	34	96	0
STR	34	96	1
SCR	34	96	1	96	192	6
XTP	35	96	0
XTP	35	96	7
TAP	35	192	4
TAP	35	192	6
TAP	35	288	3
TAP	35	288	5
TAP	36	0	2
TAP	36	0	4
TAP	36	96	1
TAP	36	96	3
TAP	36	144	1
TAP	36	144	3
TAP	36	192	1
TAP	36	192	3
TAP	36	288	2
TAP	36	288	4
TAP	37	0	3
TAP	37	0	5
TAP	37	96	4
TAP	37	96	6
TAP	37	144	4
TAP	37	144	6
TAP	37	192	4
TAP	37	192	6
TAP	37	288	3
TAP	37	288	5
TAP	38	0	2
TAP	38	0	4
TAP	38	96	1
TAP	38	96	3
XTP	38	192	0
XTP	38	192	4
XTP	38	240	1
XTP	38	240	5
XTP	38	288	2
XTP	38	288	6
XTP	38	336	3
XHO	38	336	7	96
TAP	39	48	0
TAP	39	96	0
STR	39	192	0
SI_	39	192	0	96	48	4
STR	39	192	1
SI_	39	192	1	96	48	3
BRK	40	0	6
BRK	40	0	7
TAP	40	96	6
TAP	40	96	7
TAP	40	192	0
TAP	40	192	1
TAP	40	288	0
TAP	40	288	1
TAP	41	0	2
TAP	41	0	3
TAP	41	48	2
TAP	41	48	3
TAP	41	96	1
TAP	41	96	4
HLD	41	192	5	96
TAP	41	288	7
HLD	42	0	2	96
TAP	42	96	0
TAP	42	192	6
TAP	42	288	1
TAP	42	288	5
XTP	43	0	2
XTP	43	0	6
XTP	43	96	1
XTP	43	96	5
STR	43	192	6
SI_	43	192	6	96	48	4
STR	43	192	7
SI_	43	192	7	96	48	3
TAP	44	0	0
TAP	44	0	1
TAP	44	96	0
TAP	44	96	1
TAP	44	192	6
TAP	44	192	7
STR	44	288	6
SV_	44	288	6	96	96	3
STR	44	288	7
SCR	44	288	7	96	96	2
HLD	45	192	2	96
TAP	45	288	0
HLD	46	0	5	96
TAP	46	96	7
TAP	46	192	1
TAP	46	288	2
TAP	46	288	4
XTP	47	0	1
XTP	47	0	5
XTP	47	72	1
XTP	47	72	5
XTP	47	144	2
XTP	47	144	6
XTP	47	192	2
XTP	47	192	6
TAP	47	288	3
TAP	47	288	5
HLD	48	0	6	72
HLD	48	72	5	72
TAP	48	144	4
HLD	48	192	3	72
HLD	48	264	2	72
TAP	48	336	1
HLD	49	0	1	72
HLD	49	72	2	72
TAP	49	144	3
TAP	49	192	3
TAP	49	288	1
STR	49	288	5
SI_	49	288	5	96	48	2
HLD	50	144	0	96
TAP	50	240	7
TAP	50	288	7
TAP	51	0	1
TAP	51	0	6
TAP	51	72	2
TAP	51	72	5
TAP	51	144	3
TAP	51	144	4
STR	51	192	3
SUR	51	192	3	96	96	0
STR	51	192	4
SCR	51	192	4	96	96	7
TAP	52	144	0
TAP	52	144	7
STR	52	192	0
SCR	52	192	0	96	96	3
STR	52	192	7
SUR	52	192	7	96	96	4
TAP	53	144	3
TAP	53	144	4
STR	53	192	3
SCL	53	192	3	96	96	0
STR	53	192	4
SUL	53	192	4	96	96	7
TAP	54	144	0
TAP	54	144	7
STR	54	192	0
SUL	54	192	0	96	96	3
STR	54	192	7
SCL	54	192	7	96	96	4
TAP	55	144	3
TAP	55	144	4
STR	55	192	3
SXR	55	192	3	96	288	7
STR	55	192	4
SXL	55	192	4	96	288	0
THO	57	0	0	96	C	0	M1
TTP	57	0	3	B	0	M1
TTP	57	0	4	B	0	M1
HLD	57	192	0	96
HLD	57	288	7	96
HLD	58	0	6	96
HLD	58	96	5	96
HLD	58	192	4	96
HLD	58	288	3	96
TAP	59	0	2
XTP	59	48	1
XTP	59	48	4
STR	59	192	5
SCL	59	192	5	96	96	2
STR	60	0	1
SCL	60	0	1	96	96	6
HLD	60	192	5	96
HLD	60	288	4	96
XTP	61	0	3
XTP	61	48	3
XTP	61	48	4
XTP	61	96	3
XTP	61	96	4
TAP	61	192	0
TAP	61	192	2
TAP	61	288	1
TAP	61	288	7
TAP	62	0	0
TAP	62	0	6
TAP	62	96	5
TAP	62	96	7
TAP	62	144	5
TAP	62	144	7
TAP	62	192	5
TAP	62	192	7
TAP	62	288	0
TAP	62	288	6
TAP	63	0	1
TAP	63	0	7
TAP	63	96	0
TAP	63	96	2
TAP	63	144	0
TAP	63	144	2
TAP	63	192	0
TAP	63	192	2
TAP	63	288	1
TAP	63	288	7
TAP	64	0	0
TAP	64	0	6
TAP	64	96	5
TAP	64	96	7
XTP	64	192	0
XTP	64	192	4
XTP	64	240	1
XTP	64	240	5
XTP	64	288	2
XTP	64	288	6
XTP	64	336	3
XHO	64	336	7	96
TAP	65	48	0
STR	65	96	0
SF_	65	96	0	96	48	4
BRK	65	288	1
BRK	65	288	7
BRK	66	0	0
BRK	66	0	1
TAP	66	96	0
TAP	66	96	1
TAP	66	192	6
TAP	66	192	7
TAP	66	288	6
TAP	66	288	7
TAP	67	0	4
TAP	67	0	5
TAP	67	48	4
TAP	67	48	5
TAP	67	96	3
TAP	67	96	6
TAP	67	192	2
TAP	67	240	2
TAP	67	288	0
TAP	67	288	3
TAP	68	0	5
TAP	68	48	5
TAP	68	96	4
TAP	68	96	7
TAP	68	192	1
TAP	68	288	2
TAP	68	288	6
XTP	69	0	1
XTP	69	0	5
XTP	69	48	1
XTP	69	48	5
XTP	69	96	1
XTP	69	96	5
STR	69	192	0
SI_	69	192	0	96	48	4
STR	69	192	1
SI_	69	192	1	96	48	3
TAP	70	0	6
TAP	70	0	7
TAP	70	96	6
TAP	70	96	7
TAP	70	192	0
TAP	70	192	1
STR	70	288	0
SCL	70	288	0	96	96	5
STR	70	288	1
SV_	70	288	1	96	96	4
TAP	71	192	5
TAP	71	240	5
TAP	71	288	4
TAP	71	288	7
TAP	72	0	2
TAP	72	48	2
TAP	72	96	0
STR	72	96	3
SCL	72	96	3	96	384	4
TTP	72	192	0	C	1	M1
TAP	74	0	2
TAP	74	0	5
TAP	74	96	2
TAP	74	96	5
XST	74	192	0
SI_	74	192	0	96	48	3
XST	74	192	4
SI_	74	192	4	96	48	7
XST	75	0	3
SI_	75	0	3	96	48	0
XST	75	0	7
SI_	75	0	7	96	48	4
XST	75	192	0
SI_	75	192	0	96	48	3
XST	75	192	4
SI_	75	192	4	96	48	7
XTP	76	0	3
XTP	76	0	7
XTP	76	96	3
XTP	76	96	7
STR	76	192	4
SI_	76	192	4	96	48	1
STR	76	192	5
SI_	76	192	5	96	48	0
STR	77	0	2
SI_	77	0	2	96	48	7
STR	77	0	3
SI_	77	0	3	96	48	6
TAP	77	192	4
TAP	77	192	5
STR	77	288	4
SCL	77	288	4	96	96	1
STR	77	288	5
SUL	77	288	5	96	96	0
TAP	78	192	0
TAP	78	192	1
TAP	78	288	4
TAP	78	288	5
TAP	79	0	6
TAP	79	0	7
TAP	79	96	2
TAP	79	96	3
TAP	79	192	0
TAP	79	192	1
TAP	79	288	2
TAP	79	288	7
TAP	80	0	6
TAP	80	0	7
TAP	80	96	0
TAP	80	96	5
TAP	80	192	4
TAP	80	192	5
TAP	80	288	2
TAP	80	288	3
TAP	81	0	4
TAP	81	0	5
HLD	81	96	2	384
STR	81	96	3
SUR	81	96	3	96	288	5
TAP	83	0	5
TAP	83	48	4
TAP	83	96	3
TAP	83	144	5
TAP	83	192	4
TAP	83	240	3
TAP	83	288	4
TAP	83	336	3
TAP	84	0	2
TAP	84	48	4
TAP	84	96	3
TAP	84	144	2
HLD	84	192	2	288
STR	85	192	0
SI_	85	192	0	96	48	5
STR	85	192	1
SI_	85	192	1	96	48	4
STR	86	0	6
SI_	86	0	6	96	48	3
STR	86	0	7
SI_	86	0	7	96	48	2
STR	86	192	0
SI_	86	192	0	96	48	5
STR	86	192	1
SI_	86	192	1	96	48	4
STR	87	0	6
SI_	87	0	6	96	48	3
STR	87	0	7
SI_	87	0	7	96	48	2
HLD	87	192	1	192
THO	88	0	0	768	C	1	M1
TTP	88	0	4	B	0	M1
TTP	88	0	5	B	0	M1
BRK	90	0	0

T_REC_TAP	300
T_REC_BRK	9
T_REC_XTP	54
T_REC_HLD	32
T_REC_XHO	4
T_REC_STR	53
T_REC_BST	0
T_REC_XST	13
T_REC_TTP	31
T_REC_THO	3
T_REC_SLD	67
T_REC_ALL	566
T_NUM_TAP	451
T_NUM_BRK	9
T_NUM_HLD	39
T_NUM_SLD	67
T_NUM_ALL	566
T_JUDGE_TAP	460
T_JUDGE_HLD	108
T_JUDGE_SLD	67
T_JUDGE_ALL	635
TTM_EACHPAIRS	187
TTM_SCR_TAP	225500
TTM_SCR_BRK	23400
TTM_SCR_HLD	39000
TTM_SCR_SLD	100500
TTM_SCR_ALL	388400
TTM_SCR_S	375900
TTM_SCR_SS	387500
TTM_RAT_ACV	10023

