VERSION	0.00.00	1.03.00
FES_MODE	0
BPM_DEF	162.000	162.000	162.000	162.000
MET_DEF	4	4
RESOLUTION	384
CLK_DEF	384
COMPATIBLE_CODE	MA2

BPM	0	0	162.000
MET	0	0	4	4
MET	9	0	4	2
MET	9	192	4	4
MET	81	192	4	3
MET	84	192	4	4

STR	2	0	2
SXL	2	0	2	96	384	7
STR	4	0	7
SCL	4	0	7	96	288	2
XHO	5	192	2	96
XHO	5	192	3	96
XTP	6	0	3
XTP	6	0	4
XTP	6	144	4
XTP	6	144	5
XTP	6	288	3
XTP	6	288	4
XTP	7	48	2
XTP	7	48	5
XTP	7	96	2
XST	7	96	5
SUR	7	96	5	96	192	1
TAP	9	96	3
TAP	9	96	4
TAP	9	192	5
TAP	9	288	5
TAP	10	0	4
TAP	10	96	4
TAP	10	192	3
TAP	10	288	3
TAP	11	0	2
TAP	11	0	4
TAP	11	192	1
TAP	11	288	1
TAP	12	0	0
TAP	12	96	0
TAP	12	192	7
TAP	12	288	0
TAP	12	288	7
TAP	13	0	1
TAP	13	0	6
STR	13	192	5
SCR	13	192	5	96	144	0
STR	14	192	1
SCR	14	192	1	96	144	4
TAP	15	192	5
TAP	15	288	4
TAP	15	288	5
TAP	16	0	2
TAP	16	96	2
TAP	16	96	3
XTP	16	192	4
BRK	16	288	3
BRK	16	288	5
HLD	17	192	5	192
TAP	18	0	4
HLD	18	192	2	192
TAP	19	0	3
STR	19	192	2
SI_	19	192	2	96	96	4
STR	20	192	5
SI_	20	192	5	96	96	3
HLD	21	192	2	96
TAP	21	288	3
TAP	22	0	3
HLD	22	192	5	96
TAP	22	288	4
TAP	23	0	4
STR	23	192	6
SI_	23	192	6	96	144	3
STR	24	192	1
SI_	24	192	1	96	144	4
XTP	25	192	4
XTP	25	192	5
XTP	26	0	2
XTP	26	0	3
TAP	26	192	3
TAP	26	192	4
TAP	26	288	3
TAP	26	288	4
TAP	27	0	2
TAP	27	0	5
TAP	27	192	6
TAP	27	288	6
TAP	28	0	7
TAP	28	96	7
TAP	28	192	0
TAP	28	288	0
TAP	29	0	1
TAP	29	0	7
TAP	29	192	2
TAP	29	288	2
TAP	30	0	3
TAP	30	96	3
TAP	30	192	4
TAP	30	288	4
TAP	31	0	3
TAP	31	0	4
TAP	31	192	5
TAP	31	288	5
TAP	32	0	4
TAP	32	96	4
TAP	32	192	3
TAP	32	288	3
TAP	33	0	2
TAP	33	0	4
TAP	33	192	1
TAP	33	288	1
TAP	34	0	0
TAP	34	96	0
TAP	34	192	0
TAP	34	192	7
TAP	34	288	0
TAP	34	288	7
TAP	35	0	1
TAP	35	0	6
STR	35	192	5
SCR	35	192	5	96	144	0
STR	36	192	1
SCR	36	192	1	96	144	4
TAP	37	192	5
TAP	37	288	5
TAP	38	0	3
TAP	38	0	4
TAP	38	96	3
TAP	38	96	4
XTP	38	192	2
XTP	38	192	5
XTP	38	288	2
XTP	38	288	5
BRK	39	192	0
BRK	39	192	1
TAP	39	288	0
TAP	39	288	1
TAP	40	0	0
TAP	40	0	1
TAP	40	192	6
TAP	40	192	7
TAP	40	288	6
TAP	40	288	7
TAP	41	0	6
TAP	41	0	7
TAP	41	192	5
TAP	41	288	4
TAP	41	288	5
TAP	42	0	2
TAP	42	96	2
TAP	42	96	3
TAP	42	192	4
TAP	42	288	3
TAP	42	288	4
TAP	43	0	2
TAP	43	0	5
TAP	43	192	6
TAP	43	288	6
TAP	44	0	6
TAP	44	0	7
TAP	44	96	6
TAP	44	96	7
TAP	44	192	5
TAP	44	288	4
TAP	45	0	3
TAP	45	0	5
TAP	45	192	2
TAP	45	288	2
TAP	46	0	1
TAP	46	96	1
TAP	46	192	0
TAP	46	192	7
TAP	46	288	0
TAP	46	288	7
TAP	47	0	1
TAP	47	0	6
TAP	47	96	2
TAP	47	96	5
STR	47	192	3
SXR	47	192	3	96	384	0
STR	47	192	4
SXL	47	192	4	96	384	7
HLD	49	192	1	192
TAP	50	0	0
HLD	50	192	6	192
TAP	51	0	7
HLD	51	192	5	384
HLD	52	192	4	384
HLD	53	192	3	384
HLD	54	192	2	384
HLD	55	192	1	384
XTP	56	192	0
TTP	57	192	1	E	0	L1
TTP	57	288	1	B	0	L1
TTP	58	0	2	B	0	L1
TTP	58	192	6	B	0	L1
TTP	58	288	5	B	0	L1
TTP	59	0	5	E	0	L1
TTP	59	192	2	E	0	L1
TTP	59	288	2	B	0	L1
TTP	60	0	3	B	0	L1
TTP	60	96	4	E	0	L1
TTP	60	192	4	B	0	L1
TTP	60	288	5	B	0	L1
TTP	61	0	6	E	0	L1
XST	61	192	0
SCR	61	192	0	96	144	3
STR	62	192	4
SCR	62	192	4	96	144	7
TAP	63	192	1
TAP	63	288	1
TAP	64	0	0
TAP	64	96	0
TAP	64	192	0
TAP	64	192	7
XTP	64	288	1
XTP	64	288	6
TAP	65	192	6
TAP	65	192	7
BRK	65	288	6
BRK	65	288	7
TAP	66	0	6
TAP	66	0	7
TAP	66	192	0
TAP	66	192	1
TAP	66	288	0
TAP	66	288	1
TAP	67	0	0
TAP	67	0	1
TAP	67	192	2
TAP	67	288	2
TAP	67	288	3
TAP	68	0	5
TAP	68	96	4
TAP	68	96	5
TAP	68	192	3
TAP	68	288	3
TAP	68	288	4
TAP	69	0	2
TAP	69	0	5
TAP	69	192	6
TAP	69	288	6
TAP	69	288	7
TAP	70	0	6
TAP	70	96	6
TAP	70	96	7
TAP	70	192	5
TAP	70	288	4
TAP	71	0	3
TAP	71	0	5
TAP	71	192	2
TAP	71	288	2
TAP	72	0	1
TAP	72	96	1
BST	72	192	0
SCR	72	192	0	96	144	3
BST	72	192	7
SCL	72	192	7	96	144	4
TAP	73	192	3
TAP	73	192	4
TAP	73	288	3
TAP	73	288	4
TAP	74	0	3
TAP	74	0	4
TTP	74	192	5	B	0	L1
TTP	74	192	5	E	0	L1
TTP	75	0	2	B	0	L1
TTP	75	0	3	E	0	L1
TAP	75	192	4
TAP	75	288	3
TAP	75	288	4
TAP	76	0	2
TAP	76	0	5
BRK	76	192	1
TAP	76	288	0
TAP	76	288	1
TAP	77	0	1
TAP	77	96	0
TAP	77	96	1
TAP	77	192	2
TAP	77	288	3
TAP	78	0	2
TAP	78	0	4
XTP	78	192	2
XTP	78	192	3
TAP	78	288	2
TAP	78	288	3
TAP	79	0	3
TAP	79	48	3
TAP	79	96	3
XTP	79	192	4
XTP	79	192	5
TAP	79	288	4
TAP	79	288	5
TAP	80	0	6
TAP	80	48	6
TAP	80	96	6
TAP	80	192	0
TAP	80	192	7
TAP	80	288	0
TAP	80	288	7
TAP	81	0	1
TAP	81	48	1
TAP	81	96	1
XTP	81	192	0
XST	81	192	7
SCL	81	192	7	96	240	3
TTP	83	0	3	E	0	L1
TTP	83	144	4	E	0	L1
TTP	83	288	5	E	0	L1
TTP	84	48	0	C	0	L1
XTP	85	192	0
XTP	85	192	7
XTP	86	0	1
XTP	86	0	6
XTP	86	192	2
XTP	86	192	5
XHO	87	0	3	192
XHO	87	0	4	1152
THO	88	0	0	768	C	1	L1

T_REC_TAP	200
T_REC_BRK	7
T_REC_XTP	32
T_REC_HLD	11
T_REC_XHO	4
T_REC_STR	13
T_REC_BST	2
T_REC_XST	3
T_REC_TTP	21
T_REC_THO	1
T_REC_SLD	18
T_REC_ALL	312
T_NUM_TAP	269
T_NUM_BRK	9
T_NUM_HLD	16
T_NUM_SLD	18
T_NUM_ALL	312
T_JUDGE_TAP	278
T_JUDGE_HLD	108
T_JUDGE_SLD	18
T_JUDGE_ALL	404
TTM_EACHPAIRS	81
TTM_SCR_TAP	134500
TTM_SCR_BRK	23400
TTM_SCR_HLD	16000
TTM_SCR_SLD	27000
TTM_SCR_ALL	200900
TTM_SCR_S	194000
TTM_SCR_SS	200000
TTM_RAT_ACV	10045

