VERSION	0.00.00	1.03.00
FES_MODE	0
BPM_DEF	162.000	162.000	162.000	162.000
MET_DEF	4	4
RESOLUTION	384
CLK_DEF	384
COMPATIBLE_CODE	MA2

BPM	0	0	162.000
MET	0	0	4	4
MET	9	0	4	2
MET	9	192	4	4
MET	81	192	4	3
MET	84	192	4	4

TTP	2	0	0	C	1	L1
THO	4	0	0	384	C	0	L1
XHO	6	0	0	576
XHO	6	0	7	576
TAP	9	192	0
TAP	10	0	0
TAP	10	192	1
TAP	11	192	2
TAP	12	0	2
TAP	12	192	2
TAP	12	192	3
TAP	13	192	4
TAP	14	0	4
TAP	14	192	5
TAP	15	192	6
TAP	16	0	6
XTP	16	192	0
XTP	16	192	7
HLD	17	192	6	384
HLD	17	192	7	384
HLD	19	192	4	384
HLD	19	192	5	384
HLD	21	192	2	384
HLD	21	192	3	384
HLD	23	192	0	384
HLD	23	192	1	384
TAP	25	192	1
TAP	26	0	1
TAP	26	192	0
TAP	26	192	1
TAP	27	192	2
TAP	28	0	2
TAP	28	192	2
TAP	28	192	3
TAP	29	192	5
TAP	30	0	5
TAP	30	192	4
TAP	30	192	5
TAP	31	192	6
TAP	32	0	6
TAP	32	192	6
TAP	32	192	7
TAP	33	192	0
TAP	34	0	0
TAP	34	192	0
TAP	34	192	7
TTP	35	192	0	E	0	L1
TTP	36	192	0	B	0	L1
TTP	36	192	7	B	0	L1
THO	37	192	0	384	C	1	L1
TTP	37	192	1	B	0	L1
TTP	37	192	6	B	0	L1
BRK	39	192	7
TAP	39	288	7
TAP	40	0	7
TAP	40	192	6
TAP	40	288	6
TAP	41	0	6
TAP	41	192	5
TAP	41	288	5
TAP	42	0	5
TAP	42	192	4
TAP	42	288	4
TAP	43	0	3
TAP	43	0	4
TAP	43	192	3
TAP	43	288	3
TAP	44	0	3
TAP	44	192	2
TAP	44	288	2
TAP	45	0	2
TAP	45	192	1
TAP	45	288	1
TAP	46	0	1
XTP	46	192	0
XTP	46	192	7
XTP	47	0	0
XTP	47	0	7
STR	47	192	7
SI_	47	192	7	96	288	4
STR	49	192	3
SI_	49	192	3	96	288	0
STR	51	192	7
SI_	51	192	7	96	288	3
STR	53	192	2
SI_	53	192	2	96	288	6
XHO	55	192	7	384
TTP	57	192	6	B	0	L1
TTP	58	0	5	B	0	L1
TTP	58	192	4	B	0	L1
TTP	59	0	3	B	0	L1
TTP	59	192	2	B	0	L1
TTP	60	0	1	B	0	L1
TTP	60	192	0	C	0	L1
BRK	61	192	0
TAP	62	0	0
TAP	62	0	1
TAP	62	192	7
TAP	63	0	6
TAP	63	0	7
TAP	63	192	0
TAP	64	0	0
TAP	64	0	7
XTP	64	192	1
XTP	64	192	6
TAP	65	192	0
TAP	65	288	0
TAP	66	0	0
TAP	66	192	1
TAP	66	288	1
TAP	67	0	0
TAP	67	0	1
TAP	67	192	2
TAP	67	288	2
TAP	68	0	2
TAP	68	192	3
TAP	68	288	3
TAP	69	0	3
TAP	69	0	4
TAP	69	192	5
TAP	69	288	5
TAP	70	0	4
TAP	70	0	5
TAP	70	192	6
TAP	70	288	6
TAP	71	0	6
TAP	71	0	7
TAP	71	192	0
TAP	71	288	0
TAP	72	0	0
TAP	72	96	0
STR	72	192	0
SI_	72	192	0	96	288	3
STR	72	192	7
SI_	72	192	7	96	288	4
STR	74	192	3
SI_	74	192	3	96	288	0
STR	74	192	4
SI_	74	192	4	96	288	7
TAP	76	192	7
TAP	76	288	7
TAP	77	0	6
TAP	77	96	6
TAP	77	192	5
TAP	77	288	5
TAP	78	0	4
TAP	78	0	5
TAP	78	192	3
TAP	78	288	3
TAP	79	0	2
TAP	79	96	2
TAP	79	192	1
TAP	79	288	1
TAP	80	0	0
TAP	80	0	1
TAP	80	192	7
TAP	80	288	7
TAP	81	0	0
TAP	81	96	0
HLD	81	192	0	1152
HLD	81	192	7	1152
TTP	85	192	0	B	0	L1
TTP	86	0	7	B	0	L1
TTP	86	192	1	B	0	L1
TTP	87	0	6	B	0	L1
THO	87	192	0	192	C	1	L1

T_REC_TAP	107
T_REC_BRK	2
T_REC_XTP	8
T_REC_HLD	10
T_REC_XHO	3
T_REC_STR	8
T_REC_BST	0
T_REC_XST	0
T_REC_TTP	17
T_REC_THO	3
T_REC_SLD	8
T_REC_ALL	166
T_NUM_TAP	140
T_NUM_BRK	2
T_NUM_HLD	16
T_NUM_SLD	8
T_NUM_ALL	166
T_JUDGE_TAP	142
T_JUDGE_HLD	164
T_JUDGE_SLD	8
T_JUDGE_ALL	314
TTM_EACHPAIRS	28
TTM_SCR_TAP	70000
TTM_SCR_BRK	5200
TTM_SCR_HLD	16000
TTM_SCR_SLD	12000
TTM_SCR_ALL	103200
TTM_SCR_S	99950
TTM_SCR_SS	103000
TTM_RAT_ACV	10019

