VERSION	0.00.00	1.03.00
FES_MODE	0
BPM_DEF	180.000	205.000	205.000	100.000
MET_DEF	4	4
RESOLUTION	384
CLK_DEF	384
COMPATIBLE_CODE	MA2

BPM	0	0	180.000
BPM	8	0	160.000
BPM	8	192	140.000
BPM	9	0	120.000
BPM	9	192	100.000
BPM	10	0	205.000
MET	0	0	4	4

THO	1	0	0	192	C	0	M1
TTP	1	192	1	B	0	M1
TTP	1	192	5	B	0	M1
TTP	1	207	2	B	0	M1
TTP	1	208	6	B	0	M1
TTP	1	224	3	B	0	M1
TTP	1	225	7	B	0	M1
TTP	1	239	4	E	0	M1
TTP	1	240	0	E	0	M1
STR	2	0	7
SCL	2	0	7	96	1248	0
TTP	2	288	0	E	0	M1
TTP	3	0	1	E	0	M1
TTP	3	96	2	E	0	M1
TTP	3	192	3	E	0	M1
TTP	3	288	4	E	0	M1
TTP	4	0	0	C	0	M1
TTP	4	288	0	E	0	M1
TTP	5	0	7	E	0	M1
TTP	5	96	6	E	0	M1
TTP	5	192	5	E	0	M1
TTP	5	288	4	E	0	M1
TAP	6	0	5
TAP	6	32	3
TAP	6	64	5
TAP	6	96	3
TAP	6	128	5
TAP	6	160	3
TAP	6	192	4
TAP	6	224	2
TAP	6	256	4
TAP	6	288	2
TAP	6	320	4
TAP	6	352	2
TAP	7	0	4
TAP	7	32	3
TAP	7	64	5
TAP	7	96	3
TAP	7	128	4
TAP	7	160	2
TAP	7	192	5
TAP	7	224	3
TAP	7	256	6
STR	7	288	1
SI_	7	288	1	96	96	7
BST	8	0	7
SLL	8	0	7	96	192	1
BST	8	192	1
SLL	8	192	1	96	192	4
BST	9	0	4
SLL	9	0	4	96	192	0
BRK	9	192	0
TAP	9	288	7
TAP	9	312	7
TAP	9	336	7
TAP	9	348	0
TAP	9	360	7
BST	10	0	1
SI_	10	0	1	96	48	3
BRK	10	0	6
TAP	10	48	5
STR	10	96	4
SI_	10	96	4	96	48	0
TAP	10	144	4
TAP	10	192	1
HLD	10	240	1	48
TAP	10	288	7
TAP	10	312	6
TAP	10	336	5
STR	11	0	2
SI_	11	0	2	96	48	4
TAP	11	48	2
STR	11	96	5
SI_	11	96	5	96	48	1
TAP	11	144	5
TAP	11	192	2
HLD	11	240	2	48
TAP	11	288	0
TAP	11	312	7
TAP	11	336	6
STR	12	0	2
SI_	12	0	2	96	48	6
TAP	12	48	2
STR	12	96	4
SCL	12	96	4	96	48	2
TAP	12	144	4
TAP	12	192	1
TAP	12	240	1
TAP	12	288	0
TAP	12	312	7
TAP	12	336	0
HLD	13	0	1	48
TAP	13	0	6
TTP	13	48	6	E	0	M1
TTP	13	72	5	B	0	M1
TTP	13	96	4	B	0	M1
TTP	13	144	2	B	0	M1
TTP	13	144	2	E	0	M1
TTP	13	192	6	B	0	M1
TTP	13	192	7	E	0	M1
TTP	13	240	3	B	0	M1
TTP	13	240	4	E	0	M1
TTP	13	288	5	B	0	M1
TTP	13	288	5	E	0	M1
STR	14	0	7
SI_	14	0	7	96	48	1
TAP	14	48	7
STR	14	96	2
SI_	14	96	2	96	48	6
TAP	14	144	2
STR	14	192	5
SI_	14	192	5	96	48	3
TAP	14	240	5
TAP	14	288	7
TAP	14	312	0
TAP	14	336	1
STR	15	0	5
SCL	15	0	5	96	48	2
TAP	15	48	5
STR	15	96	1
SI_	15	96	1	96	48	5
TAP	15	144	1
TAP	15	192	7
TAP	15	240	7
TAP	15	288	6
TAP	15	312	4
TAP	15	336	5
TAP	16	0	2
TAP	16	24	3
TAP	16	48	1
TAP	16	96	5
TAP	16	120	4
TAP	16	144	6
TAP	16	192	2
TAP	16	216	3
TAP	16	240	0
TAP	16	288	5
TAP	16	312	4
HLD	16	336	7	96
TAP	17	48	0
TAP	17	72	1
TAP	17	96	2
TTP	17	144	6	B	0	M1
TTP	17	144	6	E	0	M1
TTP	17	192	2	B	0	M1
TTP	17	192	2	E	0	M1
TTP	17	240	4	B	0	M1
TTP	17	240	4	E	0	M1
STR	17	288	0
SXR	17	288	0	96	288	1
TTP	18	0	0	C	1	M1
TAP	18	240	4
STR	18	288	4
SXL	18	288	4	96	288	3
TTP	19	0	0	C	1	M1
TAP	19	240	1
TAP	19	288	1
BST	20	0	0
SI_	20	0	0	96	24	3
BST	20	72	4
SI_	20	72	4	96	24	7
BST	20	144	2
SI_	20	144	2	96	24	5
BST	20	216	6
SI_	20	216	6	96	24	1
BRK	20	288	3
TAP	20	336	3
HLD	21	0	7	96
HLD	21	144	0	96
HLD	21	144	6	96
TAP	21	288	1
TAP	21	288	5
TAP	22	0	0
HLD	22	0	4	48
TAP	22	96	0
HLD	22	96	4	48
TAP	22	120	1
TAP	22	144	2
HLD	22	192	5	48
TAP	22	288	1
HLD	22	288	5	48
TAP	22	312	2
TAP	22	336	3
HLD	23	0	6	48
TAP	23	96	2
HLD	23	96	6	48
TAP	23	120	3
TAP	23	144	4
HLD	23	192	7	48
TAP	23	288	3
HLD	23	288	7	48
TAP	23	312	4
TAP	23	336	5
TAP	24	0	7
TAP	24	48	7
TAP	24	96	7
TAP	24	144	7
TAP	24	192	6
TAP	24	216	0
TAP	24	240	6
TAP	24	264	0
TAP	24	288	5
TAP	24	312	1
TAP	24	336	4
TAP	24	360	2
TTP	25	0	0	C	1	M1
BRK	25	0	3
TAP	25	192	0
TAP	25	240	0
XST	25	288	1
SI_	25	288	1	96	48	4
XTP	25	288	7
BRK	26	0	5
TAP	26	96	3
TAP	26	96	6
TAP	26	144	3
HLD	26	144	6	96
STR	26	240	5
SI_	26	240	5	96	48	0
TAP	26	336	4
TAP	27	48	1
TAP	27	96	2
TAP	27	144	3
STR	27	192	5
SCR	27	192	5	96	48	7
TAP	27	240	4
HLD	27	288	3	96
STR	28	0	0
SI_	28	0	0	96	48	4
TAP	28	96	7
STR	28	144	6
SI_	28	144	6	96	48	2
TAP	28	240	4
HLD	28	336	3	96
STR	29	48	5
SI_	29	48	5	96	48	3
STR	29	96	1
SI_	29	96	1	96	48	4
TAP	29	144	5
TAP	29	192	1
TAP	29	240	6
STR	29	288	6
SI_	29	288	6	96	48	0
TAP	30	0	1
TAP	30	96	2
TAP	30	96	3
STR	30	144	2
SI_	30	144	2	96	48	6
TAP	30	144	3
TAP	30	240	1
STR	30	336	0
SI_	30	336	0	96	48	4
TAP	31	48	7
HLD	31	96	7	96
STR	31	192	4
SI_	31	192	4	96	48	0
TAP	31	288	6
TAP	31	336	5
BST	32	0	1
SLR	32	0	1	96	96	7
TAP	32	0	4
TAP	32	96	7
TAP	32	144	6
BST	32	192	5
SLR	32	192	5	96	96	3
TAP	32	288	0
TAP	32	336	1
BRK	33	0	2
TAP	33	96	3
TAP	33	96	4
BST	33	144	1
SI_	33	144	1	96	48	4
BST	33	144	5
SI_	33	144	5	96	48	0
BRK	33	240	1
BRK	33	240	5
BRK	33	336	3
BRK	33	336	7
TAP	34	96	5
TAP	34	120	4
TAP	34	144	5
TAP	34	168	6
TAP	34	192	5
TAP	34	216	4
TAP	34	240	5
TAP	34	264	6
TAP	34	288	5
TAP	34	312	4
TAP	34	336	5
TAP	34	360	6
TAP	35	0	5
TAP	35	24	2
TAP	35	48	3
TAP	35	72	2
TAP	35	96	1
TAP	35	120	2
TAP	35	144	3
TAP	35	168	2
TAP	35	192	1
TAP	35	216	2
TAP	35	240	3
TAP	35	264	2
TAP	35	288	1
TAP	35	312	2
TAP	35	336	3
TAP	35	360	2
STR	36	0	1
SI_	36	0	1	96	48	4
TAP	36	72	0
TAP	36	144	7
STR	36	192	6
SI_	36	192	6	96	48	3
TAP	36	264	7
TAP	36	336	0
HLD	37	0	1	96
STR	37	96	3
SCL	37	96	3	96	48	0
TAP	37	144	4
TAP	37	192	5
TAP	37	240	5
XTP	37	288	6
XTP	37	288	7
HLD	38	0	6	96
TAP	38	0	7
TAP	38	24	0
TAP	38	48	1
TAP	38	72	2
TAP	38	96	3
TAP	38	144	4
TAP	38	144	5
TAP	38	192	4
HLD	38	192	5	96
TAP	38	216	3
TAP	38	240	2
TAP	38	264	1
TAP	38	288	0
TAP	38	336	6
TAP	38	336	7
TAP	39	0	6
HLD	39	0	7	96
TAP	39	24	5
TAP	39	48	4
TAP	39	72	3
TAP	39	96	2
TAP	39	144	0
TAP	39	144	1
HLD	39	192	0	96
TAP	39	192	1
TAP	39	216	2
TAP	39	240	3
TAP	39	264	4
TAP	39	288	5
TAP	39	336	0
TAP	39	336	7
TAP	40	48	4
TAP	40	96	3
TAP	40	96	5
TAP	40	144	2
TAP	40	144	6
HLD	40	192	1	48
HLD	40	192	7	48
HLD	40	264	1	48
HLD	40	264	7	48
TAP	40	336	2
TAP	40	336	6
TAP	41	48	0
TAP	41	72	4
TAP	41	96	0
TAP	41	120	4
TAP	41	144	0
TAP	41	168	4
HLD	41	192	2	96
BRK	41	288	7
STR	42	0	3
SI_	42	0	3	96	48	7
TAP	42	0	6
TAP	42	48	6
TAP	42	96	3
TAP	42	96	6
TAP	42	144	6
STR	42	192	0
SI_	42	192	0	96	48	5
TAP	42	192	6
TAP	42	240	6
TAP	42	288	0
TAP	42	288	6
TAP	42	336	6
TAP	43	0	4
STR	43	0	6
SI_	43	0	6	96	48	2
TAP	43	48	4
TAP	43	96	4
TAP	43	96	6
TAP	43	144	4
STR	43	192	1
SI_	43	192	1	96	48	5
TAP	43	192	4
TAP	43	240	4
TAP	43	288	1
TAP	43	288	4
TAP	43	336	4
TAP	44	0	3
TAP	44	0	6
TAP	44	48	2
TAP	44	96	1
TAP	44	96	4
TAP	44	144	5
TAP	44	192	0
TAP	44	192	6
TAP	44	240	1
TAP	44	288	2
TAP	44	288	7
TAP	44	336	6
TAP	45	0	3
TAP	45	0	5
TAP	45	48	2
TAP	45	72	3
STR	45	96	1
SI_	45	96	1	96	48	4
STR	45	144	7
SI_	45	144	7	96	48	5
STR	45	192	1
SI_	45	192	1	96	48	5
TAP	45	240	7
TAP	45	288	1
TAP	45	336	7
TAP	46	0	7
TAP	46	24	3
TAP	46	48	7
TAP	46	72	3
TAP	46	96	7
TAP	46	120	6
TAP	46	144	5
TAP	46	168	4
TAP	46	192	2
TAP	46	216	1
TAP	46	240	0
TAP	46	264	7
TAP	46	288	5
TAP	46	312	4
TAP	46	336	5
TAP	47	0	3
TAP	47	0	6
TAP	47	48	2
TAP	47	48	7
TAP	47	96	1
TAP	47	112	0
TAP	47	128	1
TAP	47	144	0
TAP	47	160	1
TAP	47	176	0
TAP	47	192	1
TAP	47	240	2
TAP	47	240	7
HLD	47	288	3	96
HLD	47	288	6	48
BRK	48	0	5
TAP	48	16	4
BRK	48	64	5
TAP	48	80	4
TAP	48	144	3
TAP	48	144	6
BRK	48	192	2
TAP	48	208	3
BRK	48	256	2
TAP	48	272	3
TAP	48	336	1
TAP	48	336	4
HLD	49	0	1	128
HLD	49	0	4	64
TAP	49	192	2
TAP	49	192	3
STR	49	288	0
SI_	49	288	0	96	48	3
BST	50	0	0
SUL	50	0	0	96	480	4
SUR	50	0	0	96	960	3
HLD	52	0	4	288
TTP	53	0	5	E	0	M1
TTP	53	24	4	B	0	M1
TTP	53	48	3	B	0	M1
TTP	53	72	3	E	0	M1
TAP	53	288	2
TAP	53	288	5
TAP	54	0	0
TAP	54	0	1
TAP	54	48	0
TAP	54	48	1
TAP	54	96	1
TAP	54	96	2
TAP	54	144	1
TAP	54	144	2
TAP	54	192	2
TAP	54	192	3
TAP	54	240	2
TAP	54	240	3
TAP	54	288	3
TAP	54	288	4
TAP	54	336	3
TAP	54	336	4
TAP	55	0	4
TAP	55	0	5
TAP	55	48	4
TAP	55	48	5
TAP	55	96	5
TAP	55	96	6
TAP	55	144	5
TAP	55	144	6
TAP	55	192	6
TAP	55	192	7
TAP	55	240	6
TAP	55	240	7
TAP	55	288	0
TAP	55	288	7
TAP	55	336	0
TAP	55	336	7
BRK	56	0	7
TAP	56	24	6
TAP	56	48	5
TAP	56	72	4
BRK	56	96	6
TAP	56	120	5
TAP	56	144	4
TAP	56	168	3
BRK	56	192	5
TAP	56	216	4
TAP	56	240	3
TAP	56	264	2
BRK	56	288	4
TAP	56	312	3
TAP	56	336	2
TAP	56	360	1
TTP	57	0	0	E	0	M1
BRK	57	0	3
TTP	57	12	7	E	0	M1
TTP	57	24	6	E	0	M1
TTP	57	36	5	E	0	M1
TTP	57	48	4	E	0	M1
TTP	57	60	3	E	0	M1
TTP	57	72	2	E	0	M1
TTP	57	84	1	E	0	M1
TTP	57	96	0	E	0	M1
TTP	57	108	7	E	0	M1
TTP	57	120	6	E	0	M1
TTP	57	132	5	E	0	M1
TTP	57	144	4	E	0	M1
TTP	57	156	3	E	0	M1
TTP	57	168	2	E	0	M1
TTP	57	180	1	E	0	M1
TTP	57	192	0	E	0	M1
TTP	57	204	7	E	0	M1
TTP	57	216	6	E	0	M1
TTP	57	228	5	E	0	M1
TTP	57	240	4	E	0	M1
TTP	57	252	3	E	0	M1
TTP	57	264	2	E	0	M1
TTP	57	276	1	E	0	M1
TTP	57	288	0	E	0	M1
TTP	57	300	7	E	0	M1
TTP	57	312	6	E	0	M1
TTP	57	324	5	E	0	M1
TTP	57	336	4	E	0	M1
TTP	57	348	3	E	0	M1
TTP	57	360	2	E	0	M1
TTP	57	372	1	E	0	M1
TTP	58	0	0	C	1	M1
TAP	62	0	5
TAP	62	96	4
TAP	62	96	5
TAP	62	192	3
TAP	62	192	5
TAP	62	288	2
TAP	62	288	5
TAP	63	0	2
TAP	63	0	5
TAP	63	96	2
TAP	63	96	4
TAP	63	192	2
TAP	63	192	3
TAP	63	288	2
TAP	63	288	3
TAP	64	0	2
TAP	64	48	2
TAP	64	96	3
TAP	64	144	3
TAP	64	192	4
TAP	64	216	2
TAP	64	240	4
TAP	64	264	2
TAP	64	288	5
TAP	64	312	3
TAP	64	336	5
TAP	64	360	3
XHO	65	0	7	192
THO	65	192	0	192	C	1	M1
BST	66	0	6
SXL	66	0	6	96	240	3
TAP	66	240	1
STR	66	288	1
SXR	66	288	1	96	288	4
TTP	67	0	0	C	1	M1
TAP	67	240	6
HLD	67	288	6	480
BRK	68	0	4
BRK	68	72	2
BRK	68	144	5
BRK	68	216	1
BRK	68	288	7
HLD	69	0	0	96
TAP	69	96	5
TAP	69	144	1
HLD	69	144	4	96
TAP	69	240	1
TAP	69	288	2
TAP	69	288	3
HLD	70	0	4	48
HLD	70	0	5	48
HLD	70	96	1	48
HLD	70	96	3	48
HLD	70	192	4	48
HLD	70	192	6	48
HLD	70	288	0	48
HLD	70	288	1	48
TAP	71	0	0
TAP	71	0	1
TAP	71	48	2
TAP	71	96	3
TAP	71	96	7
TAP	71	144	6
TAP	71	192	2
TAP	71	192	5
TAP	71	240	3
TAP	71	288	2
TAP	71	288	4
TAP	71	336	1
TAP	71	336	5
TTP	72	0	0	C	1	M1
HLD	72	0	6	192
HLD	72	192	0	192
TAP	73	0	7
TAP	73	48	7
TAP	73	96	0
TAP	73	96	6
TAP	73	144	0
TAP	73	144	6
TAP	73	192	1
TAP	73	216	5
TAP	73	240	1
TAP	73	264	5
TAP	73	288	1
TAP	73	312	5
TAP	73	336	1
TAP	73	360	5
BST	74	0	1
SCR	74	0	1	96	48	4
TAP	74	48	0
TAP	74	72	7
STR	74	96	1
SI_	74	96	1	96	48	5
TAP	74	144	5
TAP	74	168	5
TAP	74	192	1
TAP	74	240	6
TAP	74	264	6
STR	74	288	1
SI_	74	288	1	96	48	4
STR	74	336	0
SI_	74	336	0	96	48	5
TAP	74	360	7
TAP	75	0	1
TAP	75	48	0
TAP	75	96	2
TAP	75	144	2
STR	75	192	1
SI_	75	192	1	96	48	5
TAP	75	192	4
TAP	75	208	0
TAP	75	224	7
TAP	75	240	6
TAP	75	288	1
TAP	75	336	7
STR	76	0	6
SI_	76	0	6	96	48	3
TAP	76	48	5
TAP	76	72	4
STR	76	96	6
SI_	76	96	6	96	48	2
TAP	76	144	2
TAP	76	168	2
TAP	76	192	6
TAP	76	240	1
TAP	76	264	1
STR	76	288	7
SCR	76	288	7	96	48	2
TAP	76	336	2
BST	77	0	7
SI_	77	0	7	96	48	3
BST	77	48	3
SLR	77	48	3	96	72	7
BRK	77	96	7
BRK	77	144	2
BRK	77	240	0
BRK	77	336	1
BRK	77	336	7
BST	78	0	1
SI_	78	0	1	96	48	4
BRK	78	0	7
STR	78	96	1
SI_	78	96	1	96	48	7
STR	78	96	6
SI_	78	96	6	96	48	2
TAP	78	144	7
TAP	78	192	1
STR	78	192	6
SI_	78	192	6	96	48	3
STR	78	288	1
SI_	78	288	1	96	48	5
STR	78	288	6
SI_	78	288	6	96	48	0
TAP	78	336	0
TAP	79	0	1
STR	79	0	6
SLL	79	0	6	96	72	2
TAP	79	96	4
TAP	79	96	6
STR	79	144	1
SI_	79	144	1	96	48	4
TAP	79	240	0
TAP	79	240	1
TAP	79	336	6
TAP	79	360	7
BRK	80	0	6
TAP	80	48	0
TAP	80	48	5
TAP	80	96	1
TAP	80	120	4
TAP	80	144	2
TAP	80	168	3
BRK	80	192	0
TAP	80	240	2
TAP	80	240	7
TAP	80	288	6
TAP	80	312	3
TAP	80	336	5
TAP	80	360	4
BRK	81	0	7
TAP	81	48	6
TAP	81	72	4
TAP	81	96	5
TAP	81	120	2
TAP	81	144	3
BRK	81	192	1
BRK	81	192	7
TAP	81	240	6
TAP	81	264	2
TAP	81	288	5
TAP	81	312	3
TAP	81	336	6
TAP	81	360	2
STR	82	0	6
SCL	82	0	6	96	48	3
TAP	82	48	7
TAP	82	72	3
STR	82	96	6
SI_	82	96	6	96	48	2
TAP	82	144	2
TAP	82	168	2
TAP	82	192	6
TAP	82	240	1
TAP	82	264	1
STR	82	288	6
SI_	82	288	6	96	48	3
STR	82	336	7
SV_	82	336	7	96	48	2
TAP	82	360	0
TAP	83	0	6
TAP	83	48	7
TAP	83	96	5
TAP	83	144	5
HLD	83	192	3	48
STR	83	192	6
SCL	83	192	6	96	48	3
TAP	83	208	7
TAP	83	224	0
TAP	83	240	1
TAP	83	288	6
TAP	83	336	2
STR	84	0	1
SI_	84	0	1	96	48	4
TAP	84	48	0
TAP	84	72	4
STR	84	96	1
SI_	84	96	1	96	48	5
TAP	84	144	5
TAP	84	168	5
TAP	84	192	1
TAP	84	240	6
TAP	84	264	6
STR	84	288	0
SI_	84	288	0	96	48	4
TAP	84	336	7
BRK	85	0	0
STR	85	0	6
SCL	85	0	6	96	48	3
TAP	85	48	5
BRK	85	96	6
STR	85	96	7
SI_	85	96	7	96	48	3
TAP	85	112	0
TAP	85	128	1
TAP	85	144	2
BRK	85	192	6
STR	85	192	7
SCR	85	192	7	96	48	2
TAP	85	240	5
TAP	85	288	6
BRK	85	288	7
TAP	85	304	5
TAP	85	320	4
TAP	85	336	3
XTP	86	0	2
XTP	86	0	3
XTP	86	48	2
XTP	86	48	3
XTP	86	96	2
XTP	86	96	3
XTP	86	144	2
XTP	86	144	3
TAP	86	192	1
TAP	86	192	4
TAP	86	240	1
TAP	86	288	2
TAP	86	288	5
TAP	86	336	5
TAP	87	0	3
TAP	87	0	6
TAP	87	48	3
TAP	87	96	2
TAP	87	96	7
TAP	87	144	7
TAP	87	192	0
TAP	87	192	1
TAP	87	240	1
TAP	87	288	2
TAP	87	288	6
TAP	87	336	6
TAP	88	0	3
TAP	88	24	5
TAP	88	48	3
TAP	88	72	5
TAP	88	96	3
TAP	88	120	5
TAP	88	144	3
TAP	88	168	5
TAP	88	192	1
TAP	88	216	3
TAP	88	240	1
TAP	88	264	3
TAP	88	288	1
TAP	88	312	3
TAP	88	336	1
TAP	88	360	3
TAP	89	0	0
TAP	89	24	4
TAP	89	48	0
TAP	89	72	4
TAP	89	96	0
TAP	89	120	5
TAP	89	144	0
TAP	89	168	5
TAP	89	192	0
TAP	89	216	6
TAP	89	240	0
TAP	89	264	6
TAP	89	288	0
TAP	89	312	7
TAP	89	336	0
TAP	89	360	7
BRK	90	0	0
TAP	90	12	1
TAP	90	24	2
TAP	90	36	3
BRK	90	72	0
TAP	90	84	1
TAP	90	96	2
TAP	90	108	3
BRK	90	144	0
TAP	90	156	1
TAP	90	168	2
TAP	90	180	3
BRK	90	216	0
TAP	90	288	6
TAP	90	312	7
TAP	90	336	6
TAP	90	360	7
BRK	91	0	6
TAP	91	12	5
TAP	91	24	4
TAP	91	36	3
BRK	91	72	6
TAP	91	84	5
TAP	91	96	4
TAP	91	108	3
BRK	91	144	6
TAP	91	156	5
TAP	91	168	4
TAP	91	180	3
BRK	91	216	0
TAP	91	288	1
TAP	91	312	3
TAP	91	336	1
TAP	91	360	3
TAP	92	0	0
TAP	92	48	0
TAP	92	48	4
BRK	92	96	0
BRK	92	96	4
XTP	92	112	1
XTP	92	112	5
XTP	92	128	2
XTP	92	128	6
XTP	92	144	3
XTP	92	144	7
XTP	92	192	0
XTP	92	192	4
XTP	92	240	0
XTP	92	240	4
BRK	92	288	0
BRK	92	288	4
XTP	92	304	3
XTP	92	304	7
XTP	92	320	2
XTP	92	320	6
XTP	92	336	1
XTP	92	336	5
TAP	93	0	0
TAP	93	24	4
TAP	93	48	0
TAP	93	72	4
TAP	93	96	0
TAP	93	120	4
TAP	93	144	0
TAP	93	168	4
TAP	93	192	1
TAP	93	216	5
TAP	93	240	1
TAP	93	264	5
STR	93	288	1
SI_	93	288	1	96	48	6
STR	93	312	5
SI_	93	312	5	96	48	2
TAP	93	336	1
TAP	93	360	5
TAP	94	0	1
HLD	95	0	4	288
TTP	95	288	4	E	0	M1
THO	96	0	0	768	C	1	M1
HLD	98	0	7	96
TTP	98	192	0	C	1	M1
HLD	98	192	0	96
TTP	99	0	0	C	1	M1
HLD	99	0	6	96
TTP	99	192	0	C	1	M1
HLD	99	192	1	96
XTP	100	0	3
XTP	100	0	7
TAP	100	48	3
TAP	100	48	7
TAP	100	96	2
TAP	100	96	6
TAP	100	144	2
TAP	100	144	6
TAP	100	192	1
TAP	100	192	5
TAP	100	240	1
TAP	100	240	5
TAP	100	288	0
TAP	100	288	4
TAP	100	336	0
TAP	100	336	4
TAP	101	0	3
STR	101	0	7
SI_	101	0	7	96	48	3
XTP	101	192	3
XTP	101	192	7
XTP	101	288	1
XTP	101	288	5
BRK	102	0	2
BRK	102	0	6
TAP	102	48	0
TAP	102	96	2
TAP	102	96	4
TAP	102	144	6
TAP	102	192	3
TAP	102	192	5
TAP	102	240	1
TAP	102	288	2
TAP	102	288	4
TAP	102	336	7
BRK	103	0	1
BRK	103	0	5
TAP	103	48	3
TAP	103	96	2
TAP	103	96	7
TAP	103	144	4
TAP	103	192	0
TAP	103	192	6
TAP	103	240	2
TAP	103	288	1
TAP	103	288	7
TAP	103	336	4
BRK	104	0	2
BRK	104	0	6
TAP	104	48	0
TAP	104	48	7
TAP	104	96	1
TAP	104	96	3
TAP	104	144	2
TAP	104	144	6
BRK	104	192	5
BRK	104	216	3
BRK	104	240	7
TAP	104	288	4
TAP	104	288	6
TAP	104	336	0
TAP	104	336	2
BRK	105	0	3
BRK	105	0	5
TAP	105	48	2
TAP	105	48	7
TAP	105	96	1
TAP	105	96	3
TAP	105	144	2
TAP	105	144	6
BRK	105	192	1
BRK	105	192	7
TAP	105	240	1
TAP	105	240	7
TAP	105	288	2
TAP	105	320	2
TAP	105	352	3
HLD	106	0	0	0
TAP	106	32	4
HLD	106	64	2	0
TAP	106	96	7
HLD	106	128	1	0
TAP	106	160	3
HLD	106	192	0	0
TAP	106	224	6
HLD	106	256	4	0
TAP	106	288	0
HLD	106	320	2	0
TAP	106	352	4
HLD	107	0	7	0
TAP	107	32	5
HLD	107	64	3	0
TAP	107	96	1
HLD	107	128	3	0
TAP	107	160	5
HLD	107	192	2	0
TAP	107	224	0
HLD	107	256	4	0
TAP	107	288	6
HLD	107	320	2	0
TAP	107	352	4
TAP	108	0	1
TAP	108	48	1
TAP	108	48	5
TAP	108	96	2
TAP	108	120	4
TAP	108	144	2
TAP	108	168	4
HLD	108	192	0	48
TAP	108	240	5
TAP	108	264	3
TAP	108	288	5
TAP	108	312	3
HLD	108	336	7	48
STR	109	0	1
SI_	109	0	1	96	24	5
TAP	109	24	0
TAP	109	48	1
TAP	109	72	0
TAP	109	96	1
TAP	109	144	7
TAP	109	192	7
TAP	109	240	0
TAP	109	240	6
TAP	109	288	1
TAP	109	288	5
TAP	109	336	2
TAP	109	336	4
TAP	110	0	1
TAP	110	0	5
TAP	110	48	0
TAP	110	48	6
HLD	110	96	0	96
TAP	110	96	6
TAP	110	120	5
TAP	110	144	4
TAP	110	168	3
TAP	110	192	2
TAP	110	240	0
HLD	110	240	5	96
TAP	110	264	1
TAP	110	288	2
TAP	110	312	3
TAP	110	336	4
BRK	111	0	6
TAP	111	12	5
TAP	111	24	6
TAP	111	48	0
TAP	111	72	7
TAP	111	96	0
TAP	111	144	0
TAP	111	144	7
TAP	111	192	1
TAP	111	192	6
TAP	111	240	2
TAP	111	240	5
TAP	111	288	3
STR	111	288	4
SI_	111	288	4	96	48	0
STR	112	0	2
SI_	112	0	2	96	48	7
TAP	112	0	4
TAP	112	48	2
TAP	112	96	2
STR	112	96	6
SI_	112	96	6	96	48	3
TAP	112	144	6
STR	112	192	1
SI_	112	192	1	96	48	4
TAP	112	192	6
TAP	112	240	1
TAP	112	288	1
STR	112	288	5
SI_	112	288	5	96	48	0
TAP	112	336	5
STR	113	0	2
SCL	113	0	2	96	48	7
TAP	113	0	5
TAP	113	48	2
TAP	113	96	2
STR	113	96	6
SCL	113	96	6	96	48	3
TAP	113	144	6
TAP	113	192	2
TAP	113	192	6
TAP	113	240	1
TAP	113	288	0
TAP	113	336	0
HLD	114	0	6	32
HLD	114	32	2	16
HLD	114	64	4	32
HLD	114	96	0	32
HLD	114	128	6	16
HLD	114	160	4	32
HLD	114	192	7	32
HLD	114	224	2	16
HLD	114	256	3	32
HLD	114	288	0	32
HLD	114	320	5	16
HLD	114	352	1	32
TAP	115	0	6
TAP	115	24	0
TAP	115	48	6
TAP	115	72	0
TAP	115	96	6
TAP	115	120	0
TAP	115	144	6
TAP	115	168	0
TAP	115	192	6
TAP	115	208	5
TAP	115	224	4
TAP	115	240	7
TAP	115	256	6
TAP	115	272	5
STR	115	288	0
SUL	115	288	0	96	576	7
STR	115	288	4
SUL	115	288	4	96	576	3
TAP	115	300	7
TAP	115	312	6
TAP	115	324	5
TAP	115	336	4
TAP	115	348	3
TAP	115	360	2
TAP	115	372	1
TAP	116	0	0
TTP	118	0	0	C	1	M1
BRK	118	0	5
TTP	118	64	0	C	1	M1
BRK	118	64	1
TTP	118	128	0	C	1	M1
BRK	118	128	7
TTP	118	192	0	C	1	M1
BRK	118	192	2
TTP	118	256	0	C	1	M1
BRK	118	256	6
BRK	118	320	0
TTP	118	320	0	C	1	M1
HLD	119	0	1	60
BRK	119	0	7
TAP	119	10	6
TAP	119	20	5
TAP	119	30	4
TAP	119	40	3
TAP	119	50	2
BRK	119	144	0
HLD	119	144	7	60
TAP	119	154	1
TAP	119	164	2
TAP	119	174	3
TAP	119	184	4
TAP	119	194	5
TAP	119	204	6
BRK	119	288	7
BRK	119	298	0
BRK	119	298	6
BRK	119	308	1
BRK	119	308	5
BRK	119	318	2
BRK	119	318	4
BST	119	328	3
SSR	119	328	3	96	680	7
SSR	119	328	3	96	680	7
THO	122	0	0	24	C	0	M1
TTP	122	0	1	B	0	M1
TTP	122	0	2	B	0	M1
TTP	122	0	2	E	0	M1
TTP	122	0	5	B	0	M1
TTP	122	0	6	B	0	M1
TTP	122	0	6	E	0	M1

T_REC_TAP	748
T_REC_BRK	81
T_REC_XTP	33
T_REC_HLD	83
T_REC_XHO	1
T_REC_STR	74
T_REC_BST	19
T_REC_XST	1
T_REC_TTP	94
T_REC_THO	4
T_REC_SLD	96
T_REC_ALL	1234
T_NUM_TAP	950
T_NUM_BRK	100
T_NUM_HLD	88
T_NUM_SLD	96
T_NUM_ALL	1234
T_JUDGE_TAP	1050
T_JUDGE_HLD	165
T_JUDGE_SLD	96
T_JUDGE_ALL	1311
TTM_EACHPAIRS	185
TTM_SCR_TAP	475000
TTM_SCR_BRK	260000
TTM_SCR_HLD	88000
TTM_SCR_SLD	144000
TTM_SCR_ALL	967000
TTM_SCR_S	928300
TTM_SCR_SS	957000
TTM_RAT_ACV	10104

