VERSION	0.00.00	1.03.00
FES_MODE	0
BPM_DEF	180.000	205.000	205.000	100.000
MET_DEF	4	4
RESOLUTION	384
CLK_DEF	384
COMPATIBLE_CODE	MA2

BPM	0	0	180.000
BPM	8	0	160.000
BPM	8	192	140.000
BPM	9	0	120.000
BPM	9	192	100.000
BPM	10	0	205.000
MET	0	0	4	4

TTP	2	0	1	B	0	M1
TTP	2	0	1	E	0	M1
TTP	2	0	6	B	0	M1
TTP	2	0	7	E	0	M1
TTP	2	288	6	E	0	M1
TTP	3	0	5	E	0	M1
TTP	3	96	4	E	0	M1
TTP	3	192	3	E	0	M1
TTP	3	288	2	E	0	M1
TTP	4	0	0	B	0	M1
TTP	4	0	7	B	0	M1
TTP	4	288	2	E	0	M1
TTP	5	0	3	E	0	M1
TTP	5	96	4	E	0	M1
TTP	5	192	5	E	0	M1
TTP	5	288	6	E	0	M1
TTP	6	0	0	B	0	M1
TTP	6	0	0	E	0	M1
TTP	6	192	6	B	0	M1
TTP	6	192	6	E	0	M1
TTP	7	0	2	B	0	M1
TTP	7	0	2	E	0	M1
TTP	7	192	4	B	0	M1
TTP	7	192	4	E	0	M1
BRK	8	0	0
XTP	8	0	7
XTP	8	192	5
BRK	8	192	6
XTP	9	0	1
BRK	9	0	2
XTP	9	192	3
BRK	9	192	4
BRK	10	0	0
BRK	10	0	7
TAP	10	96	1
TAP	10	144	1
TAP	10	240	0
TAP	10	240	1
TAP	10	336	4
TAP	11	48	6
TAP	11	48	7
TAP	11	144	3
TAP	11	240	0
TAP	11	288	0
TAP	12	0	1
TAP	12	0	7
TAP	12	96	6
TAP	12	144	6
TAP	12	240	3
TAP	12	240	4
TAP	12	336	1
TAP	13	48	3
TAP	13	48	4
TAP	13	144	6
TAP	13	192	6
TAP	13	240	4
TAP	13	288	5
TAP	14	0	0
TAP	14	0	6
TAP	14	96	1
TAP	14	144	1
TAP	14	240	0
TAP	14	240	1
TAP	14	336	4
TAP	15	48	6
TAP	15	48	7
TAP	15	144	3
TAP	15	240	0
TAP	15	288	0
XTP	16	0	7
TAP	16	24	6
TAP	16	48	5
XTP	16	96	0
TAP	16	120	1
TAP	16	144	2
XTP	16	192	6
TAP	16	216	5
TAP	16	240	4
XTP	16	288	1
TAP	16	312	2
TAP	16	336	3
TAP	17	48	4
TAP	17	96	4
TAP	17	144	4
TAP	17	192	4
TAP	17	240	4
BRK	17	288	0
HLD	18	0	1	288
TAP	18	0	7
HLD	18	144	3	144
TAP	19	0	0
HLD	19	0	6	288
HLD	19	144	4	144
XHO	20	0	1	72
XHO	20	72	3	72
XHO	20	144	4	72
XHO	20	216	6	72
XST	20	288	0
SCR	20	288	0	96	288	7
HLD	22	0	0	96
HLD	22	0	1	96
HLD	22	192	6	96
HLD	22	192	7	96
TAP	23	0	0
TAP	23	0	1
TAP	23	96	6
TAP	23	96	7
TAP	23	192	1
TAP	23	192	3
TAP	23	288	4
TAP	23	288	6
TAP	24	0	2
TAP	24	48	2
TAP	24	96	5
TAP	24	144	5
TAP	24	192	3
TAP	24	240	3
TAP	24	288	4
TAP	24	336	4
THO	25	0	0	192	C	1	M1
BRK	25	192	7
TAP	26	0	0
TAP	26	0	6
TAP	26	96	7
TAP	26	144	7
STR	26	240	1
SUR	26	240	1	96	240	4
TAP	26	336	0
TAP	27	192	5
TAP	27	288	4
TAP	27	288	6
TAP	28	0	1
TAP	28	0	7
TAP	28	96	0
TAP	28	144	0
STR	28	240	6
SUL	28	240	6	96	240	3
TAP	28	336	7
TAP	29	192	2
TAP	29	288	1
TAP	29	288	3
TAP	30	0	0
TAP	30	0	6
TAP	30	96	1
TAP	30	96	5
STR	30	144	1
SI_	30	144	1	96	48	3
TAP	30	144	5
STR	30	240	7
SI_	30	240	7	96	48	5
STR	30	336	4
SXR	30	336	4	96	240	0
TAP	31	288	7
HLD	32	0	7	96
TAP	32	144	0
TAP	32	144	6
HLD	32	192	0	96
HLD	32	192	6	96
TAP	32	336	1
TAP	32	336	5
TAP	33	0	1
TAP	33	0	5
TAP	33	96	2
TAP	33	96	4
TAP	33	144	2
TAP	33	144	4
STR	33	240	3
SF_	33	240	3	96	72	7
TAP	34	96	1
TAP	34	96	5
TAP	34	192	2
TAP	34	240	2
TAP	34	288	3
TAP	35	0	4
TAP	35	0	5
TAP	35	96	6
TAP	35	96	7
TAP	35	192	5
TAP	35	240	5
TAP	35	288	4
HLD	36	0	1	72
HLD	36	72	2	72
TAP	36	144	3
HLD	36	192	6	72
HLD	36	264	5	72
TAP	36	336	4
STR	37	0	1
SI_	37	0	1	96	48	5
TAP	37	96	7
TAP	37	144	7
TAP	37	240	6
TAP	37	288	6
TAP	37	336	4
TAP	38	48	1
TAP	38	96	1
TAP	38	144	3
TAP	38	240	5
TAP	38	288	5
TAP	38	336	4
TAP	39	48	2
TAP	39	96	2
TAP	39	144	3
TAP	39	240	4
TAP	39	288	4
TAP	39	336	3
TAP	40	48	1
TAP	40	48	6
TAP	40	96	1
TAP	40	96	6
XHO	40	192	0	48
XHO	40	192	7	48
XHO	40	264	1	48
XHO	40	264	6	48
XST	40	336	2
SXR	40	336	2	96	240	3
XST	40	336	5
SXL	40	336	5	96	240	4
TAP	42	0	3
TAP	42	0	4
HLD	42	96	2	144
TAP	42	240	3
TAP	42	336	2
TAP	42	336	4
TAP	43	48	5
TAP	43	144	4
TAP	43	144	6
TAP	43	240	3
TAP	43	288	3
TAP	44	0	2
TAP	44	0	4
HLD	44	96	5	144
TAP	44	240	4
TAP	44	336	3
TAP	44	336	5
TAP	45	48	2
TAP	45	48	4
TAP	45	144	1
TAP	45	192	1
TAP	45	240	3
TAP	45	288	2
TAP	46	0	3
TAP	46	0	4
HLD	46	96	2	144
TAP	46	240	3
TAP	46	336	2
TAP	46	336	4
TAP	47	48	5
TAP	47	144	4
TAP	47	144	6
TAP	47	240	7
TAP	47	288	7
XTP	48	0	0
XTP	48	0	6
TAP	48	72	1
TAP	48	72	5
TAP	48	144	2
TAP	48	144	4
XTP	48	192	3
XTP	48	192	5
TAP	48	264	2
TAP	48	264	6
BRK	48	336	1
BRK	48	336	7
HLD	50	0	2	384
HLD	51	0	3	192
HLD	51	192	4	192
HLD	52	0	5	384
TTP	53	0	2	B	0	M1
TTP	53	96	3	B	0	M1
TTP	53	192	4	B	0	M1
TTP	53	288	5	B	0	M1
TAP	54	0	2
TAP	54	48	2
TAP	54	96	3
TAP	54	144	3
TAP	54	192	1
TAP	54	240	1
TAP	54	288	7
TAP	54	336	7
TAP	55	0	0
TAP	55	48	0
TAP	55	96	6
TAP	55	144	6
TAP	55	192	4
TAP	55	240	4
TAP	55	288	5
TAP	55	336	5
TTP	56	0	3	B	0	M1
TTP	56	24	2	B	0	M1
TTP	56	48	1	B	0	M1
TTP	56	72	0	B	0	M1
TTP	56	96	7	B	0	M1
TTP	56	120	6	B	0	M1
TTP	56	144	5	B	0	M1
TTP	56	168	4	B	0	M1
TTP	56	192	3	E	0	M1
TTP	56	216	2	E	0	M1
TTP	56	240	1	E	0	M1
TTP	56	264	0	E	0	M1
TTP	56	288	7	E	0	M1
TTP	56	312	6	E	0	M1
TTP	56	336	5	E	0	M1
TTP	56	360	4	E	0	M1
THO	57	0	0	384	C	1	M1
TTP	58	0	1	B	0	M1
TTP	58	0	2	B	0	M1
TTP	58	0	5	B	0	M1
TTP	58	0	6	B	0	M1
XTP	62	0	3
XTP	62	0	4
TAP	62	96	5
TAP	62	192	4
TAP	62	288	3
TAP	63	0	2
TAP	63	96	3
TAP	63	192	4
TAP	63	288	5
TAP	64	0	6
TAP	64	48	6
TAP	64	96	7
TAP	64	144	7
TAP	64	192	0
TAP	64	240	0
TAP	64	288	1
TAP	64	336	1
STR	65	0	2
SXL	65	0	2	96	192	7
HLD	66	0	6	288
HLD	66	144	4	144
HLD	67	0	1	288
HLD	67	144	3	144
STR	68	0	3
SCL	68	0	3	96	288	4
TAP	68	0	4
TTP	69	0	0	C	1	M1
HLD	70	0	2	288
TAP	70	0	4
TAP	70	96	3
TAP	70	192	3
TAP	70	288	3
TAP	71	0	3
HLD	71	0	5	288
TAP	71	96	4
TAP	71	192	4
TAP	71	288	4
XTP	72	0	1
XTP	72	0	6
BRK	72	192	3
BRK	72	192	4
BRK	73	0	2
BRK	73	0	5
XTP	73	48	2
XTP	73	48	5
XTP	73	96	2
XTP	73	96	5
XTP	73	144	2
XTP	73	144	5
BRK	73	192	1
BRK	73	192	6
XTP	73	240	1
XTP	73	240	6
XTP	73	288	1
XTP	73	288	6
XTP	73	336	1
XTP	73	336	6
XST	74	0	0
SI_	74	0	0	96	48	4
XTP	74	0	7
STR	74	96	6
SI_	74	96	6	96	48	3
STR	74	192	2
SI_	74	192	2	96	48	7
TAP	74	288	4
TAP	75	0	3
TAP	75	0	5
TAP	75	96	1
TAP	75	96	7
STR	75	144	1
SI_	75	144	1	96	48	3
STR	75	144	7
SI_	75	144	7	96	48	3
STR	76	0	4
SI_	76	0	4	96	48	0
STR	76	96	2
SI_	76	96	2	96	48	7
STR	76	192	6
SI_	76	192	6	96	48	3
TAP	76	288	0
TAP	77	0	1
TAP	77	0	7
TAP	77	96	3
TAP	77	96	5
STR	77	144	3
SF_	77	144	3	96	72	7
TAP	77	144	5
XTP	78	0	1
XTP	78	0	5
TAP	78	96	6
TAP	78	96	7
TAP	78	144	6
TAP	78	144	7
TAP	78	192	0
TAP	78	192	5
TAP	78	288	0
TAP	78	288	1
TAP	78	336	0
TAP	78	336	1
TAP	79	0	2
TAP	79	0	7
TAP	79	96	1
TAP	79	96	3
TAP	79	144	1
TAP	79	144	3
TAP	79	240	4
TAP	79	240	6
TAP	79	288	4
TAP	79	288	6
STR	80	0	0
SI_	80	0	0	96	48	5
STR	80	0	1
SI_	80	0	1	96	48	4
STR	80	192	6
SI_	80	192	6	96	48	3
STR	80	192	7
SI_	80	192	7	96	48	2
HLD	81	0	0	48
HLD	81	0	7	48
HLD	81	72	1	48
HLD	81	72	6	48
TAP	81	144	2
TAP	81	144	5
XST	81	192	2
SV_	81	192	2	96	48	1
XST	81	192	5
SV_	81	192	5	96	48	6
XTP	82	0	0
XST	82	0	7
SI_	82	0	7	96	48	3
STR	82	96	1
SI_	82	96	1	96	48	4
STR	82	192	5
SI_	82	192	5	96	48	0
TAP	82	288	3
TAP	83	0	2
TAP	83	0	4
TAP	83	96	0
TAP	83	96	6
STR	83	144	0
SI_	83	144	0	96	48	4
STR	83	144	6
SI_	83	144	6	96	48	4
STR	84	0	3
SI_	84	0	3	96	48	7
STR	84	96	5
SI_	84	96	5	96	48	0
STR	84	192	1
SI_	84	192	1	96	48	4
STR	84	288	6
SI_	84	288	6	96	48	3
STR	85	0	2
SI_	85	0	2	96	48	7
STR	85	96	4
SI_	85	96	4	96	48	0
XTP	85	192	0
XTP	85	288	2
XTP	85	288	6
XTP	86	0	3
TAP	86	0	5
TAP	86	48	5
TAP	86	96	4
TAP	86	144	4
TAP	86	192	3
XTP	86	192	6
TAP	86	240	3
TAP	86	288	2
TAP	86	336	2
TAP	87	0	1
XTP	87	0	4
TAP	87	48	1
TAP	87	96	0
TAP	87	144	0
XTP	87	192	1
TAP	87	192	7
TAP	87	240	7
STR	87	288	6
SXR	87	288	6	96	288	0
TAP	87	336	6
XTP	88	0	0
STR	89	0	3
SI_	89	0	3	96	48	7
STR	89	192	0
SI_	89	192	0	96	48	2
STR	89	192	6
SI_	89	192	6	96	48	4
XTP	90	0	3
XTP	90	72	4
TAP	90	72	5
XTP	90	144	1
TAP	90	144	3
TAP	90	216	5
XTP	90	216	6
XTP	90	288	0
TAP	90	288	1
XTP	91	0	4
TAP	91	72	2
XTP	91	72	3
TAP	91	144	4
XTP	91	144	6
XTP	91	216	1
TAP	91	216	2
TAP	91	288	6
XTP	91	288	7
HLD	92	0	3	72
HLD	92	72	2	72
TAP	92	144	0
HLD	92	192	4	72
HLD	92	264	5	72
TAP	92	336	7
THO	93	0	0	384	C	0	M1
TTP	94	0	5	E	0	M1
TTP	94	16	4	B	0	M1
TTP	94	32	3	B	0	M1
TTP	94	48	3	E	0	M1
TTP	95	0	0	E	0	M1
TTP	95	0	4	E	0	M1
TAP	96	0	2
TAP	96	192	3
TAP	97	0	4
TAP	97	192	5
HLD	98	0	6	192
HLD	98	192	4	192
XHO	99	0	3	192
HLD	99	192	1	192
TAP	100	0	0
TAP	100	48	0
TAP	100	96	1
TAP	100	96	7
TAP	100	144	1
TAP	100	144	7
TAP	100	192	2
TAP	100	192	6
TAP	100	240	2
TAP	100	240	6
TAP	100	288	3
TAP	100	288	5
TAP	100	336	3
TAP	100	336	5
HLD	101	0	4	192
TAP	101	192	3
BRK	101	288	0
BRK	101	288	7
STR	102	0	1
SI_	102	0	1	96	48	4
TAP	102	48	1
STR	102	96	6
SI_	102	96	6	96	48	3
TAP	102	144	6
STR	102	192	0
SI_	102	192	0	96	48	4
TAP	102	240	0
STR	102	288	7
SI_	102	288	7	96	48	3
TAP	102	336	7
STR	103	0	1
SI_	103	0	1	96	48	5
TAP	103	48	1
STR	103	96	6
SI_	103	96	6	96	48	2
TAP	103	144	6
STR	103	192	0
SCR	103	192	0	96	48	3
TAP	103	240	0
STR	103	288	7
SCL	103	288	7	96	48	4
TAP	103	336	7
STR	104	0	1
SI_	104	0	1	96	48	4
TAP	104	48	1
STR	104	96	6
SI_	104	96	6	96	48	3
TAP	104	144	6
STR	104	192	0
SI_	104	192	0	96	48	4
TAP	104	240	0
STR	104	288	7
SI_	104	288	7	96	48	3
TAP	104	336	7
TAP	105	0	0
TAP	105	48	1
TAP	105	96	2
TAP	105	144	3
XTP	105	192	1
TAP	105	192	4
TAP	105	240	5
TAP	105	288	3
XTP	105	288	6
TAP	105	336	7
HLD	106	0	0	64
HLD	106	96	1	64
HLD	106	96	7	64
HLD	106	192	5	64
HLD	106	288	4	64
HLD	106	288	6	64
HLD	107	0	2	64
HLD	107	96	1	64
HLD	107	96	3	64
HLD	107	192	7	64
HLD	107	288	0	64
HLD	107	288	6	64
XTP	108	0	1
TAP	108	0	5
TAP	108	48	1
XTP	108	48	5
TAP	108	144	3
TAP	108	144	7
TAP	108	192	4
TAP	108	192	6
TAP	108	288	0
TAP	108	288	4
TAP	108	336	1
TAP	108	336	3
TAP	109	48	3
TAP	109	48	7
TAP	109	96	4
TAP	109	96	6
TAP	109	192	1
TAP	109	192	5
TAP	109	240	2
TAP	109	288	3
TAP	109	336	4
TAP	110	0	2
XTP	110	0	6
XTP	110	48	2
TAP	110	48	6
TAP	110	144	0
TAP	110	144	4
TAP	110	192	1
TAP	110	192	3
TAP	110	288	3
TAP	110	288	7
TAP	110	336	4
TAP	110	336	6
TAP	111	48	0
TAP	111	48	4
TAP	111	96	1
TAP	111	96	3
TAP	111	192	2
TAP	111	192	6
TAP	111	240	5
TAP	111	288	4
TAP	111	336	3
XTP	112	0	1
TAP	112	0	5
TAP	112	48	5
TAP	112	96	2
XTP	112	96	6
TAP	112	144	2
XTP	112	192	1
TAP	112	192	7
TAP	112	240	7
TAP	112	288	0
XTP	112	288	6
TAP	112	336	0
XTP	113	0	1
TAP	113	0	4
TAP	113	48	4
TAP	113	96	3
XTP	113	96	6
TAP	113	144	3
XTP	113	192	2
TAP	113	192	4
TAP	113	240	4
TAP	113	288	3
XTP	113	288	5
TAP	113	336	3
XTP	114	0	6
TAP	114	32	4
TAP	114	64	5
XTP	114	96	1
TAP	114	128	3
TAP	114	160	2
XTP	114	192	6
TAP	114	224	7
TAP	114	256	6
XTP	114	288	1
TAP	114	320	0
TAP	114	352	1
XTP	115	0	7
TAP	115	48	7
XTP	115	96	0
XTP	115	96	6
TAP	115	144	0
TAP	115	144	6
XTP	115	192	1
TAP	115	216	5
TAP	115	240	1
TAP	115	264	5
TAP	115	288	1
TAP	115	312	5
TAP	115	336	1
TAP	115	360	5
TTP	116	0	0	C	1	M1
BRK	118	0	0
XTP	118	0	1
XTP	118	64	2
TAP	118	64	3
XTP	118	128	0
TAP	118	128	4
XTP	118	192	6
BRK	118	192	7
TAP	118	256	4
XTP	118	256	5
TAP	118	320	3
XTP	118	320	7
BRK	119	0	0
BST	119	0	1
SI_	119	0	1	96	48	5
BST	119	144	6
SI_	119	144	6	96	48	2
BST	119	288	0
SCR	119	288	0	96	768	7

T_REC_TAP	388
T_REC_BRK	21
T_REC_XTP	78
T_REC_HLD	52
T_REC_XHO	9
T_REC_STR	47
T_REC_BST	3
T_REC_XST	7
T_REC_TTP	56
T_REC_THO	3
T_REC_SLD	57
T_REC_ALL	721
T_NUM_TAP	576
T_NUM_BRK	24
T_NUM_HLD	64
T_NUM_SLD	57
T_NUM_ALL	721
T_JUDGE_TAP	600
T_JUDGE_HLD	191
T_JUDGE_SLD	57
T_JUDGE_ALL	848
TTM_EACHPAIRS	161
TTM_SCR_TAP	288000
TTM_SCR_BRK	62400
TTM_SCR_HLD	64000
TTM_SCR_SLD	85500
TTM_SCR_ALL	499900
TTM_SCR_S	482600
TTM_SCR_SS	497500
TTM_RAT_ACV	10048

