VERSION	0.00.00	1.03.00
FES_MODE	0
BPM_DEF	180.000	205.000	205.000	100.000
MET_DEF	4	4
RESOLUTION	384
CLK_DEF	384
COMPATIBLE_CODE	MA2

BPM	0	0	180.000
BPM	8	0	160.000
BPM	8	192	140.000
BPM	9	0	120.000
BPM	9	192	100.000
BPM	10	0	205.000
MET	0	0	4	4

HLD	2	0	1	384
HLD	3	0	0	384
HLD	4	0	7	384
TAP	5	0	6
STR	6	0	5
SCR	6	0	5	96	192	0
STR	7	0	1
SCR	7	0	1	96	192	4
XTP	8	0	5
XTP	8	192	6
XTP	9	0	7
XTP	9	192	0
XTP	9	192	7
TAP	10	0	1
TAP	10	96	1
TAP	10	192	0
TAP	10	288	0
TAP	11	0	7
TAP	11	96	7
TAP	11	192	0
TAP	11	192	6
TAP	12	0	5
TAP	12	96	5
TAP	12	192	4
TAP	12	288	4
TAP	13	0	3
TAP	13	96	3
TAP	13	192	3
TAP	13	192	4
TAP	14	0	2
TAP	14	96	2
TAP	14	192	3
TAP	14	288	3
TAP	15	0	4
TAP	15	96	4
TAP	15	192	3
TAP	15	192	5
TAP	16	0	6
TAP	16	48	6
TAP	16	96	6
TAP	16	192	0
TAP	16	192	7
TAP	16	240	0
TAP	16	240	7
STR	16	288	0
SI_	16	288	0	96	192	4
STR	16	288	7
SI_	16	288	7	96	192	3
STR	18	0	5
SCR	18	0	5	96	192	0
STR	19	0	1
SUR	19	0	1	96	192	5
STR	20	0	6
SUL	20	0	6	96	192	2
TAP	21	0	1
TAP	21	96	1
TAP	21	192	0
TAP	21	192	7
HLD	22	0	6	192
HLD	22	192	7	192
HLD	23	0	0	192
TAP	23	192	1
TAP	24	0	0
TAP	24	0	7
TAP	24	48	0
TAP	24	48	7
TAP	24	96	0
TAP	24	96	7
TAP	24	192	1
TAP	24	192	6
TAP	24	240	1
TAP	24	240	6
TAP	24	288	1
TAP	24	288	6
BRK	25	0	2
BRK	25	0	5
TAP	26	0	6
TAP	26	96	6
TAP	26	192	7
TAP	26	288	7
TAP	27	0	0
TAP	27	96	0
TAP	27	192	1
TAP	27	192	7
TAP	28	0	2
TAP	28	96	2
TAP	28	192	3
TAP	28	288	3
TAP	29	0	4
TAP	29	96	4
TAP	29	192	3
TAP	29	192	4
TAP	30	0	5
TAP	30	96	5
TAP	30	192	4
TAP	30	288	4
TAP	31	0	3
TAP	31	96	3
TAP	31	192	2
TAP	31	192	4
TAP	32	0	1
TAP	32	96	1
TAP	32	192	0
TAP	32	288	0
XTP	33	0	0
XTP	33	0	7
XTP	33	96	1
XTP	33	96	6
XTP	33	192	2
XTP	33	192	5
TAP	34	0	6
TAP	34	96	6
TAP	34	192	6
TAP	34	192	7
TAP	34	288	6
TAP	34	288	7
TAP	35	0	5
TAP	35	96	4
TAP	35	192	3
TAP	35	288	2
TAP	36	0	1
TAP	36	96	1
TAP	36	192	0
TAP	36	192	1
TAP	36	288	0
TAP	36	288	1
TAP	37	0	2
TAP	37	96	3
TAP	37	192	4
TAP	37	288	5
TAP	38	0	6
TAP	38	96	7
TAP	38	192	0
TAP	38	288	1
TAP	39	0	2
TAP	39	96	3
TAP	39	192	4
TAP	39	288	5
TAP	40	0	3
TAP	40	0	4
TAP	40	48	3
TAP	40	48	4
TAP	40	96	3
TAP	40	96	4
STR	40	192	2
SLL	40	192	2	96	288	3
STR	40	192	5
SLR	40	192	5	96	288	4
STR	42	0	5
SI_	42	0	5	96	192	0
TAP	43	0	1
TAP	43	96	1
TAP	43	192	0
TAP	43	192	1
STR	44	0	2
SI_	44	0	2	96	192	7
TAP	45	0	6
TAP	45	96	6
TAP	45	192	6
TAP	45	192	7
STR	46	0	5
SI_	46	0	5	96	192	0
TAP	47	0	1
TAP	47	96	1
TAP	47	192	0
TAP	47	192	1
XTP	48	0	7
XTP	48	72	7
XTP	48	144	7
XTP	48	192	0
XTP	48	264	0
XTP	48	336	0
XST	49	0	7
SI_	49	0	7	96	192	3
TTP	50	0	3	E	0	L1
TTP	51	0	4	E	0	L1
TTP	52	0	5	E	0	L1
TTP	53	0	0	C	0	L1
TTP	54	0	6	E	0	L1
TTP	54	96	5	B	0	L1
TTP	54	192	4	B	0	L1
TTP	55	0	2	E	0	L1
TTP	55	96	2	B	0	L1
TTP	55	192	3	B	0	L1
TTP	56	0	6	B	0	L1
TTP	56	96	7	B	0	L1
TTP	56	192	0	B	0	L1
TTP	56	288	1	B	0	L1
TTP	57	0	0	C	1	L1
STR	58	0	7
SCL	58	0	7	96	384	2
STR	60	0	0
SCR	60	0	0	96	384	5
TAP	62	0	6
TAP	62	192	7
TAP	63	0	0
TAP	63	192	1
TAP	64	0	0
TAP	64	0	7
TAP	64	96	0
TAP	64	96	7
TAP	64	192	1
TAP	64	192	6
TAP	64	288	2
TAP	64	288	5
BRK	65	0	3
BRK	65	0	4
TAP	65	192	2
TAP	65	192	5
HLD	66	0	6	384
HLD	67	0	7	384
HLD	68	0	0	384
TAP	69	0	1
TAP	69	192	0
TAP	69	192	7
TAP	70	0	1
TAP	70	0	6
TAP	70	96	1
TAP	70	96	6
TAP	70	192	2
TAP	70	192	5
TAP	70	288	2
TAP	70	288	5
TAP	71	0	3
TAP	71	48	3
TAP	71	96	3
TAP	71	192	4
TAP	71	240	4
TAP	71	288	4
TAP	72	0	3
TAP	72	0	4
TAP	72	192	2
TAP	72	192	5
TAP	73	0	1
TAP	73	0	6
BRK	73	192	0
BRK	73	192	7
TAP	74	0	6
TAP	74	96	6
TAP	74	96	7
TAP	74	192	5
TAP	74	240	5
TAP	74	288	5
TAP	75	0	4
TAP	75	0	5
TAP	75	96	4
TAP	75	96	5
TAP	75	192	3
TAP	75	192	6
TAP	76	0	2
TAP	76	96	2
TAP	76	96	3
TAP	76	192	1
TAP	76	240	1
TAP	76	288	1
TAP	77	0	0
TAP	77	96	0
TAP	77	96	7
TAP	77	192	1
TAP	77	192	6
TAP	78	0	5
TAP	78	96	4
TAP	78	96	5
TAP	78	192	5
TAP	78	288	4
TAP	78	288	5
TAP	79	0	6
TAP	79	96	7
TAP	79	192	0
TAP	79	288	1
TAP	80	0	2
TAP	80	96	2
TAP	80	96	3
TAP	80	192	2
TAP	80	288	3
TAP	81	0	3
TAP	81	0	4
TAP	81	48	3
TAP	81	48	4
TAP	81	96	3
TAP	81	96	4
BRK	81	192	2
BRK	81	192	5
TAP	82	0	5
TAP	82	96	4
TAP	82	96	5
TAP	82	192	6
TAP	82	240	6
TAP	82	288	6
TAP	83	0	6
TAP	83	0	7
TAP	83	96	6
TAP	83	96	7
TAP	83	192	0
TAP	83	192	5
TAP	84	0	1
TAP	84	96	0
TAP	84	96	1
TAP	84	192	2
TAP	84	240	2
TAP	84	288	2
TAP	85	0	3
TAP	85	96	3
TAP	85	96	4
TAP	85	192	2
TAP	85	192	5
TAP	86	0	6
TAP	86	48	6
TAP	86	96	6
TAP	86	192	6
TAP	86	192	7
TAP	86	288	6
TAP	86	288	7
TAP	87	0	0
TAP	87	48	0
TAP	87	96	0
TAP	87	192	0
TAP	87	192	7
TAP	87	288	0
TAP	87	288	7
TAP	88	0	1
TAP	88	48	1
TAP	88	96	1
TAP	88	192	2
TAP	88	240	2
TAP	88	288	2
TAP	89	0	3
TAP	89	0	4
TAP	89	48	3
TAP	89	48	4
TAP	89	96	3
TAP	89	96	4
TAP	89	192	2
TAP	89	192	5
STR	90	0	6
SI_	90	0	6	96	192	3
STR	90	0	7
SI_	90	0	7	96	192	3
STR	91	0	0
SI_	91	0	0	96	192	4
STR	91	0	1
SI_	91	0	1	96	192	4
STR	92	0	6
SI_	92	0	6	96	192	3
STR	92	0	7
SI_	92	0	7	96	192	3
STR	93	0	0
SSL	93	0	0	96	288	4
TAP	93	0	1
TTP	95	0	4	E	0	L1
TTP	96	0	5	B	0	L1
TTP	96	192	4	B	0	L1
TTP	97	0	3	B	0	L1
TTP	97	192	2	B	0	L1
THO	98	0	0	384	C	0	L1
TAP	100	0	0
TAP	100	0	7
TAP	100	96	1
TAP	100	96	6
TAP	100	192	2
TAP	100	192	5
STR	100	288	3
SI_	100	288	3	96	192	0
STR	100	288	4
SI_	100	288	4	96	192	7
TAP	102	0	0
TAP	102	0	7
TAP	102	48	0
TAP	102	48	7
TAP	102	96	0
TAP	102	96	7
TAP	102	192	6
TAP	102	288	5
TAP	103	0	3
TAP	103	0	4
TAP	103	48	3
TAP	103	48	4
TAP	103	96	3
TAP	103	96	4
TAP	103	192	2
TAP	103	288	1
TAP	104	0	0
TAP	104	0	7
TAP	104	48	0
TAP	104	48	7
TAP	104	96	0
TAP	104	96	7
TAP	104	192	1
TAP	104	192	6
TAP	104	240	1
TAP	104	240	6
TAP	104	288	1
TAP	104	288	6
BRK	105	0	2
BRK	105	0	5
TAP	105	192	3
TAP	105	192	4
HLD	106	0	5	96
HLD	106	96	4	96
HLD	106	192	3	96
TAP	106	288	2
HLD	107	0	1	96
HLD	107	96	0	96
HLD	107	192	7	96
TAP	107	288	6
TAP	108	0	6
TAP	108	0	7
TAP	108	96	5
TAP	108	144	5
TAP	108	240	4
TAP	108	288	4
TAP	109	0	3
TAP	109	48	3
TAP	109	144	2
TAP	109	192	2
TAP	109	288	2
TAP	109	288	3
TAP	110	0	2
TAP	110	0	3
TAP	110	96	1
TAP	110	144	1
TAP	110	240	0
TAP	110	288	0
TAP	111	0	7
TAP	111	48	7
TAP	111	144	6
TAP	111	192	6
TAP	111	288	0
TAP	111	288	7
TAP	112	0	6
TAP	112	96	7
TAP	112	192	0
TAP	112	288	1
TAP	113	0	2
TAP	113	96	3
TAP	113	192	4
TAP	113	288	5
TAP	114	0	6
TAP	114	48	6
TAP	114	96	6
TAP	114	192	0
TAP	114	192	7
TAP	114	240	0
TAP	114	240	7
TAP	114	288	0
TAP	114	288	7
TAP	115	0	0
TAP	115	48	1
TAP	115	96	2
TAP	115	144	3
TAP	115	192	4
TAP	115	240	5
TAP	115	288	6
TAP	115	336	7
TTP	116	0	0	C	1	L1
TAP	118	0	0
TAP	118	64	0
TAP	118	128	0
TAP	118	192	7
TAP	118	256	7
TAP	118	320	7
XTP	119	0	0
XTP	119	0	7
TAP	119	96	1
TAP	119	96	6
TAP	119	144	1
TAP	119	144	6
TAP	119	240	0
TAP	119	240	7
BST	119	288	0
SCR	119	288	0	96	768	7
BRK	119	288	7

T_REC_TAP	355
T_REC_BRK	11
T_REC_XTP	19
T_REC_HLD	15
T_REC_XHO	0
T_REC_STR	23
T_REC_BST	1
T_REC_XST	1
T_REC_TTP	21
T_REC_THO	1
T_REC_SLD	25
T_REC_ALL	472
T_NUM_TAP	419
T_NUM_BRK	12
T_NUM_HLD	16
T_NUM_SLD	25
T_NUM_ALL	472
T_JUDGE_TAP	431
T_JUDGE_HLD	80
T_JUDGE_SLD	25
T_JUDGE_ALL	536
TTM_EACHPAIRS	110
TTM_SCR_TAP	209500
TTM_SCR_BRK	31200
TTM_SCR_HLD	16000
TTM_SCR_SLD	37500
TTM_SCR_ALL	294200
TTM_SCR_S	284250
TTM_SCR_SS	293000
TTM_RAT_ACV	10040

