VERSION	0.00.00	1.03.00
FES_MODE	0
BPM_DEF	180.000	205.000	205.000	100.000
MET_DEF	4	4
RESOLUTION	384
CLK_DEF	384
COMPATIBLE_CODE	MA2

BPM	0	0	180.000
BPM	8	0	160.000
BPM	8	192	140.000
BPM	9	0	120.000
BPM	9	192	100.000
BPM	10	0	205.000
MET	0	0	4	4

STR	2	0	0
SI_	2	0	0	96	288	3
STR	4	0	4
SI_	4	0	4	96	288	7
TTP	6	0	0	E	0	L1
TTP	7	0	0	B	0	L1
TTP	7	0	7	B	0	L1
THO	8	0	0	384	C	1	L1
TTP	8	0	1	B	0	L1
TTP	8	0	6	B	0	L1
XTP	10	0	0
TAP	10	96	0
TAP	10	192	0
TAP	11	0	1
TAP	11	96	1
TAP	11	192	1
TAP	12	0	2
TAP	12	96	2
TAP	12	192	2
TAP	13	0	3
TAP	13	0	4
TAP	13	192	3
TAP	13	192	4
TAP	14	0	4
TAP	14	96	4
TAP	14	192	4
TAP	15	0	5
TAP	15	96	5
TAP	15	192	5
TAP	16	0	6
TAP	16	96	6
TAP	16	192	6
XTP	17	0	0
XTP	17	0	7
STR	18	0	0
SI_	18	0	0	96	288	4
STR	20	0	7
SI_	20	0	7	96	288	3
TAP	22	0	2
TAP	22	96	2
TAP	22	192	2
TAP	22	192	3
TAP	23	0	5
TAP	23	96	5
TAP	23	192	4
TAP	23	192	5
TAP	24	0	3
TAP	24	96	3
TAP	24	192	3
TAP	24	192	4
BRK	25	0	3
BRK	25	0	4
HLD	26	0	2	192
HLD	26	0	3	192
TAP	27	0	2
TAP	27	0	3
HLD	28	0	0	192
HLD	28	0	1	192
TAP	29	0	0
TAP	29	0	1
HLD	30	0	6	192
HLD	30	0	7	192
TAP	31	0	6
TAP	31	0	7
HLD	32	0	4	192
HLD	32	0	5	192
BRK	33	0	4
BRK	33	0	5
TAP	34	96	5
TAP	34	192	5
TAP	34	288	4
TAP	34	288	5
TAP	35	96	6
TAP	35	192	6
TAP	35	288	6
TAP	35	288	7
TAP	36	96	1
TAP	36	192	1
TAP	36	288	0
TAP	36	288	1
TAP	37	96	2
TAP	37	192	2
TAP	37	288	2
TAP	37	288	3
TAP	38	96	5
TAP	38	192	5
TAP	38	288	4
TAP	38	288	5
TAP	39	96	3
TAP	39	192	3
TAP	39	288	3
TAP	39	288	4
XTP	40	96	2
XTP	40	96	5
XTP	40	192	2
XTP	40	192	5
XTP	40	288	2
XTP	40	288	5
XTP	41	0	2
XTP	41	0	5
TAP	42	0	6
TAP	42	96	6
TAP	42	192	6
TAP	43	0	6
TAP	43	0	7
TAP	43	192	6
TAP	43	192	7
TAP	44	0	0
TAP	44	96	0
TAP	44	192	0
TAP	45	0	0
TAP	45	0	1
TAP	45	192	0
TAP	45	192	1
TAP	46	0	7
TAP	46	96	7
TAP	46	192	7
TAP	47	0	0
TAP	47	0	7
TAP	47	192	0
TAP	47	192	7
HLD	48	0	1	384
HLD	48	0	6	384
TTP	50	0	0	B	0	L1
TTP	50	0	7	B	0	L1
TTP	51	0	1	B	0	L1
TTP	51	0	6	B	0	L1
TTP	52	0	2	B	0	L1
TTP	52	0	5	B	0	L1
TTP	53	0	0	C	0	L1
TAP	54	0	0
TAP	54	96	0
TAP	54	192	0
TAP	54	288	0
TAP	55	0	1
TAP	55	96	1
TAP	55	192	0
TAP	55	192	1
TAP	56	0	7
TAP	56	96	7
TAP	56	192	7
TAP	56	288	7
TAP	57	0	6
TAP	57	96	6
XTP	57	192	6
XTP	57	192	7
HLD	58	0	6	384
HLD	58	0	7	384
HLD	60	0	4	384
HLD	60	0	5	384
HLD	62	0	2	384
HLD	62	0	3	384
HLD	64	0	0	384
HLD	64	0	1	384
STR	66	0	0
SI_	66	0	0	96	288	3
STR	66	0	7
SI_	66	0	7	96	288	4
TTP	68	0	4	E	0	L1
TTP	69	0	3	B	0	L1
TTP	69	0	4	B	0	L1
TTP	70	0	2	B	0	L1
TTP	70	0	3	E	0	L1
TTP	70	0	5	B	0	L1
TTP	70	0	5	E	0	L1
THO	71	0	0	384	C	0	L1
TTP	71	0	1	B	0	L1
TTP	71	0	6	B	0	L1
TAP	73	0	0
TAP	73	0	7
TAP	73	192	0
TAP	73	192	7
BRK	74	0	0
TAP	74	96	0
TAP	74	192	1
TAP	74	288	1
TAP	75	0	2
TAP	75	96	2
TAP	75	192	3
TAP	75	288	3
TAP	76	0	4
TAP	76	96	4
TAP	76	192	5
TAP	76	288	5
TAP	77	0	6
TAP	77	96	6
TAP	77	192	6
TAP	77	192	7
TAP	78	0	5
TAP	78	96	5
TAP	78	192	5
TAP	79	0	4
TAP	79	0	5
TAP	79	96	4
TAP	79	96	5
TAP	79	192	4
TAP	79	192	5
TAP	80	0	2
TAP	80	96	2
TAP	80	192	2
TAP	81	0	2
TAP	81	0	3
TAP	81	96	2
TAP	81	96	3
TAP	81	192	2
TAP	81	192	3
TAP	82	0	1
TAP	82	96	1
TAP	82	192	0
TAP	82	288	0
TAP	83	0	7
TAP	83	96	7
TAP	83	192	0
TAP	83	192	7
TAP	83	288	0
TAP	83	288	7
TAP	84	0	6
TAP	84	96	6
TAP	84	192	5
TAP	84	288	5
TAP	85	0	4
TAP	85	96	4
TAP	85	192	2
TAP	85	192	3
TAP	85	288	2
TAP	85	288	3
TAP	86	0	1
TAP	86	96	1
TAP	86	192	0
TAP	86	288	0
TAP	87	0	7
TAP	87	96	7
TAP	87	192	0
TAP	87	288	0
TAP	88	0	0
TAP	88	0	7
TAP	88	96	0
TAP	88	96	7
TAP	88	192	0
TAP	88	192	7
TAP	88	288	0
TAP	88	288	7
BRK	89	0	1
BRK	89	0	6
STR	90	0	0
SI_	90	0	0	96	288	5
STR	92	0	7
SI_	92	0	7	96	288	2
BRK	94	0	0
TTP	96	0	0	B	0	L1
TTP	96	0	7	B	0	L1
TTP	97	0	1	B	0	L1
TTP	97	0	6	B	0	L1
THO	98	0	0	384	C	1	L1
TTP	98	0	2	B	0	L1
TTP	98	0	5	B	0	L1
XTP	100	0	0
XTP	100	96	0
XTP	100	192	7
XTP	100	288	7
XHO	101	0	0	192
XHO	101	0	7	192
BRK	102	0	0
TAP	102	48	0
TAP	102	96	0
TAP	102	192	1
TAP	102	288	1
TAP	103	0	2
TAP	103	0	3
TAP	103	96	2
TAP	103	96	3
TAP	103	192	2
TAP	103	192	3
TAP	104	0	4
TAP	104	48	4
TAP	104	96	4
TAP	104	192	5
TAP	104	288	5
TAP	105	0	6
TAP	105	0	7
TAP	105	96	6
TAP	105	96	7
TAP	105	192	6
TAP	105	192	7
TAP	106	0	5
TAP	106	48	5
TAP	106	96	5
TAP	106	192	4
TAP	106	192	5
TAP	106	288	4
TAP	106	288	5
TAP	107	0	3
TAP	107	48	3
TAP	107	96	3
TAP	107	192	2
TAP	107	192	3
TAP	107	288	2
TAP	107	288	3
TAP	108	0	1
TAP	108	96	1
TAP	108	192	0
TAP	108	288	0
TAP	109	0	6
TAP	109	0	7
TAP	109	96	6
TAP	109	96	7
TAP	109	192	5
TAP	109	288	5
TAP	110	0	4
TAP	110	96	4
TAP	110	192	3
TAP	110	288	3
TAP	111	0	2
TAP	111	0	3
TAP	111	96	2
TAP	111	96	3
TAP	111	192	1
TAP	111	288	1
TAP	112	0	0
TAP	112	0	1
TAP	112	96	0
TAP	112	96	1
TAP	112	192	0
TAP	112	192	1
TAP	112	288	0
TAP	112	288	1
TAP	113	0	7
TAP	113	96	7
TAP	113	192	0
TAP	113	192	7
TAP	114	0	0
TAP	114	48	0
TAP	114	96	0
TAP	114	192	7
TAP	114	240	7
TAP	114	288	7
TAP	115	0	0
TAP	115	0	7
TAP	115	48	0
TAP	115	48	7
TAP	115	96	0
TAP	115	96	7
TAP	115	192	1
TAP	115	192	6
TAP	115	240	1
TAP	115	240	6
TAP	115	288	1
TAP	115	288	6
XHO	116	0	2	384
XHO	116	0	5	384
TTP	118	0	3	B	0	L1
TTP	118	0	3	E	0	L1
TTP	118	0	4	B	0	L1
TTP	118	0	5	E	0	L1
THO	119	0	0	288	C	1	L1
TTP	119	0	1	B	0	L1
TTP	119	0	1	E	0	L1
TTP	119	0	6	B	0	L1
TTP	119	0	7	E	0	L1

T_REC_TAP	256
T_REC_BRK	9
T_REC_XTP	17
T_REC_HLD	18
T_REC_XHO	4
T_REC_STR	8
T_REC_BST	0
T_REC_XST	0
T_REC_TTP	35
T_REC_THO	4
T_REC_SLD	8
T_REC_ALL	359
T_NUM_TAP	316
T_NUM_BRK	9
T_NUM_HLD	26
T_NUM_SLD	8
T_NUM_ALL	359
T_JUDGE_TAP	325
T_JUDGE_HLD	166
T_JUDGE_SLD	8
T_JUDGE_ALL	499
TTM_EACHPAIRS	84
TTM_SCR_TAP	158000
TTM_SCR_BRK	23400
TTM_SCR_HLD	26000
TTM_SCR_SLD	12000
TTM_SCR_ALL	219400
TTM_SCR_S	211950
TTM_SCR_SS	218500
TTM_RAT_ACV	10041

