VERSION	0.00.00	1.03.00
FES_MODE	0
BPM_DEF	200.000	200.000	200.000	200.000
MET_DEF	4	4
RESOLUTION	384
CLK_DEF	384
COMPATIBLE_CODE	MA2

BPM	0	0	200.000
MET	0	0	4	4
MET	17	0	4	3
MET	41	288	4	4
MET	61	288	4	3
MET	79	288	4	5
MET	82	96	4	4
MET	99	96	4	3
MET	100	0	4	4
MET	103	0	4	3
MET	112	0	4	4

TTP	1	0	2	B	0	M1
TTP	1	0	3	E	0	M1
TTP	1	288	3	B	0	M1
TTP	1	288	3	E	0	M1
TTP	2	240	4	E	0	M1
TTP	3	0	5	B	0	M1
TTP	3	0	5	E	0	M1
TTP	3	288	4	B	0	M1
TTP	3	288	5	E	0	M1
THO	4	192	0	96	C	0	M1
TTP	5	0	7	E	0	M1
TTP	5	96	6	E	0	M1
TTP	5	192	1	E	0	M1
TTP	5	288	2	E	0	M1
TTP	6	0	6	E	0	M1
TTP	6	96	5	E	0	M1
TTP	6	192	2	E	0	M1
TTP	6	288	3	E	0	M1
TTP	7	0	4	B	0	M1
TTP	7	0	4	E	0	M1
TTP	7	48	2	B	0	M1
TTP	7	48	2	E	0	M1
TTP	7	96	6	B	0	M1
TTP	7	96	6	E	0	M1
TTP	7	144	0	B	0	M1
TTP	7	144	0	E	0	M1
TTP	7	192	7	E	0	M1
TTP	7	216	6	E	0	M1
TTP	7	240	5	E	0	M1
TTP	7	264	4	E	0	M1
TTP	7	288	3	E	0	M1
TTP	7	312	2	E	0	M1
TTP	7	336	1	E	0	M1
TTP	7	360	0	E	0	M1
TTP	8	0	0	C	0	M1
XHO	9	0	3	672
HLD	9	288	5	96
HLD	10	48	1	96
STR	10	192	7
SI_	10	192	7	96	48	3
BRK	11	0	1
BRK	11	0	5
TAP	11	48	2
TAP	11	96	3
HLD	11	144	4	96
TAP	11	240	3
TAP	11	288	6
TAP	11	336	5
TAP	12	0	4
HLD	12	48	3	96
TAP	12	144	4
TAP	12	192	1
TAP	12	240	2
TAP	12	288	3
TAP	12	336	4
HLD	13	0	3	72
XHO	13	0	5	72
HLD	13	96	3	72
XHO	13	96	5	72
HLD	13	192	2	48
XHO	13	192	6	48
HLD	13	264	2	48
XHO	13	264	6	48
TAP	13	336	1
XTP	13	336	7
TAP	14	48	0
STR	14	96	0
SCL	14	96	0	96	192	1
TAP	14	192	4
THO	15	0	0	384	C	0	M1
TAP	16	0	0
TAP	16	24	1
TAP	16	48	2
TAP	16	72	3
TAP	16	96	0
TAP	16	120	7
TAP	16	144	6
TAP	16	168	5
TAP	16	192	1
TAP	16	216	2
TAP	16	240	3
TAP	16	264	4
TAP	16	288	7
TAP	16	312	6
TAP	16	336	5
TAP	16	360	4
HLD	17	0	2	96
HLD	17	0	3	192
HLD	17	288	5	192
HLD	18	0	4	144
TAP	18	192	5
HLD	18	240	3	144
HLD	18	288	6	96
HLD	19	96	4	240
HLD	19	192	1	96
TAP	20	0	2
TAP	20	0	3
TAP	20	96	3
TAP	20	96	4
TAP	20	192	4
TAP	20	192	5
TAP	20	288	5
TAP	20	288	6
TAP	21	0	3
TAP	21	0	4
TAP	21	96	1
TAP	21	96	2
HLD	21	192	0	288
TAP	21	240	2
TAP	21	288	3
TAP	21	336	4
TAP	22	0	5
TAP	22	48	6
TAP	22	96	7
TTP	22	192	1	E	0	M1
TTP	22	216	7	E	0	M1
TTP	22	240	3	E	0	M1
TTP	22	264	5	E	0	M1
TTP	22	288	0	C	0	M1
TAP	23	0	0
TAP	23	0	7
TAP	23	48	1
STR	23	96	2
SI_	23	96	2	96	48	4
STR	23	192	6
SI_	23	192	6	96	48	0
STR	23	288	1
SI_	23	288	1	96	48	5
STR	24	0	7
SI_	24	0	7	96	48	3
STR	24	96	2
SCL	24	96	2	96	144	4
TTP	24	192	0	C	0	M1
TAP	24	288	3
TAP	25	0	3
STR	25	96	0
SCR	25	96	0	96	144	6
SUR	25	96	0	96	144	6
TAP	25	96	6
TAP	26	0	7
TAP	26	48	6
TAP	26	96	0
TAP	26	144	1
TAP	26	192	6
TAP	26	240	5
TAP	26	288	1
TAP	26	336	2
TAP	27	0	5
TAP	27	48	4
TAP	27	96	2
TAP	27	144	3
TAP	27	192	4
TAP	27	192	5
TAP	27	240	6
TAP	27	288	0
TAP	27	288	7
TAP	27	336	1
STR	28	0	2
SI_	28	0	2	96	48	7
STR	28	0	3
SI_	28	0	3	96	48	6
TTP	28	96	3	E	0	M1
TTP	28	108	0	C	1	M1
TTP	28	120	7	E	0	M1
BRK	29	0	1
BRK	29	0	5
TAP	29	48	2
TAP	29	96	3
TAP	29	144	7
TAP	29	192	6
TAP	29	240	5
STR	29	288	2
SCL	29	288	2	96	144	4
TAP	29	336	3
TAP	30	192	6
TAP	30	240	5
TAP	30	288	4
TAP	30	336	1
TAP	31	0	2
TAP	31	48	3
STR	31	96	5
SUR	31	96	5	96	144	3
TAP	31	144	4
TAP	32	0	1
TAP	32	48	2
TAP	32	96	3
TAP	32	144	5
TAP	32	192	4
TAP	32	240	3
STR	32	288	2
SXL	32	288	2	96	144	4
TAP	32	336	3
HLD	33	192	1	48
HLD	33	192	5	48
TAP	33	256	6
TAP	33	272	7
TAP	33	288	0
TAP	33	304	1
TAP	33	320	2
TAP	33	336	3
TAP	33	352	4
TAP	33	368	5
BST	34	0	6
SI_	34	0	6	96	288	2
TAP	35	0	1
TAP	35	48	3
TAP	35	96	1
TAP	35	96	3
TAP	35	192	1
TAP	35	192	4
TAP	35	240	4
TAP	35	288	1
TAP	35	336	5
STR	36	0	1
SI_	36	0	1	96	48	3
TAP	36	0	5
TAP	36	96	1
TAP	36	96	7
TAP	36	192	5
TAP	36	240	4
TAP	36	288	4
TAP	36	288	5
TAP	37	0	3
TAP	37	0	5
TAP	37	48	3
TAP	37	96	5
TAP	37	144	2
TAP	37	192	2
STR	37	192	5
SI_	37	192	5	96	48	7
TAP	37	288	4
TAP	37	288	5
HLD	38	0	3	48
TAP	38	48	7
HLD	38	96	3	48
TAP	38	96	7
HLD	38	192	3	48
TAP	38	192	6
TAP	38	240	6
HLD	38	288	3	48
TAP	38	336	5
TAP	39	0	3
TAP	39	0	5
TAP	39	24	2
TAP	39	48	1
TAP	39	72	0
TAP	39	96	7
TAP	39	120	6
TAP	39	144	5
TAP	39	168	4
HLD	39	192	3	192
TAP	40	0	4
TAP	40	48	4
TAP	40	96	3
TAP	40	120	5
TAP	40	144	3
TAP	40	168	5
TAP	40	192	2
TAP	40	216	6
TAP	40	240	2
TAP	40	264	6
TAP	40	288	1
TAP	40	312	7
TAP	40	336	1
TAP	40	360	7
STR	41	0	0
SCR	41	0	0	96	144	6
TTP	41	96	0	C	1	M1
HLD	41	288	7	144
TAP	42	48	5
TAP	42	96	4
TAP	42	144	3
TAP	42	192	2
STR	42	192	6
SI_	42	192	6	96	48	3
TAP	42	240	1
HLD	42	288	0	144
TAP	43	48	2
TAP	43	96	3
TAP	43	144	4
STR	43	192	1
SUR	43	192	1	96	48	5
TAP	43	192	5
TAP	43	240	6
HLD	43	288	7	144
TAP	44	48	5
STR	44	96	4
SCR	44	96	4	96	192	2
TAP	44	144	3
TAP	44	192	2
STR	45	0	3
SI_	45	0	3	96	48	7
STR	45	96	7
SV_	45	96	7	96	48	0
SV_	45	96	7	96	48	4
HLD	45	288	2	144
HLD	45	288	6	144
TAP	46	96	2
STR	46	96	6
SLL	46	96	6	96	144	2
TAP	46	144	1
TAP	46	144	7
TAP	46	192	2
TAP	46	192	6
HLD	47	0	0	96
HLD	47	144	1	96
HLD	47	144	7	96
STR	47	288	2
SCR	47	288	2	96	48	5
TAP	47	288	6
STR	48	48	7
SCR	48	48	7	96	48	2
STR	48	192	4
SCR	48	192	4	96	48	7
STR	48	336	0
SI_	48	336	0	96	48	4
TAP	49	96	7
TAP	49	144	5
TAP	49	168	3
TAP	49	192	5
TAP	49	216	3
TAP	49	240	5
TAP	49	264	3
BRK	49	288	7
TAP	50	0	1
TAP	50	0	5
TAP	50	48	1
TAP	50	48	5
TAP	50	96	6
TAP	50	120	7
TAP	50	144	6
TAP	50	192	1
TAP	50	216	0
TAP	50	240	1
TAP	50	288	2
TAP	50	288	7
TAP	50	336	3
TAP	51	0	4
TAP	51	0	5
TAP	51	48	6
TAP	51	96	0
TAP	51	96	7
TAP	51	144	1
TAP	51	144	6
TAP	51	192	2
TAP	51	192	5
TAP	51	288	3
TAP	51	288	4
TAP	51	336	0
TAP	51	360	7
TAP	52	0	1
TAP	52	24	6
TAP	52	48	2
TAP	52	72	5
HLD	52	96	3	72
HLD	52	168	2	72
TAP	52	240	1
HLD	52	288	7	72
HLD	52	360	6	72
TAP	53	48	5
STR	53	96	5
SCL	53	96	5	96	48	2
XTP	53	288	0
TAP	53	288	1
XTP	53	360	1
TAP	53	360	2
XTP	54	48	2
TAP	54	48	3
XTP	54	96	2
STR	54	96	3
SI_	54	96	3	96	48	6
STR	54	192	1
SI_	54	192	1	96	48	4
STR	54	288	7
SI_	54	288	7	96	48	2
STR	55	0	5
SI_	55	0	5	96	48	0
XST	55	96	2
SCR	55	96	2	96	48	5
TAP	55	288	6
XTP	55	288	7
TAP	55	360	5
XTP	55	360	6
TAP	56	48	4
XTP	56	48	5
STR	56	96	4
SI_	56	96	4	96	48	1
XTP	56	96	5
STR	56	192	6
SI_	56	192	6	96	48	3
STR	56	288	0
SI_	56	288	0	96	48	5
STR	57	0	2
SI_	57	0	2	96	48	7
XST	57	96	5
SCL	57	96	5	96	48	2
TAP	57	288	1
TAP	57	312	0
TAP	57	360	0
TAP	58	0	1
TAP	58	48	1
TAP	58	72	2
TAP	58	120	2
TAP	58	144	3
TAP	58	192	3
TAP	58	216	4
TAP	58	264	4
TAP	58	288	5
TAP	58	336	5
TAP	58	360	6
TAP	59	24	6
TAP	59	48	7
TAP	59	96	7
XHO	59	120	0	48
XHO	59	192	1	72
XHO	59	192	7	72
XHO	59	288	2	288
XHO	59	288	6	288
TAP	61	288	4
TAP	61	304	3
TAP	62	240	2
TAP	62	240	4
TAP	63	144	3
TAP	63	144	5
HLD	63	240	3	96
HLD	63	240	5	96
HLD	64	0	3	96
HLD	64	0	5	96
HLD	64	144	3	96
HLD	64	144	5	96
TAP	64	288	6
TAP	65	0	5
TAP	65	96	4
TAP	65	192	1
TAP	65	288	2
TAP	66	0	3
HLD	66	96	2	96
HLD	66	96	4	96
HLD	66	240	1	96
HLD	66	240	5	96
STR	67	0	0
SI_	67	0	0	96	48	4
TAP	67	0	6
STR	67	96	7
SI_	67	96	7	96	48	3
TAP	67	192	1
TAP	67	288	1
TAP	67	336	2
TAP	68	0	3
TAP	68	48	4
TAP	68	96	5
TAP	68	144	4
TAP	68	144	5
TAP	68	240	2
TAP	68	240	3
TAP	68	288	1
TAP	68	336	0
TAP	69	0	7
STR	69	48	6
SI_	69	48	6	96	48	4
STR	69	144	1
SI_	69	144	1	96	48	3
TAP	69	240	6
TAP	69	336	4
TAP	70	0	4
TAP	70	96	5
TAP	70	144	4
TAP	70	192	3
TAP	70	240	2
HLD	70	288	1	96
HLD	71	0	2	96
HLD	71	96	3	96
HLD	71	192	6	96
HLD	71	288	5	96
HLD	72	0	4	96
HLD	72	96	0	96
HLD	72	192	1	96
HLD	72	288	2	96
STR	73	0	3
SCL	73	0	3	96	192	4
STR	73	288	3
SI_	73	288	3	96	48	1
STR	74	48	5
SI_	74	48	5	96	48	3
TAP	74	192	7
TAP	74	288	4
STR	74	288	7
SI_	74	288	7	96	48	3
STR	75	96	4
SI_	75	96	4	96	48	6
STR	75	240	2
SI_	75	240	2	96	48	4
TAP	76	0	0
STR	76	96	0
SI_	76	96	0	96	48	4
TAP	76	96	3
STR	76	288	3
SI_	76	288	3	96	48	1
STR	77	48	5
SI_	77	48	5	96	48	3
TAP	77	192	7
TAP	77	288	4
STR	77	288	7
SI_	77	288	7	96	48	3
HLD	78	96	1	480
TAP	78	96	5
TAP	78	240	3
TAP	78	288	4
TAP	78	336	5
HLD	79	0	6	192
HLD	79	288	3	288
HLD	79	288	4	384
TTP	81	0	0	E	0	M1
TTP	81	32	1	E	0	M1
TTP	81	64	2	E	0	M1
TTP	81	96	3	E	0	M1
TTP	81	128	4	E	0	M1
TTP	81	160	5	E	0	M1
TTP	81	192	6	E	0	M1
TTP	81	224	7	E	0	M1
TTP	81	256	0	E	0	M1
TTP	81	288	0	C	0	M1
BRK	82	96	1
BRK	82	96	6
TAP	82	144	3
TAP	82	168	4
TAP	82	192	3
TAP	82	240	5
TAP	82	264	4
TAP	82	288	5
TAP	82	336	2
TAP	82	360	3
TAP	83	0	2
TAP	83	48	5
TAP	83	72	4
TAP	83	96	6
TAP	83	144	2
TAP	83	168	3
TAP	83	192	1
TAP	83	240	5
TAP	83	264	4
TAP	83	288	7
TAP	83	336	2
TAP	83	360	3
TAP	84	0	0
TAP	84	48	1
TAP	84	48	7
TAP	84	96	2
TAP	84	120	6
TAP	84	144	2
TAP	84	168	6
TAP	84	192	2
TAP	84	216	6
TAP	84	240	2
TAP	84	264	6
TAP	84	288	3
TAP	84	312	5
TAP	84	336	3
TAP	84	360	5
TAP	85	0	3
TAP	85	24	5
TAP	85	48	3
TAP	85	72	5
BRK	85	96	4
TTP	85	192	6	E	0	M1
TTP	85	240	5	E	0	M1
TTP	85	288	2	E	0	M1
TTP	85	336	3	E	0	M1
TTP	86	0	7	E	0	M1
TTP	86	48	6	E	0	M1
TTP	86	96	1	E	0	M1
TTP	86	144	2	E	0	M1
TTP	86	192	0	E	0	M1
TTP	86	240	0	C	0	M1
TTP	86	288	4	E	0	M1
TAP	87	96	0
TAP	87	96	7
TAP	87	144	1
TAP	87	192	2
TAP	87	192	3
TAP	87	240	4
STR	87	288	5
SI_	87	288	5	96	48	3
STR	87	336	3
SI_	87	336	3	96	48	7
TAP	88	0	5
TAP	88	48	1
STR	88	144	1
SLR	88	144	1	96	72	5
TAP	88	192	0
TAP	88	240	1
TAP	88	336	7
TAP	89	0	0
TAP	89	0	6
HLD	89	96	3	96
TAP	89	144	4
HLD	89	192	5	96
TAP	89	240	4
HLD	89	288	2	96
TAP	89	336	3
HLD	90	0	6	96
TAP	90	48	4
HLD	90	96	1	96
TAP	90	144	3
HLD	90	192	7	96
TAP	90	240	0
TAP	90	288	0
TAP	90	360	1
TAP	90	360	3
TAP	91	48	4
TAP	91	48	6
STR	91	96	7
SI_	91	96	7	96	48	3
STR	91	144	3
SI_	91	144	3	96	48	7
STR	91	336	1
SUR	91	336	1	96	48	5
TAP	92	0	0
TAP	92	48	1
STR	92	144	6
SUL	92	144	6	96	48	2
TAP	92	192	7
TAP	92	240	6
TAP	92	336	0
TAP	93	0	0
TAP	93	48	1
TAP	93	48	7
TAP	93	96	2
XHO	93	96	6	72
XHO	93	168	4	72
XHO	93	240	3	72
XHO	93	312	1	72
TAP	94	0	7
TAP	94	48	7
TAP	94	96	0
TAP	94	96	6
TAP	94	120	5
TAP	94	144	4
TAP	94	168	3
TAP	94	192	0
TAP	94	216	1
TAP	94	240	2
TAP	94	264	3
TAP	94	288	0
TAP	94	312	7
TAP	94	336	6
TAP	94	360	5
BRK	95	0	0
BRK	95	0	4
TAP	95	96	2
TAP	95	96	6
TAP	95	144	3
TAP	95	192	4
TAP	95	192	5
TAP	95	240	6
TAP	95	288	0
TAP	95	288	7
TAP	95	336	1
TAP	96	0	2
TAP	96	0	3
TAP	96	48	1
TAP	96	48	4
TAP	96	144	3
TAP	96	144	6
TAP	96	192	2
TAP	96	192	5
TAP	96	240	1
TAP	96	240	4
STR	96	288	0
SI_	96	288	0	96	48	3
STR	96	336	7
SI_	96	336	7	96	48	4
TAP	97	0	0
TAP	97	48	7
TAP	97	96	2
TAP	97	144	3
TAP	97	192	4
TAP	97	240	5
TAP	97	288	1
TAP	97	288	6
STR	97	336	0
SCR	97	336	0	96	96	3
TAP	97	336	7
STR	98	48	3
SCR	98	48	3	96	96	6
STR	98	144	6
SCR	98	144	6	96	96	1
STR	98	240	1
SCR	98	240	1	96	72	3
TAP	98	336	4
XTP	99	96	5
TAP	99	128	4
TAP	99	160	4
XTP	99	192	6
TAP	99	224	4
TAP	99	256	4
XTP	99	288	7
XTP	100	0	2
TAP	100	32	3
TAP	100	64	3
XTP	100	96	1
TAP	100	128	3
TAP	100	160	3
XST	100	192	0
SI_	100	192	0	96	48	4
BRK	101	0	2
BRK	101	0	6
TAP	102	0	3
TAP	102	0	4
TAP	102	96	6
TAP	102	120	5
TAP	102	144	4
TAP	102	168	3
TAP	102	192	0
TAP	102	216	1
TAP	102	240	2
TAP	102	264	3
TAP	102	288	7
TAP	102	312	6
TAP	102	336	5
TAP	102	360	4
TAP	103	0	1
TAP	103	0	3
TAP	103	48	2
TAP	103	96	4
TAP	103	144	3
TAP	103	192	4
TAP	103	192	6
TAP	103	240	5
TAP	103	288	3
TAP	103	336	4
TAP	104	0	1
TAP	104	0	3
TAP	104	48	2
TAP	104	96	3
TAP	104	96	4
HLD	104	192	6	72
TAP	104	264	7
TAP	104	288	6
TAP	104	336	0
TAP	104	336	5
TAP	105	0	3
TAP	105	48	2
TAP	105	48	4
HLD	105	96	1	72
TAP	105	168	0
TAP	105	192	1
TAP	105	240	2
TAP	105	240	7
TAP	105	288	4
TAP	105	336	3
TAP	105	336	5
STR	106	0	6
SCL	106	0	6	96	48	3
STR	106	96	3
SUR	106	96	3	96	48	7
TAP	106	192	0
STR	106	288	1
SCR	106	288	1	96	48	4
STR	107	0	4
SUL	107	0	4	96	48	0
TAP	107	96	7
TAP	107	192	6
TAP	107	240	5
TAP	107	288	4
TAP	107	336	3
TAP	108	0	2
TAP	108	48	1
STR	108	96	0
SCR	108	96	0	96	48	3
STR	108	96	4
SCR	108	96	4	96	48	7
STR	108	192	0
SI_	108	192	0	96	48	4
TAP	108	192	4
BRK	108	288	0
STR	109	0	2
SI_	109	0	2	96	48	4
TAP	109	48	2
STR	109	96	6
SI_	109	96	6	96	48	2
TAP	109	144	6
STR	109	192	0
SI_	109	192	0	96	48	4
TAP	109	240	0
STR	109	288	6
SI_	109	288	6	96	48	0
TAP	109	336	6
STR	110	0	1
SI_	110	0	1	96	48	5
TAP	110	48	1
STR	110	96	7
SCL	110	96	7	96	48	4
TAP	110	144	7
STR	110	192	0
SCR	110	192	0	96	48	3
TAP	110	240	0
STR	110	288	7
SI_	110	288	7	96	48	3
TAP	110	336	7
TAP	111	0	2
TAP	111	48	2
TAP	111	96	1
TAP	111	120	0
TAP	111	144	2
TAP	111	168	7
TAP	111	192	3
TAP	111	216	6
TAP	111	240	4
TAP	111	264	5
TAP	111	288	3
TAP	111	312	4
TAP	111	336	2
TAP	111	360	3
HLD	112	0	0	192
TAP	112	288	0
TAP	112	336	1
TAP	113	0	5
TAP	113	48	4
TAP	113	96	1
TAP	113	144	2
TAP	113	192	6
TAP	113	240	5
TAP	113	288	2
TAP	113	336	3
TAP	114	0	7
TAP	114	32	6
TAP	114	64	5
TAP	114	96	0
TAP	114	128	1
TAP	114	160	2
TAP	114	192	6
TAP	114	208	5
TAP	114	224	4
TAP	114	240	3
STR	114	256	2
SCR	114	256	2	96	1568	5
TAP	114	272	1
BRK	114	336	2
TTP	115	240	7	E	0	M1
TTP	115	252	6	E	0	M1
TTP	116	96	1	E	0	M1
TTP	116	108	2	E	0	M1
TTP	117	80	0	E	0	M1
TTP	117	96	0	C	0	M1
TTP	117	112	4	E	0	M1

T_REC_TAP	496
T_REC_BRK	14
T_REC_XTP	14
T_REC_HLD	68
T_REC_XHO	14
T_REC_STR	78
T_REC_BST	1
T_REC_XST	3
T_REC_TTP	72
T_REC_THO	2
T_REC_SLD	84
T_REC_ALL	846
T_NUM_TAP	663
T_NUM_BRK	15
T_NUM_HLD	84
T_NUM_SLD	84
T_NUM_ALL	846
T_JUDGE_TAP	678
T_JUDGE_HLD	225
T_JUDGE_SLD	84
T_JUDGE_ALL	987
TTM_EACHPAIRS	105
TTM_SCR_TAP	331500
TTM_SCR_BRK	39000
TTM_SCR_HLD	84000
TTM_SCR_SLD	126000
TTM_SCR_ALL	580500
TTM_SCR_S	561650
TTM_SCR_SS	579000
TTM_RAT_ACV	10025

