VERSION	0.00.00	1.03.00
FES_MODE	0
BPM_DEF	200.000	200.000	200.000	200.000
MET_DEF	4	4
RESOLUTION	384
CLK_DEF	384
COMPATIBLE_CODE	MA2

BPM	0	0	200.000
MET	0	0	4	4
MET	17	0	4	3
MET	41	288	4	4
MET	61	288	4	3
MET	79	288	4	5
MET	82	96	4	4
MET	99	96	4	3
MET	100	0	4	4
MET	103	0	4	3
MET	112	0	4	4

TAP	1	0	4
TAP	1	96	5
TAP	1	192	3
TAP	1	288	3
TAP	2	0	2
TAP	2	96	4
TAP	2	192	4
TAP	2	240	3
TAP	2	288	3
TAP	3	0	4
TAP	3	96	5
TAP	3	192	3
TAP	3	288	3
TAP	4	0	2
STR	4	96	1
SI_	4	96	1	96	48	5
HLD	5	0	6	192
TAP	5	96	4
TAP	5	192	4
HLD	5	288	1	192
TAP	6	0	3
TAP	6	96	3
TAP	6	192	4
TAP	6	288	5
TAP	7	0	6
TAP	7	96	7
TAP	7	192	0
TAP	7	288	1
HLD	8	0	2	192
HLD	8	0	5	192
TAP	8	288	3
TAP	8	288	4
TAP	9	0	2
TAP	9	48	2
TAP	9	96	3
TAP	9	192	1
TAP	9	192	4
TAP	9	288	5
TAP	9	336	5
TAP	10	0	4
TAP	10	96	3
TAP	10	96	6
TAP	10	192	2
TAP	10	288	1
TAP	10	288	4
TAP	11	0	2
TAP	11	48	3
TAP	11	96	4
HLD	11	144	5	96
TAP	11	240	3
TAP	11	288	3
TAP	12	0	2
TAP	12	0	4
TAP	12	96	2
TAP	12	96	4
TAP	12	192	3
TAP	12	192	5
TAP	12	288	3
TAP	12	288	5
TAP	13	0	2
TAP	13	0	3
TAP	13	96	2
TAP	13	96	3
HLD	13	192	2	72
HLD	13	264	1	72
TAP	13	336	0
TAP	14	48	0
TAP	14	48	7
TAP	14	96	0
STR	14	96	7
SI_	14	96	7	96	48	4
STR	14	192	1
SI_	14	192	1	96	48	5
STR	14	288	6
SCL	14	288	6	96	288	7
THO	16	0	0	192	C	0	M1
TAP	17	0	7
TAP	17	48	7
TAP	17	96	0
TAP	17	96	6
TAP	17	192	0
TAP	17	192	6
TAP	17	288	3
TAP	18	0	2
TAP	18	0	4
TAP	18	96	2
TAP	18	96	4
TAP	18	192	0
TAP	18	240	0
TAP	18	288	1
TAP	18	288	7
TAP	19	0	1
TAP	19	0	7
TAP	19	96	4
TAP	19	192	3
TAP	19	192	5
TAP	19	288	3
TAP	19	288	5
HLD	20	0	2	96
HLD	20	96	1	96
HLD	20	192	0	96
HLD	20	288	7	96
HLD	21	0	6	96
HLD	21	96	5	96
XTP	21	192	3
XTP	21	240	3
XTP	21	288	2
XTP	21	336	2
XTP	22	0	1
XTP	22	48	1
XST	22	96	0
SSL	22	96	0	96	144	4
TAP	23	0	5
TAP	23	48	5
TAP	23	96	3
TAP	23	192	2
HLD	23	192	6	96
TAP	23	288	4
TAP	24	0	3
TAP	24	0	7
TAP	24	96	3
TAP	24	96	7
TAP	24	192	2
TAP	24	240	2
TAP	24	288	4
HLD	25	0	1	96
TAP	25	0	5
TAP	25	96	3
HLD	25	192	0	96
HLD	25	192	4	96
TAP	26	0	5
TAP	26	48	5
TAP	26	96	2
TAP	26	144	2
TAP	26	192	6
TAP	26	240	6
TAP	26	288	3
TAP	26	336	3
TAP	27	0	7
TAP	27	48	7
TAP	27	96	4
TAP	27	144	4
TAP	27	192	0
TAP	27	240	0
TAP	27	288	3
TAP	28	0	2
TAP	28	0	4
TAP	28	96	1
TAP	28	96	5
TTP	28	192	4	E	0	M1
TTP	28	288	3	E	0	M1
TTP	28	288	5	E	0	M1
TAP	29	0	2
HLD	29	48	2	96
TAP	29	144	1
HLD	29	192	1	96
STR	29	288	0
SI_	29	288	0	96	96	3
TAP	30	192	5
HLD	30	240	5	96
TAP	30	336	6
HLD	31	0	6	96
STR	31	96	7
SI_	31	96	7	96	96	4
TAP	32	0	2
HLD	32	48	2	96
TAP	32	144	1
HLD	32	192	1	96
STR	32	288	0
SI_	32	288	0	96	96	3
XST	33	192	7
SXR	33	192	7	96	144	7
XST	34	96	3
SXR	34	96	3	96	144	3
TAP	35	0	7
HLD	35	48	7	96
TAP	35	144	4
HLD	35	192	4	96
TAP	35	288	5
TAP	36	0	3
STR	36	0	4
SI_	36	0	4	96	48	7
TAP	36	96	2
TAP	36	192	0
HLD	36	240	0	96
TAP	36	336	3
HLD	37	0	3	96
TAP	37	96	2
STR	37	192	3
SI_	37	192	3	96	48	0
TAP	37	192	4
TAP	37	288	5
TAP	38	0	7
TAP	38	48	7
TAP	38	96	7
TAP	38	144	4
TAP	38	192	4
TAP	38	240	4
TAP	38	288	4
TAP	38	288	5
TAP	39	0	3
STR	39	0	4
SI_	39	0	4	96	48	7
TAP	39	96	2
HLD	39	192	1	192
TAP	40	0	7
TAP	40	48	7
TAP	40	96	2
TAP	40	96	6
TAP	40	144	2
TAP	40	144	6
TAP	40	192	3
STR	40	192	5
SI_	40	192	5	96	96	2
BRK	41	96	0
BRK	41	96	1
STR	41	288	2
SCR	41	288	2	96	96	5
TAP	42	96	6
TAP	42	144	6
TAP	42	192	4
STR	42	288	6
SI_	42	288	6	96	96	2
TAP	43	0	0
TAP	43	96	1
TAP	43	144	1
TAP	43	192	1
TAP	43	192	3
STR	43	288	4
SCR	43	288	4	96	96	7
TAP	44	0	0
TAP	44	96	1
TAP	44	144	1
STR	44	192	2
SI_	44	192	2	96	96	5
HLD	44	288	7	192
TAP	45	96	4
TAP	45	192	3
TAP	45	192	6
STR	45	288	5
SCL	45	288	5	96	96	2
TAP	46	96	1
TAP	46	144	1
TAP	46	192	3
STR	46	288	1
SI_	46	288	1	96	96	5
TAP	47	0	6
TAP	47	96	6
TAP	47	192	4
TAP	47	192	6
HLD	47	288	4	96
HLD	47	288	6	96
HLD	48	48	3	96
HLD	48	48	4	96
HLD	48	192	1	96
HLD	48	192	3	96
TAP	48	336	0
TAP	48	336	7
STR	49	0	0
SCR	49	0	0	96	96	3
STR	49	0	7
SCL	49	0	7	96	96	4
TAP	49	288	2
TAP	49	288	3
TAP	50	0	1
TAP	50	0	4
TAP	50	96	5
TAP	50	144	5
TAP	50	192	4
HLD	50	240	6	96
TAP	50	336	0
STR	51	0	0
SI_	51	0	0	96	48	3
STR	51	96	5
SI_	51	96	5	96	48	2
TAP	51	288	1
TAP	51	336	1
TAP	52	0	3
TAP	52	48	3
TAP	52	96	0
HLD	52	144	0	96
TAP	52	240	7
TAP	52	288	7
TAP	53	0	3
TAP	53	0	5
TAP	53	48	3
HLD	53	48	5	120
XTP	53	168	4
XTP	53	216	4
TAP	53	288	3
TAP	53	288	5
TAP	53	360	2
TAP	53	360	4
TAP	54	48	1
TAP	54	48	3
TAP	54	96	1
TAP	54	96	3
TAP	54	192	0
TAP	54	192	4
HLD	54	288	6	96
HLD	55	0	7	96
HLD	55	96	1	96
HLD	55	192	2	96
TAP	55	288	4
TAP	55	360	3
TAP	55	360	5
TAP	56	48	4
TAP	56	48	6
TAP	56	96	4
TAP	56	96	6
TAP	56	192	3
TAP	56	192	7
HLD	56	288	1	96
HLD	57	0	0	96
HLD	57	96	6	96
HLD	57	192	5	96
XTP	57	288	4
XTP	57	360	4
XTP	57	360	5
XTP	58	48	6
XTP	58	48	7
XTP	58	120	6
XTP	58	120	7
XTP	58	192	0
XTP	58	192	1
XTP	58	264	0
XTP	58	264	1
XTP	58	336	2
XTP	58	336	3
XTP	59	24	2
XTP	59	24	3
XTP	59	96	4
XTP	59	96	5
STR	59	192	3
SCL	59	192	3	96	240	4
TAP	59	192	6
TTP	59	288	0	C	1	M1
HLD	60	288	2	96
HLD	61	0	3	96
HLD	61	96	4	96
HLD	61	192	5	96
TAP	61	288	2
TAP	62	0	4
TAP	62	48	5
TAP	62	96	3
HLD	62	144	2	96
TAP	62	240	4
TAP	62	288	4
TAP	62	336	5
TAP	63	0	3
HLD	63	48	2	96
TAP	63	144	4
TAP	63	240	3
HLD	63	240	5	96
TAP	63	336	4
TAP	64	0	4
TAP	64	96	2
TAP	64	144	2
TAP	64	192	4
TAP	64	240	3
TAP	64	288	5
TAP	65	0	3
TAP	65	0	4
TAP	65	96	2
TAP	65	96	3
TAP	65	192	4
TAP	65	192	5
TAP	65	288	3
TAP	65	288	4
STR	66	0	2
SCR	66	0	2	96	96	5
TAP	66	0	3
TAP	66	240	7
TAP	66	288	7
TAP	67	0	1
TAP	67	0	6
TAP	67	96	3
TAP	67	96	4
BRK	67	192	2
BRK	67	192	5
TAP	67	288	6
TAP	67	336	7
TAP	68	0	0
TAP	68	48	7
TAP	68	96	0
HLD	68	144	1	96
TAP	68	240	0
TAP	68	336	7
TAP	69	0	7
HLD	69	48	0	96
TAP	69	144	6
TAP	69	240	1
TAP	69	240	7
TAP	69	336	6
TAP	69	336	7
TAP	70	0	6
TAP	70	0	7
TAP	70	96	0
TAP	70	96	1
TAP	70	144	0
TAP	70	144	1
TAP	70	240	2
TAP	70	240	3
TAP	70	288	2
TAP	70	288	3
TAP	71	0	4
TAP	71	96	5
TAP	71	192	4
TAP	71	192	6
TAP	71	288	3
TAP	72	0	2
TAP	72	96	1
TAP	72	96	3
TAP	72	192	4
TAP	72	288	5
TAP	73	0	4
STR	73	0	6
SLL	73	0	6	96	192	2
HLD	73	288	1	144
TAP	74	48	3
HLD	74	96	3	96
TAP	74	192	4
TAP	74	288	3
TAP	74	288	4
TAP	75	0	4
TAP	75	0	5
HLD	75	96	6	144
TAP	75	240	4
HLD	75	288	4	96
TAP	76	0	3
TAP	76	96	3
TAP	76	96	4
TAP	76	192	1
TAP	76	192	3
XHO	76	288	0	144
TAP	77	48	3
HLD	77	96	3	96
TAP	77	192	4
TAP	77	288	3
TAP	77	288	4
TAP	78	0	4
TAP	78	0	5
HLD	78	96	3	96
HLD	78	96	6	96
TAP	78	240	4
TAP	78	240	5
STR	78	288	4
SCL	78	288	4	96	96	1
STR	78	288	5
SCR	78	288	5	96	96	0
STR	79	288	7
SI_	79	288	7	96	96	4
STR	80	192	0
SI_	80	192	0	96	96	3
TTP	81	0	4	B	0	M1
TTP	81	0	5	B	0	M1
TTP	81	96	6	B	0	M1
TTP	81	96	7	B	0	M1
TTP	81	192	0	B	0	M1
TTP	81	192	1	B	0	M1
TTP	81	288	2	B	0	M1
TTP	81	288	3	B	0	M1
HLD	82	96	4	48
HLD	82	96	5	48
HLD	82	192	4	48
HLD	82	192	5	48
HLD	82	288	3	48
HLD	82	288	4	48
HLD	83	0	3	48
HLD	83	0	4	48
HLD	83	96	2	48
HLD	83	96	3	48
HLD	83	192	2	48
HLD	83	192	3	48
HLD	83	288	3	48
HLD	83	288	4	48
HLD	84	0	3	48
HLD	84	0	4	48
TAP	84	96	2
TAP	84	96	5
TAP	84	144	2
TAP	84	144	5
TAP	84	192	2
TAP	84	192	5
TAP	84	240	2
TAP	84	240	5
TAP	84	288	1
TAP	84	288	6
TAP	84	336	1
TAP	84	336	6
TAP	85	0	1
TAP	85	0	6
TAP	85	48	1
TAP	85	48	6
BRK	85	96	0
BRK	85	96	7
TAP	86	96	0
TAP	86	96	7
TAP	86	192	3
TAP	86	192	4
BRK	86	288	1
BRK	86	288	6
TAP	87	96	0
TAP	87	120	7
TAP	87	144	0
TAP	87	168	7
TAP	87	192	0
TAP	87	288	1
TAP	87	288	2
TAP	88	0	3
TAP	88	0	4
STR	88	96	5
SCL	88	96	5	96	48	2
STR	88	96	6
SUL	88	96	6	96	48	1
TAP	88	336	0
TAP	88	336	3
TAP	89	0	0
TAP	89	0	3
TAP	89	96	5
TAP	89	120	4
TAP	89	144	5
TAP	89	168	4
TAP	89	192	5
TAP	89	288	6
TAP	89	288	7
TAP	90	0	0
TAP	90	0	1
TAP	90	96	2
TAP	90	96	3
TAP	90	192	4
TAP	90	192	5
XTP	90	288	3
XTP	90	288	6
XTP	90	360	3
XTP	90	360	6
XTP	91	48	3
XTP	91	48	6
HLD	91	96	2	96
HLD	91	192	0	96
HLD	91	288	6	96
TAP	92	0	4
TAP	92	96	2
TAP	92	120	3
TAP	92	144	2
TAP	92	168	3
TAP	92	192	2
TAP	92	288	1
TAP	92	288	4
TAP	93	0	3
TAP	93	0	6
TAP	93	96	6
TAP	93	96	7
TAP	93	168	6
TAP	93	168	7
TAP	93	240	0
TAP	93	240	7
TAP	93	312	0
TAP	93	312	7
STR	94	0	0
SI_	94	0	0	96	48	5
STR	94	0	1
SI_	94	0	1	96	48	4
STR	94	192	6
SI_	94	192	6	96	48	3
STR	94	192	7
SI_	94	192	7	96	48	2
BRK	95	0	0
BRK	95	0	1
TAP	95	96	7
TAP	95	120	0
TAP	95	144	7
TAP	95	168	0
TAP	95	192	7
TAP	95	288	5
TAP	95	288	6
TAP	96	0	3
TAP	96	0	4
TAP	96	48	3
TAP	96	48	4
TAP	96	144	1
TAP	96	144	2
TAP	96	192	1
TAP	96	192	2
STR	96	288	0
SI_	96	288	0	96	48	4
STR	96	288	7
SI_	96	288	7	96	48	3
XTP	97	96	1
XTP	97	96	6
TAP	97	192	2
TAP	97	216	3
TAP	97	240	2
TAP	97	264	3
TAP	97	288	2
TAP	98	0	1
STR	98	48	1
SI_	98	48	1	96	48	3
STR	98	144	7
SI_	98	144	7	96	48	5
STR	98	240	0
SI_	98	240	0	96	48	4
BRK	98	336	7
TAP	99	96	6
TAP	99	160	6
TAP	99	192	4
TAP	99	256	4
XTP	99	288	5
TAP	100	0	1
TAP	100	64	1
TAP	100	96	3
TAP	100	160	3
XTP	100	192	2
TAP	100	288	0
STR	100	288	7
SCL	100	288	7	96	240	0
THO	102	0	0	192	C	0	M1
TTP	102	0	3	B	0	M1
TTP	102	0	4	B	0	M1
TAP	103	0	6
STR	103	96	0
SCR	103	96	0	96	96	3
STR	103	192	7
SCL	103	192	7	96	96	4
TAP	104	0	3
TAP	104	48	3
TAP	104	96	3
TAP	104	192	2
STR	104	288	1
SCR	104	288	1	96	96	4
STR	105	0	0
SCL	105	0	0	96	96	5
TAP	105	192	4
TAP	105	240	4
TAP	105	288	4
TAP	106	0	5
STR	106	96	6
SCL	106	96	6	96	96	3
STR	106	192	7
SCR	106	192	7	96	96	2
TAP	107	0	3
TAP	107	48	3
TAP	107	96	3
TAP	107	192	4
STR	107	288	4
SCR	107	288	4	96	96	7
STR	108	0	3
SCL	108	0	3	96	96	0
HLD	108	192	7	96
TAP	108	288	0
TAP	108	336	0
TAP	109	0	1
TAP	109	48	1
TAP	109	96	2
TAP	109	144	2
TAP	109	192	3
TAP	109	192	4
TAP	109	240	3
TAP	109	240	4
TAP	109	288	5
TAP	109	336	5
TAP	110	0	6
TAP	110	48	6
TAP	110	96	0
TAP	110	96	7
TAP	110	144	0
TAP	110	144	7
TAP	110	192	6
TAP	110	240	6
TAP	110	288	5
TAP	110	336	5
TAP	111	0	3
TAP	111	0	4
TAP	111	48	3
TAP	111	48	4
TAP	111	96	2
TAP	111	144	2
TAP	111	192	1
TAP	111	240	1
TAP	111	288	0
TAP	111	288	7
TAP	112	0	5
TAP	112	48	5
TAP	112	96	4
TAP	112	144	3
TAP	112	192	2
TAP	112	288	5
TAP	112	336	5
TAP	113	0	4
TAP	113	48	3
HLD	113	96	2	96
HLD	113	192	3	96
HLD	113	288	4	96
STR	114	0	5
SUL	114	0	5	96	288	3
THO	114	336	0	1584	C	0	M1
TTP	116	96	7	E	0	M1
TTP	116	120	6	B	0	M1
TTP	117	96	1	E	0	M1
TTP	117	120	1	B	0	M1

T_REC_TAP	443
T_REC_BRK	11
T_REC_XTP	35
T_REC_HLD	85
T_REC_XHO	1
T_REC_STR	49
T_REC_BST	0
T_REC_XST	3
T_REC_TTP	18
T_REC_THO	3
T_REC_SLD	52
T_REC_ALL	700
T_NUM_TAP	548
T_NUM_BRK	11
T_NUM_HLD	89
T_NUM_SLD	52
T_NUM_ALL	700
T_JUDGE_TAP	559
T_JUDGE_HLD	213
T_JUDGE_SLD	52
T_JUDGE_ALL	824
TTM_EACHPAIRS	150
TTM_SCR_TAP	274000
TTM_SCR_BRK	28600
TTM_SCR_HLD	89000
TTM_SCR_SLD	78000
TTM_SCR_ALL	469600
TTM_SCR_S	454450
TTM_SCR_SS	468500
TTM_RAT_ACV	10023

