VERSION	0.00.00	1.03.00
FES_MODE	0
BPM_DEF	200.000	200.000	200.000	200.000
MET_DEF	4	4
RESOLUTION	384
CLK_DEF	384
COMPATIBLE_CODE	MA2

BPM	0	0	200.000
MET	0	0	4	4
MET	17	0	4	3
MET	41	288	4	4
MET	61	288	4	3
MET	79	288	4	5
MET	82	96	4	4
MET	99	96	4	3
MET	100	0	4	4
MET	103	0	4	3
MET	112	0	4	4

HLD	1	0	5	288
TAP	1	288	4
TAP	2	192	3
TAP	2	192	4
HLD	3	0	2	288
TAP	3	288	3
XTP	4	192	3
XTP	4	192	4
TAP	5	0	4
TAP	5	0	5
TAP	5	96	4
TAP	5	96	5
TAP	5	288	3
TAP	5	288	4
TAP	6	0	3
TAP	6	0	4
TAP	6	192	2
TAP	6	288	3
TAP	7	0	4
TAP	7	96	5
TAP	7	192	3
TAP	7	192	4
TAP	7	288	3
TAP	7	288	4
XTP	8	0	2
XTP	8	0	5
STR	9	0	3
SCL	9	0	3	96	192	0
STR	9	0	4
SCR	9	0	4	96	192	7
TAP	10	192	0
TAP	10	192	7
TAP	10	288	0
TAP	10	288	7
XST	11	0	0
SXL	11	0	0	96	480	3
XST	11	0	7
SXR	11	0	7	96	480	4
TAP	13	0	5
TAP	13	96	6
TAP	13	192	7
TAP	13	288	0
TAP	14	0	1
TAP	14	96	2
TAP	14	192	3
STR	14	288	3
SI_	14	288	3	96	192	0
STR	14	288	4
SI_	14	288	4	96	192	7
TAP	16	0	0
TAP	16	0	7
TTP	17	0	1	E	0	L1
TTP	17	288	2	E	0	L1
TTP	18	192	3	E	0	L1
TTP	19	96	4	E	0	L1
TTP	20	0	5	E	0	L1
TTP	20	288	6	E	0	L1
THO	21	192	0	288	C	0	L1
XTP	23	0	7
TAP	23	96	7
TAP	23	288	6
TAP	24	0	6
TAP	24	192	5
TAP	24	288	5
TAP	25	96	4
TAP	25	192	4
TAP	26	0	3
TAP	26	96	3
TAP	26	288	2
TAP	27	0	2
TAP	27	192	0
TAP	27	192	1
TAP	27	288	0
TAP	27	288	1
XTP	28	96	6
XTP	28	96	7
HLD	29	0	5	288
TAP	29	288	4
HLD	30	192	3	288
TAP	31	96	4
HLD	32	0	2	288
TAP	32	288	3
TAP	33	192	1
TAP	33	288	1
XTP	34	0	2
XTP	34	96	3
XTP	34	192	4
XTP	34	288	5
TAP	35	0	6
TAP	35	96	6
TAP	35	192	0
TAP	35	288	0
TAP	36	0	6
TAP	36	0	7
TAP	36	192	1
TAP	36	288	1
TAP	37	0	7
TAP	37	96	7
TAP	37	192	0
TAP	37	192	1
TAP	38	0	2
TAP	38	96	2
TAP	38	192	3
TAP	38	288	3
TAP	39	0	4
TAP	39	96	4
STR	39	192	5
SXR	39	192	5	96	480	0
STR	41	288	1
SCR	41	288	1	96	192	4
STR	42	288	5
SCR	42	288	5	96	192	0
STR	43	288	1
SCR	43	288	1	96	192	4
TAP	44	288	5
TAP	45	0	5
TAP	45	96	4
TAP	45	96	5
STR	45	288	3
SI_	45	288	3	96	192	0
STR	46	288	7
SI_	46	288	7	96	192	4
STR	47	288	3
SI_	47	288	3	96	192	0
TAP	48	288	7
TAP	49	0	7
TAP	49	96	0
TAP	49	96	7
TAP	49	288	6
TAP	50	0	6
TAP	50	96	7
TAP	50	192	7
TAP	50	288	0
TAP	51	0	0
TAP	51	96	1
TAP	51	96	7
TAP	51	288	2
TAP	52	0	2
TAP	52	96	3
TAP	52	192	3
TAP	52	288	4
TAP	53	0	4
TAP	53	96	3
TAP	53	96	4
TAP	53	288	5
XTP	54	0	5
TAP	54	96	4
XTP	54	192	4
TAP	54	288	3
XTP	55	0	3
TAP	55	96	2
TAP	55	96	4
TAP	55	288	1
XTP	56	0	1
TAP	56	96	0
XTP	56	192	0
TAP	56	288	0
TAP	56	288	7
XTP	57	0	1
XTP	57	0	6
TAP	57	96	2
TAP	57	96	5
THO	57	288	0	600	C	1	L1
HLD	60	288	0	192
HLD	61	96	7	192
TAP	61	288	0
TAP	62	0	0
TAP	62	96	0
TAP	62	192	1
TAP	62	288	1
TAP	63	0	1
TAP	63	96	2
TAP	63	192	3
TAP	63	288	4
TAP	64	0	5
TAP	64	96	3
TAP	64	96	4
HLD	64	288	5	288
HLD	65	192	4	288
XHO	66	96	3	288
BRK	67	0	2
TAP	67	288	4
TAP	68	0	5
TAP	68	96	6
TAP	68	192	7
TAP	68	288	0
TAP	69	0	1
TAP	69	96	2
TAP	69	192	3
TAP	69	288	4
TAP	70	0	2
TAP	70	0	5
TAP	70	96	2
TAP	70	96	5
HLD	70	288	6	288
HLD	71	192	7	288
HLD	72	96	0	288
TAP	73	0	1
TAP	73	288	0
TAP	73	288	7
TAP	74	0	0
TAP	74	0	7
TAP	74	192	1
TAP	74	288	1
TAP	75	96	2
TAP	75	96	3
TAP	75	192	2
TAP	75	192	3
TAP	76	0	4
TAP	76	96	4
TAP	76	288	4
TAP	76	288	5
TAP	77	0	4
TAP	77	0	5
TAP	77	192	6
TAP	77	288	6
TAP	78	96	0
STR	78	96	7
SCL	78	96	7	96	288	2
STR	79	288	1
SI_	79	288	1	96	192	4
STR	81	0	5
SI_	81	0	5	96	192	0
TAP	82	96	2
TAP	82	192	3
TAP	82	288	4
TAP	83	0	5
TAP	83	96	6
TAP	83	192	7
TAP	83	288	0
TAP	84	0	1
TAP	84	96	0
TAP	84	96	7
TAP	84	144	0
TAP	84	144	7
TAP	84	192	0
TAP	84	192	7
TAP	84	288	1
TAP	84	288	6
TAP	84	336	1
TAP	84	336	6
TAP	85	0	1
TAP	85	0	6
STR	85	96	2
SXR	85	96	2	96	480	4
STR	85	96	5
SXL	85	96	5	96	480	3
TAP	87	96	4
TAP	87	96	5
TAP	87	192	4
TAP	87	192	5
TAP	87	288	6
TAP	87	336	6
TAP	88	0	6
TAP	88	96	0
TAP	88	96	7
TAP	88	192	0
TAP	88	192	7
TAP	88	288	1
TAP	88	336	1
TAP	89	0	1
TAP	89	96	2
TAP	89	96	3
TAP	89	192	2
TAP	89	192	3
TAP	89	288	4
TAP	89	336	4
TAP	90	0	4
TAP	90	96	3
TAP	90	96	4
TAP	90	192	3
TAP	90	192	4
TAP	90	288	2
TAP	90	288	5
TAP	91	96	2
TAP	91	96	3
TAP	91	192	2
TAP	91	192	3
TAP	91	288	1
TAP	91	336	1
TAP	92	0	1
TAP	92	96	0
TAP	92	96	7
TAP	92	192	0
TAP	92	192	7
TAP	92	288	6
TAP	92	336	6
TAP	93	0	6
TAP	93	96	4
TAP	93	96	5
TAP	93	192	4
TAP	93	192	5
TAP	93	288	3
TAP	93	336	3
TAP	94	0	3
TAP	94	96	3
TAP	94	96	4
TAP	94	192	3
TAP	94	192	4
BRK	94	288	2
BRK	94	288	5
TAP	95	96	6
TAP	95	96	7
TAP	95	192	6
TAP	95	192	7
TAP	95	288	5
TAP	95	336	5
TAP	96	0	5
TAP	96	96	3
TAP	96	96	4
TAP	96	192	3
TAP	96	192	4
TAP	96	288	2
TAP	96	336	2
TAP	97	0	2
TAP	97	96	0
TAP	97	96	1
TAP	97	192	0
TAP	97	192	1
TAP	97	288	7
TAP	97	336	7
TAP	98	0	7
TAP	98	96	0
TAP	98	96	7
TAP	98	192	1
TAP	98	192	6
TAP	98	288	2
TAP	98	288	5
TAP	99	96	6
TAP	99	192	5
TAP	99	288	4
TAP	99	288	5
TAP	100	0	3
TAP	100	96	2
TAP	100	192	1
TAP	100	192	3
THO	101	0	0	384	C	1	L1
TAP	103	0	7
TAP	103	96	6
TAP	103	192	5
TAP	103	288	3
TAP	103	288	4
TAP	104	0	2
TAP	104	96	1
TAP	104	192	0
TAP	104	192	7
TAP	104	288	6
TAP	105	0	5
TAP	105	96	3
TAP	105	96	4
TAP	105	192	2
TAP	105	288	1
TAP	106	0	0
TAP	106	0	7
TAP	106	96	1
TAP	106	192	2
TAP	106	288	3
TAP	106	288	4
TAP	107	0	5
TAP	107	96	6
TAP	107	192	0
TAP	107	192	7
TAP	107	288	1
TAP	107	288	6
TAP	108	0	2
TAP	108	0	5
TAP	108	96	3
TAP	108	96	4
TAP	108	192	4
TAP	108	192	5
TAP	108	288	4
TAP	108	288	5
TAP	109	0	6
TAP	109	48	6
TAP	109	96	6
TAP	109	192	0
TAP	109	192	7
TAP	109	288	1
TAP	109	336	1
TAP	110	0	1
TAP	110	96	0
TAP	110	96	7
TAP	110	192	6
TAP	110	240	6
TAP	110	288	6
TAP	111	0	0
TAP	111	0	7
TAP	111	96	1
TAP	111	96	6
TAP	111	144	1
TAP	111	144	6
TAP	111	192	1
TAP	111	192	6
TAP	111	288	2
TAP	111	288	5
TTP	112	0	4	E	0	L1
TTP	112	288	3	B	0	L1
TTP	112	288	4	B	0	L1
TTP	113	192	0	C	0	L1
TTP	113	192	2	B	0	L1
TTP	113	192	5	B	0	L1
XTP	114	0	0
XTP	114	0	7
XTP	114	96	0
XTP	114	96	7
STR	114	192	0
SCR	114	192	0	96	960	7
TAP	114	192	7

T_REC_TAP	317
T_REC_BRK	3
T_REC_XTP	22
T_REC_HLD	12
T_REC_XHO	1
T_REC_STR	17
T_REC_BST	0
T_REC_XST	2
T_REC_TTP	12
T_REC_THO	3
T_REC_SLD	19
T_REC_ALL	408
T_NUM_TAP	370
T_NUM_BRK	3
T_NUM_HLD	16
T_NUM_SLD	19
T_NUM_ALL	408
T_JUDGE_TAP	373
T_JUDGE_HLD	101
T_JUDGE_SLD	19
T_JUDGE_ALL	493
TTM_EACHPAIRS	95
TTM_SCR_TAP	185000
TTM_SCR_BRK	7800
TTM_SCR_HLD	16000
TTM_SCR_SLD	28500
TTM_SCR_ALL	237300
TTM_SCR_S	229900
TTM_SCR_SS	237000
TTM_RAT_ACV	10012

