VERSION	0.00.00	1.03.00
FES_MODE	0
BPM_DEF	200.000	200.000	200.000	200.000
MET_DEF	4	4
RESOLUTION	384
CLK_DEF	384
COMPATIBLE_CODE	MA2

BPM	0	0	200.000
MET	0	0	4	4
MET	17	0	4	3
MET	41	288	4	4
MET	61	288	4	3
MET	79	288	4	5
MET	82	96	4	4
MET	99	96	4	3
MET	100	0	4	4
MET	103	0	4	3
MET	112	0	4	4

HLD	5	0	3	384
HLD	5	0	4	384
TAP	7	0	3
TAP	7	0	4
TAP	8	0	3
TAP	8	0	4
TAP	9	0	3
TAP	10	0	2
TAP	11	0	1
TAP	12	0	0
TAP	13	0	7
TAP	14	0	6
TAP	15	0	5
TAP	16	0	3
TAP	16	0	4
TTP	17	0	4	B	0	L1
TTP	17	288	5	B	0	L1
TTP	18	192	6	B	0	L1
TTP	19	96	7	B	0	L1
TTP	20	0	0	B	0	L1
TTP	20	288	1	B	0	L1
TTP	21	192	2	B	0	L1
TTP	21	192	3	B	0	L1
TTP	23	0	3	E	0	L1
TTP	23	288	2	E	0	L1
TTP	24	192	1	E	0	L1
TTP	25	96	0	E	0	L1
TTP	26	0	7	E	0	L1
TTP	26	288	6	E	0	L1
TTP	27	192	0	C	0	L1
STR	29	0	7
SI_	29	0	7	96	288	4
XTP	30	192	3
STR	32	0	3
SI_	32	0	3	96	288	0
XTP	33	192	7
TAP	35	0	7
TAP	35	288	6
TAP	35	288	7
TAP	36	192	0
TAP	37	96	0
TAP	37	96	1
TAP	38	0	7
TAP	38	288	0
TAP	38	288	7
HLD	39	192	0	576
HLD	39	192	7	576
TAP	41	288	7
TAP	42	96	7
TAP	42	288	6
TAP	43	96	6
TAP	43	288	5
TAP	44	96	5
TAP	44	288	4
TAP	44	288	5
TAP	45	288	3
TAP	46	96	3
TAP	46	288	2
TAP	47	96	2
TAP	47	288	1
TAP	48	96	1
TAP	48	288	0
TAP	48	288	1
TAP	49	288	7
TAP	50	0	7
TAP	50	96	7
TAP	50	288	6
TAP	50	288	7
TAP	51	288	0
TAP	52	0	0
TAP	52	96	0
TAP	52	288	0
TAP	52	288	1
TAP	53	288	7
TAP	54	0	7
TAP	54	96	7
TAP	54	288	0
TAP	54	288	6
TAP	55	288	0
TAP	56	0	0
TAP	56	96	0
TAP	56	288	1
TAP	56	288	7
STR	57	288	0
SI_	57	288	0	96	384	3
STR	57	288	7
SI_	57	288	7	96	384	4
TTP	59	288	0	C	1	L1
STR	61	288	0
SI_	61	288	0	96	384	3
STR	64	288	7
SI_	64	288	7	96	384	4
STR	67	288	3
SI_	67	288	3	96	384	7
STR	70	288	6
SI_	70	288	6	96	384	2
XTP	73	0	1
HLD	73	288	0	288
HLD	73	288	1	288
TAP	75	96	7
TAP	76	0	7
HLD	76	288	6	288
HLD	76	288	7	288
TAP	78	96	0
TAP	79	0	0
HLD	79	288	0	480
HLD	79	288	7	480
XTP	82	96	0
TAP	82	288	0
TAP	83	96	7
TAP	83	288	7
TAP	84	96	0
TAP	84	96	7
TAP	84	288	0
TAP	84	288	7
BRK	85	96	1
BRK	85	96	6
TAP	86	96	0
TAP	86	96	7
XTP	86	288	0
XTP	86	288	7
TAP	87	96	7
TAP	87	192	7
TAP	87	288	7
TAP	88	96	6
TAP	88	192	6
TAP	88	288	6
TAP	89	96	5
TAP	89	192	5
TAP	89	288	5
TAP	90	96	4
TAP	90	192	4
TAP	90	288	3
TAP	90	288	4
TAP	91	96	3
TAP	91	192	3
TAP	91	288	3
TAP	92	96	2
TAP	92	192	2
TAP	92	288	2
TAP	93	96	1
TAP	93	192	1
TAP	93	288	1
XTP	94	96	0
XTP	94	96	7
TAP	95	96	0
TAP	95	192	0
TAP	95	288	1
TAP	96	0	1
TAP	96	96	2
TAP	96	192	2
TAP	96	288	2
TAP	96	288	3
TAP	97	96	4
TAP	97	192	4
TAP	97	288	5
TAP	98	0	5
TAP	98	96	6
TAP	98	192	6
TAP	98	288	6
TAP	98	288	7
TAP	99	96	0
TAP	99	192	0
TAP	99	288	0
TAP	100	0	7
TAP	100	96	7
TAP	100	192	7
XTP	100	288	0
XTP	100	288	7
XHO	101	0	0	384
XHO	101	0	7	384
TAP	103	0	6
TAP	103	96	6
TAP	103	192	6
TAP	103	288	6
TAP	103	288	7
TAP	104	192	5
TAP	104	288	5
TAP	105	0	5
TAP	105	96	4
TAP	105	96	5
TAP	106	0	2
TAP	106	96	2
TAP	106	192	2
TAP	106	288	2
TAP	106	288	3
TAP	107	192	1
TAP	107	288	1
TAP	108	0	1
TAP	108	96	0
TAP	108	96	1
TAP	109	0	7
TAP	109	96	7
TAP	109	192	7
TAP	109	288	6
TAP	109	288	7
TAP	110	192	0
TAP	110	288	0
TAP	111	0	0
TAP	111	96	0
TAP	111	96	1
XST	112	0	0
SI_	112	0	0	96	384	3
XST	112	0	7
SI_	112	0	7	96	384	4
THO	114	336	0	1584	C	0	L1

T_REC_TAP	145
T_REC_BRK	2
T_REC_XTP	10
T_REC_HLD	10
T_REC_XHO	2
T_REC_STR	8
T_REC_BST	0
T_REC_XST	2
T_REC_TTP	16
T_REC_THO	1
T_REC_SLD	10
T_REC_ALL	206
T_NUM_TAP	181
T_NUM_BRK	2
T_NUM_HLD	13
T_NUM_SLD	10
T_NUM_ALL	206
T_JUDGE_TAP	183
T_JUDGE_HLD	133
T_JUDGE_SLD	10
T_JUDGE_ALL	326
TTM_EACHPAIRS	36
TTM_SCR_TAP	90500
TTM_SCR_BRK	5200
TTM_SCR_HLD	13000
TTM_SCR_SLD	15000
TTM_SCR_ALL	123700
TTM_SCR_S	119800
TTM_SCR_SS	123500
TTM_RAT_ACV	10016

