VERSION	0.00.00	1.03.00
FES_MODE	0
BPM_DEF	144.000	144.000	144.000	108.000
MET_DEF	4	4
RESOLUTION	384
CLK_DEF	384
COMPATIBLE_CODE	MA2

BPM	0	0	144.000
BPM	33	0	108.000
BPM	52	192	144.000
MET	0	0	4	4
MET	33	0	4	3
MET	39	0	4	4
MET	44	0	4	2
MET	44	192	8	7
MET	45	144	8	9
MET	46	192	8	6
MET	52	192	4	4

TTP	1	144	2	E	0	M1
TTP	1	144	6	E	0	M1
TTP	1	160	3	E	0	M1
TTP	1	160	5	E	0	M1
TTP	1	176	4	E	0	M1
THO	1	192	0	192	C	0	M1
TTP	2	0	1	B	0	M1
TTP	2	0	6	B	0	M1
TTP	2	16	0	B	0	M1
TTP	2	16	7	B	0	M1
TTP	2	32	0	E	0	M1
TTP	2	96	3	B	0	M1
TTP	2	96	4	B	0	M1
TTP	2	168	6	E	0	M1
TTP	2	180	6	B	0	M1
TTP	2	192	0	C	0	M1
TTP	2	204	2	B	0	M1
TTP	2	216	2	E	0	M1
STR	2	288	0
SCR	2	288	0	96	2976	7
BRK	3	0	7
HLD	7	0	0	24
XTP	7	96	3
TTP	7	120	6	E	0	M1
TTP	7	132	5	E	0	M1
TTP	7	144	4	E	0	M1
TTP	7	156	3	E	0	M1
TTP	7	168	2	E	0	M1
HLD	7	240	3	24
HLD	7	336	0	96
HLD	8	72	1	96
HLD	8	192	2	48
TAP	8	312	3
TAP	9	0	3
STR	9	72	3
SXL	9	72	3	96	504	0
TAP	11	0	3
TAP	11	16	7
TAP	11	32	3
TAP	11	48	7
TAP	11	64	3
TAP	11	80	7
TAP	11	96	2
TAP	11	112	6
TAP	11	128	2
TAP	11	144	6
TAP	11	160	2
TAP	11	176	6
TAP	11	192	1
TAP	11	208	5
TAP	11	224	1
TAP	11	240	5
TAP	11	256	1
TAP	11	272	5
STR	11	288	0
SSL	11	288	0	96	48	4
TAP	11	304	4
TAP	11	320	0
TAP	11	336	4
TAP	11	352	0
TAP	11	368	4
BRK	12	0	0
STR	12	288	6
SXR	12	288	6	96	192	7
HLD	13	0	0	96
HLD	13	192	1	96
STR	13	288	7
SXR	13	288	7	96	192	1
HLD	14	0	2	96
HLD	14	192	3	96
STR	15	0	0
SXL	15	0	0	96	192	5
HLD	15	0	4	96
STR	15	192	5
SXL	15	192	5	96	288	1
SXR	15	192	5	96	288	0
THO	17	0	0	672	C	0	M1
TTP	17	96	7	B	0	M1
TTP	17	192	0	E	0	M1
TTP	17	192	6	B	0	M1
TTP	17	256	1	E	0	M1
TTP	17	288	5	B	0	M1
TTP	17	320	2	E	0	M1
TTP	18	0	3	E	0	M1
TTP	18	0	4	B	0	M1
TTP	18	64	4	E	0	M1
TTP	18	96	3	B	0	M1
TTP	18	128	5	E	0	M1
TTP	18	192	2	B	0	M1
TTP	18	192	6	E	0	M1
TTP	18	256	7	E	0	M1
TTP	18	288	1	B	0	M1
TTP	18	320	0	E	0	M1
TAP	19	0	0
TAP	19	32	0
TAP	19	64	0
TAP	19	96	0
TAP	19	128	0
TAP	19	160	0
TAP	19	192	2
TAP	19	224	2
TAP	19	256	2
TAP	19	288	2
TAP	19	320	2
TAP	19	352	2
TAP	20	0	4
TAP	20	32	4
TAP	20	64	4
TAP	20	96	4
TAP	20	128	4
TAP	20	160	4
TAP	20	192	6
TAP	20	224	6
TAP	20	256	6
TAP	20	288	6
TAP	20	320	6
TAP	20	352	6
TAP	21	0	0
TAP	21	16	1
HLD	21	32	2	96
TAP	21	64	7
TAP	21	80	6
HLD	21	96	5	96
TAP	21	144	3
HLD	21	160	4	96
TAP	21	208	6
HLD	21	224	7	96
TAP	21	272	3
HLD	21	288	2	96
TAP	21	336	6
HLD	21	352	5	96
TAP	22	16	1
HLD	22	32	0	96
TAP	22	80	4
HLD	22	96	3	96
TAP	22	144	1
HLD	22	160	2	96
TAP	22	208	4
HLD	22	224	5	96
TAP	22	272	3
STR	22	288	4
SCR	22	288	4	96	48	7
SXR	22	288	4	96	480	0
TAP	22	336	4
TAP	22	352	3
BRK	23	0	4
TTP	24	192	5	E	0	M1
TTP	24	240	4	E	0	M1
TTP	24	288	3	E	0	M1
TAP	25	0	3
TAP	25	0	4
TAP	25	32	3
TAP	25	64	3
STR	25	96	1
SCR	25	96	1	96	48	5
TAP	25	96	3
BRK	25	192	1
TAP	25	192	7
TAP	25	224	7
TAP	25	256	7
TAP	25	288	3
TAP	25	288	7
TAP	25	320	3
TAP	25	352	3
TAP	26	0	3
TAP	26	0	4
TAP	26	32	4
TAP	26	64	4
STR	26	96	2
SCR	26	96	2	96	48	6
TAP	26	96	4
TAP	26	192	0
BRK	26	192	2
TAP	26	224	0
TAP	26	256	0
TAP	26	288	0
TAP	26	288	3
TAP	26	320	3
TAP	26	352	3
TAP	27	0	3
TAP	27	0	5
TAP	27	32	5
TAP	27	64	5
STR	27	96	3
SCR	27	96	3	96	48	7
TAP	27	96	5
TAP	27	192	0
BRK	27	192	3
TAP	27	224	0
TAP	27	256	0
TAP	27	288	0
TAP	27	288	5
TAP	27	320	5
TAP	27	352	5
TAP	28	0	1
TAP	28	0	5
TAP	28	32	1
TAP	28	64	1
TAP	28	96	1
STR	28	96	4
SCR	28	96	4	96	48	0
TAP	28	192	2
BRK	28	192	4
TAP	28	224	2
TAP	28	256	2
TAP	28	288	2
TAP	28	288	6
TAP	28	320	6
TAP	28	352	6
TAP	29	0	3
TAP	29	0	6
TAP	29	32	3
TAP	29	64	3
TAP	29	96	3
STR	29	96	5
SCR	29	96	5	96	48	1
TAP	29	192	4
BRK	29	192	5
TAP	29	224	4
TAP	29	256	4
TAP	29	288	4
TAP	29	288	7
TAP	29	320	7
TAP	29	352	7
TAP	30	0	2
TAP	30	0	7
TAP	30	32	2
TAP	30	64	2
TAP	30	96	2
STR	30	96	6
SCR	30	96	6	96	48	2
TAP	30	192	4
BRK	30	192	6
TAP	30	224	4
TAP	30	256	4
TAP	30	288	0
TAP	30	288	4
TAP	30	320	0
TAP	30	352	0
TAP	31	0	0
TAP	31	0	5
TAP	31	32	5
TAP	31	64	5
TAP	31	96	5
STR	31	96	7
SCR	31	96	7	96	48	3
TAP	31	192	6
BRK	31	192	7
TAP	31	224	6
TAP	31	256	6
TAP	31	288	1
TAP	31	288	6
TAP	31	320	1
TAP	31	320	6
TAP	31	352	1
TAP	31	352	6
TAP	32	0	3
TAP	32	0	5
TAP	32	32	3
TAP	32	32	5
TAP	32	64	2
TAP	32	64	4
TAP	32	96	2
TAP	32	96	4
TAP	32	128	5
TAP	32	160	5
TAP	32	192	4
TAP	32	192	6
TAP	32	224	4
TAP	32	224	6
TAP	32	256	3
TAP	32	256	7
TAP	32	288	3
TAP	32	288	7
TAP	32	320	0
TAP	32	320	2
TAP	32	352	0
TAP	32	352	2
STR	33	0	1
SLR	33	0	1	96	96	5
STR	33	96	5
SLR	33	96	5	96	96	1
TTP	33	144	6	E	0	M1
STR	33	192	1
SLR	33	192	1	96	96	5
TTP	33	240	2	E	0	M1
STR	33	288	5
SLR	33	288	5	96	96	1
STR	34	0	1
SLR	34	0	1	96	96	5
TTP	34	48	2	E	0	M1
STR	34	96	5
SLR	34	96	5	96	96	1
STR	34	192	1
SLR	34	192	1	96	96	5
STR	34	288	5
SLR	34	288	5	96	96	1
TTP	34	336	6	E	0	M1
TAP	35	0	1
TAP	35	96	5
TAP	35	120	5
TAP	35	144	3
TAP	35	168	3
TAP	35	192	4
TAP	35	216	4
TAP	35	240	2
TAP	35	264	2
TAP	35	288	5
TAP	35	300	4
TAP	35	312	3
TAP	35	324	2
TAP	35	336	5
TAP	35	348	4
TAP	35	360	3
TAP	35	372	2
STR	36	0	6
SLR	36	0	6	96	96	2
STR	36	96	2
SLR	36	96	2	96	96	6
TTP	36	144	3	E	0	M1
STR	36	192	6
SLR	36	192	6	96	96	2
STR	36	288	2
SLR	36	288	2	96	96	6
STR	37	0	6
SLR	37	0	6	96	96	2
TTP	37	48	7	E	0	M1
STR	37	96	2
SLR	37	96	2	96	96	6
STR	37	192	6
SLR	37	192	6	96	96	2
STR	37	288	2
SLR	37	288	2	96	96	6
TAP	38	0	6
TAP	38	96	0
TAP	38	120	0
TAP	38	144	0
TAP	38	168	1
TAP	38	168	7
TAP	38	192	2
TAP	38	192	6
TAP	38	216	3
TAP	38	216	5
TAP	38	240	3
TAP	38	240	5
TAP	38	264	3
TAP	38	264	5
TAP	38	288	2
TAP	38	288	4
TAP	38	312	2
TAP	38	312	4
TAP	38	336	1
TAP	38	336	5
TAP	38	360	1
TAP	38	360	5
STR	39	0	0
SI_	39	0	0	96	24	4
STR	39	24	4
SI_	39	24	4	96	24	7
STR	39	48	7
SI_	39	48	7	96	24	3
STR	39	72	3
SI_	39	72	3	96	24	0
STR	39	192	6
SI_	39	192	6	96	24	2
STR	39	216	2
SI_	39	216	2	96	24	7
STR	39	240	7
SI_	39	240	7	96	24	3
STR	39	264	3
SI_	39	264	3	96	24	6
STR	40	0	1
SI_	40	0	1	96	24	5
STR	40	24	5
SI_	40	24	5	96	24	0
STR	40	48	0
SI_	40	48	0	96	24	4
STR	40	72	4
SI_	40	72	4	96	24	1
STR	40	192	7
SI_	40	192	7	96	24	3
STR	40	216	3
SV_	40	216	3	96	24	1
SV_	40	216	3	96	24	5
TAP	40	240	5
TAP	40	264	1
STR	41	0	7
SI_	41	0	7	96	24	3
STR	41	24	3
SI_	41	24	3	96	24	0
STR	41	48	0
SI_	41	48	0	96	24	4
STR	41	72	4
SI_	41	72	4	96	24	7
STR	41	192	1
SI_	41	192	1	96	24	5
STR	41	216	5
SI_	41	216	5	96	24	0
STR	41	240	0
SI_	41	240	0	96	24	4
STR	41	264	4
SI_	41	264	4	96	24	1
STR	42	0	6
SI_	42	0	6	96	24	2
STR	42	24	2
SI_	42	24	2	96	24	7
STR	42	48	7
SI_	42	48	7	96	24	3
STR	42	72	3
SI_	42	72	3	96	24	6
STR	42	192	0
SI_	42	192	0	96	24	4
STR	42	216	4
SV_	42	216	4	96	24	2
SXL	42	216	4	96	72	5
TAP	42	240	2
TAP	42	264	6
BRK	43	0	0
TAP	43	96	2
TAP	43	96	4
TAP	43	112	3
TAP	43	128	3
TAP	43	144	3
TAP	43	160	3
TAP	43	176	3
TAP	43	192	2
TAP	43	208	4
TAP	43	224	4
TAP	43	240	4
TAP	43	256	4
TAP	43	272	4
TAP	43	288	3
TAP	43	288	5
TAP	43	336	2
TAP	43	336	6
STR	44	0	1
SI_	44	0	1	96	24	5
STR	44	24	5
SI_	44	24	5	96	24	2
STR	44	48	2
SI_	44	48	2	96	24	6
STR	44	72	6
SI_	44	72	6	96	24	1
HLD	44	192	4	192
TAP	45	144	7
TAP	45	168	7
TAP	45	192	6
TAP	45	216	6
TAP	45	240	5
TAP	45	264	5
TAP	45	288	4
TAP	45	312	4
TAP	45	336	3
TAP	45	360	3
TAP	45	360	6
TAP	45	372	7
TAP	46	0	0
TAP	46	0	2
TAP	46	12	1
TAP	46	24	2
TAP	46	36	3
TAP	46	48	1
TAP	46	48	4
TAP	46	60	5
TAP	46	72	1
TAP	46	96	0
TAP	46	120	0
TAP	46	144	7
TAP	46	168	7
TAP	46	192	0
TAP	46	216	1
TAP	46	240	2
TAP	46	264	3
STR	46	288	4
SI_	46	288	4	96	48	7
TAP	46	312	5
TAP	46	336	6
TAP	46	360	7
TAP	47	0	4
TAP	47	24	3
TAP	47	48	2
TAP	47	72	1
TAP	47	96	0
TAP	47	120	7
TAP	47	144	6
TAP	47	168	5
STR	47	192	4
SI_	47	192	4	96	48	1
TAP	47	216	3
TAP	47	240	2
TAP	47	264	1
TAP	47	288	4
TAP	47	312	5
TAP	47	336	6
TAP	47	360	7
STR	48	0	0
SI_	48	0	0	96	48	4
TAP	48	24	1
TAP	48	48	2
TAP	48	72	3
TAP	48	96	0
TAP	48	120	7
TAP	48	144	6
TAP	48	168	5
STR	48	192	4
SI_	48	192	4	96	48	0
TAP	48	216	3
TAP	48	240	2
TAP	48	264	1
TAP	48	288	4
TAP	48	312	5
TAP	48	336	6
TAP	48	360	7
STR	49	0	0
SI_	49	0	0	96	48	4
TAP	49	24	1
TAP	49	48	2
TAP	49	72	3
TAP	49	96	0
TAP	49	120	1
TAP	49	144	2
TAP	49	168	3
HLD	49	192	4	576
TTP	51	24	4	E	0	M1
HLD	51	72	3	24
TTP	51	120	6	E	0	M1
TTP	51	132	5	E	0	M1
TTP	51	144	4	E	0	M1
TTP	51	156	3	E	0	M1
TTP	51	168	2	E	0	M1
XST	51	192	0
SI_	51	192	0	96	384	4
TAP	51	240	7
HLD	51	288	6	96
HLD	52	48	5	48
BRK	53	96	3
BRK	53	96	4
STR	53	192	1
SI_	53	192	1	96	48	5
TAP	53	192	3
TAP	53	240	3
STR	53	240	5
SI_	53	240	5	96	48	0
TAP	53	288	7
TAP	53	336	4
STR	54	0	3
SI_	54	0	3	96	48	7
TAP	54	48	4
STR	54	48	7
SI_	54	48	7	96	48	5
TAP	54	96	2
TAP	54	144	0
STR	54	192	2
SI_	54	192	2	96	48	5
TAP	54	240	1
STR	54	240	5
SLL	54	240	5	96	48	1
TAP	54	288	4
TAP	54	336	7
STR	55	0	6
SI_	55	0	6	96	48	2
STR	55	48	0
SI_	55	48	0	96	48	4
TAP	55	48	4
TAP	55	96	3
TAP	55	96	6
TAP	55	144	0
STR	55	192	6
SI_	55	192	6	96	48	2
STR	55	240	2
SI_	55	240	2	96	48	7
TAP	55	240	4
TAP	55	288	0
TAP	55	336	3
STR	56	0	4
SI_	56	0	4	96	48	0
STR	56	48	0
SI_	56	48	0	96	48	2
TAP	56	48	3
TAP	56	96	5
TAP	56	144	7
STR	56	192	5
SI_	56	192	5	96	48	2
STR	56	240	2
SLR	56	240	2	96	48	6
TAP	56	240	6
TAP	56	288	3
TAP	56	336	0
STR	57	0	1
SI_	57	0	1	96	48	5
TAP	57	48	3
STR	57	48	7
SI_	57	48	7	96	48	3
TAP	57	96	1
TAP	57	96	4
TAP	57	144	7
STR	57	192	2
SI_	57	192	2	96	48	6
TAP	57	240	4
STR	57	240	6
SLR	57	240	6	96	48	2
TAP	57	288	7
TAP	57	336	5
STR	58	0	4
SI_	58	0	4	96	48	0
STR	58	48	0
SI_	58	48	0	96	48	4
TAP	58	48	6
TAP	58	96	3
TAP	58	144	1
TAP	58	192	2
TAP	58	240	3
TAP	58	240	6
TAP	58	288	1
TAP	58	288	3
TAP	58	336	0
TAP	59	0	4
TAP	59	12	5
TAP	59	24	6
TAP	59	36	7
TAP	59	48	0
TAP	59	60	1
TAP	59	72	2
TAP	59	84	3
BRK	59	96	0
TAP	59	96	4
TAP	59	192	4
STR	59	192	6
SI_	59	192	6	96	48	2
STR	59	240	2
SLL	59	240	2	96	48	6
TAP	59	240	4
TAP	59	288	1
TAP	59	336	3
STR	60	0	4
SI_	60	0	4	96	48	0
STR	60	48	0
SCR	60	48	0	96	48	4
TAP	60	48	3
TAP	60	96	5
TAP	60	144	7
STR	60	192	5
SI_	60	192	5	96	48	2
STR	60	240	2
SLR	60	240	2	96	48	6
TAP	60	240	6
TAP	60	288	1
TAP	60	336	0
STR	61	0	1
SI_	61	0	1	96	48	4
TAP	61	48	3
STR	61	48	7
SI_	61	48	7	96	48	5
TAP	61	96	1
TAP	61	96	4
TAP	61	144	7
STR	61	192	1
SI_	61	192	1	96	48	5
TAP	61	240	3
STR	61	240	5
SLR	61	240	5	96	48	1
TAP	61	288	6
TAP	61	336	4
STR	62	0	3
SI_	62	0	3	96	48	7
TAP	62	48	4
STR	62	48	7
SLL	62	48	7	96	48	3
TAP	62	96	2
TAP	62	144	0
STR	62	192	2
SI_	62	192	2	96	48	5
TAP	62	240	1
STR	62	240	5
SCL	62	240	5	96	48	1
TAP	62	288	6
TAP	62	336	7
STR	63	0	6
SI_	63	0	6	96	48	3
TAP	63	48	4
TAP	63	96	3
TAP	63	96	6
TAP	63	120	2
TAP	63	144	2
STR	63	192	5
SI_	63	192	5	96	48	1
STR	63	240	1
SLL	63	240	1	96	48	5
TAP	63	240	3
TAP	63	288	2
TAP	63	336	4
STR	64	0	3
SI_	64	0	3	96	48	7
TAP	64	48	1
TAP	64	48	7
TAP	64	96	3
TAP	64	96	5
TAP	64	144	2
TAP	64	192	0
TAP	64	204	1
TAP	64	216	2
TAP	64	228	3
TAP	64	240	4
TAP	64	252	5
TAP	64	264	6
TAP	64	276	7
TAP	64	288	0
TAP	64	300	1
TAP	64	312	2
TAP	64	324	3
TAP	64	336	4
TAP	64	348	5
TAP	64	360	6
TAP	64	372	7
TAP	65	0	0
THO	65	0	0	96	C	1	M1
TTP	65	96	1	B	0	M1
TTP	65	96	2	B	0	M1
TTP	65	96	2	E	0	M1
TTP	65	96	3	B	0	M1
TTP	65	96	3	E	0	M1
TTP	65	96	4	B	0	M1
TTP	65	96	4	E	0	M1
TTP	65	96	5	B	0	M1
TTP	65	96	5	E	0	M1
TTP	65	96	6	B	0	M1
TTP	65	96	6	E	0	M1
STR	65	192	0
SI_	65	192	0	96	48	3
TAP	65	192	7
TAP	65	240	0
TAP	65	288	0
STR	65	288	7
SI_	65	288	7	96	48	4
TAP	65	336	7
STR	66	0	2
SI_	66	0	2	96	48	5
TAP	66	0	7
TAP	66	48	3
TAP	66	96	2
STR	66	96	6
SI_	66	96	6	96	48	1
TAP	66	128	7
TAP	66	160	7
STR	66	192	3
SI_	66	192	3	96	48	0
TAP	66	192	6
TAP	66	240	2
TAP	66	288	3
STR	66	288	4
SI_	66	288	4	96	48	7
TAP	66	336	5
STR	67	0	1
SI_	67	0	1	96	48	6
TAP	67	0	4
TAP	67	48	0
TAP	67	96	1
STR	67	96	5
SI_	67	96	5	96	48	2
TAP	67	128	4
TAP	67	160	4
STR	67	192	0
SI_	67	192	0	96	48	4
TAP	67	192	5
TAP	67	240	1
TAP	67	288	0
STR	67	288	7
SI_	67	288	7	96	48	3
TAP	67	336	6
STR	68	0	3
SCL	68	0	3	96	48	0
TAP	68	0	7
TAP	68	32	2
TAP	68	64	2
TAP	68	96	3
STR	68	96	4
SCR	68	96	4	96	48	7
TAP	68	128	5
TAP	68	160	5
STR	68	192	3
SCL	68	192	3	96	48	0
TAP	68	192	4
TAP	68	224	2
TAP	68	256	2
TAP	68	288	3
TAP	68	288	4
TAP	68	320	5
TAP	68	352	5
STR	69	0	0
SI_	69	0	0	96	768	4
TAP	69	16	1
TAP	69	32	2
TAP	69	48	5
TAP	69	64	6
TAP	69	80	7
TAP	69	96	0
TAP	69	112	1
TAP	69	128	2
TAP	69	144	5
TAP	69	160	6
TAP	69	176	7
TAP	69	192	0
TAP	69	208	1
TAP	69	224	2
TAP	69	240	5
TAP	69	256	6
TAP	69	272	7
TAP	69	288	0
TAP	69	304	1
TAP	69	320	2
TAP	69	336	5
TAP	69	352	6
TAP	69	368	7
TAP	70	0	0
TAP	70	16	1
TAP	70	32	2
TAP	70	48	5
TAP	70	64	6
TAP	70	80	7
TAP	70	96	0
TAP	70	112	1
TAP	70	128	2
TAP	70	144	5
TAP	70	160	6
TAP	70	176	7
BRK	70	192	0
XTP	71	192	0
XTP	71	192	7
TAP	71	204	1
TAP	71	204	6
TAP	71	216	2
TAP	71	216	5
HLD	71	228	3	36
HLD	71	228	4	36
XTP	71	300	0
XTP	71	300	1
TAP	71	312	2
TAP	71	312	7
TAP	71	324	3
TAP	71	324	6
HLD	71	336	4	60
HLD	71	336	5	60
XTP	72	48	6
XTP	72	48	7
TAP	72	60	0
TAP	72	60	5
TAP	72	72	1
TAP	72	72	4
HLD	72	84	2	24
HLD	72	84	3	24
XTP	72	144	0
XTP	72	144	7
TAP	72	156	1
TAP	72	156	6
TAP	72	168	2
TAP	72	168	5
HLD	72	180	3	264
HLD	72	180	4	264
XTP	73	96	6
XTP	73	96	7
TAP	73	108	0
TAP	73	108	5
TAP	73	120	1
TAP	73	120	4
HLD	73	132	2	24
HLD	73	132	3	24
XTP	73	192	0
XTP	73	192	1
TAP	73	204	2
TAP	73	204	7
TAP	73	216	3
TAP	73	216	6
HLD	73	228	4	60
HLD	73	228	5	60
TTP	74	0	0	C	1	M1
TTP	74	0	2	B	0	M1
TTP	74	0	3	B	0	M1
TTP	74	0	3	E	0	M1
TTP	74	0	4	B	0	M1
TTP	74	0	5	B	0	M1
TTP	74	0	5	E	0	M1
TAP	74	192	7
TAP	74	208	6
HLD	74	224	5	96
TAP	74	256	0
TAP	74	272	1
HLD	74	288	2	96
TAP	74	336	4
HLD	74	352	3	96
TAP	75	16	1
HLD	75	32	0	96
TAP	75	80	4
HLD	75	96	5	96
TAP	75	144	1
HLD	75	160	2	96
TAP	75	208	6
HLD	75	224	7	96
TAP	75	272	3
HLD	75	288	4	96
TAP	75	336	6
HLD	75	352	5	96
TAP	76	16	3
HLD	76	32	2	96
TAP	76	80	4
STR	76	96	3
SV_	76	96	3	96	576	4
TAP	76	144	3
TAP	76	160	4
TAP	76	192	7
TAP	76	256	1
TAP	76	288	1
TAP	76	320	0
TAP	77	0	5
TAP	77	32	5
TAP	77	64	7
TAP	77	128	2
TAP	77	192	0
TAP	77	256	6
TAP	77	288	6
TAP	77	320	7
TAP	78	0	0
TAP	78	32	0
TAP	78	64	0
TAP	78	96	0
TAP	78	128	0
TAP	78	160	0
HLD	78	192	0	64
TAP	78	192	2
TAP	78	208	3
HLD	78	224	4	96
TAP	78	272	1
HLD	78	288	2	96
TAP	78	336	5
HLD	78	352	6	96
TAP	79	16	3
HLD	79	32	4	96
TAP	79	80	7
HLD	79	96	0	160
TAP	79	144	5
HLD	79	160	6	32
TAP	79	208	5
HLD	79	224	4	96
TAP	79	272	7
HLD	79	288	6	96
TAP	79	336	3
HLD	79	352	2	96
TAP	80	16	5
TAP	80	32	4
TAP	80	80	3
STR	80	96	4
SF_	80	96	4	96	48	0
TAP	80	128	2
TAP	80	128	6
BRK	80	192	4

T_REC_TAP	544
T_REC_BRK	16
T_REC_XTP	13
T_REC_HLD	57
T_REC_XHO	0
T_REC_STR	122
T_REC_BST	0
T_REC_XST	1
T_REC_TTP	71
T_REC_THO	3
T_REC_SLD	127
T_REC_ALL	954
T_NUM_TAP	751
T_NUM_BRK	16
T_NUM_HLD	60
T_NUM_SLD	127
T_NUM_ALL	954
T_JUDGE_TAP	767
T_JUDGE_HLD	163
T_JUDGE_SLD	127
T_JUDGE_ALL	1057
TTM_EACHPAIRS	126
TTM_SCR_TAP	375500
TTM_SCR_BRK	41600
TTM_SCR_HLD	60000
TTM_SCR_SLD	190500
TTM_SCR_ALL	667600
TTM_SCR_S	646050
TTM_SCR_SS	666000
TTM_RAT_ACV	10024

