VERSION	0.00.00	1.03.00
FES_MODE	0
BPM_DEF	144.000	144.000	144.000	108.000
MET_DEF	4	4
RESOLUTION	384
CLK_DEF	384
COMPATIBLE_CODE	MA2

BPM	0	0	144.000
BPM	33	0	108.000
BPM	52	192	144.000
MET	0	0	4	4
MET	33	0	4	3
MET	39	0	4	4
MET	44	0	4	2
MET	44	192	8	7
MET	45	144	8	9
MET	46	192	8	6
MET	52	192	4	4

HLD	1	192	3	480
HLD	1	192	4	192
HLD	2	288	4	2400
TTP	3	0	0	C	1	M1
TTP	3	312	4	E	0	M1
TTP	4	312	5	E	0	M1
TTP	5	312	6	E	0	M1
THO	7	0	0	240	C	0	M1
TTP	7	336	0	E	0	M1
TTP	8	72	0	C	0	M1
TTP	8	168	4	E	0	M1
THO	8	312	0	456	C	0	M1
HLD	9	288	7	288
STR	10	288	7
SSR	10	288	7	96	384	3
STR	11	0	0
SSL	11	0	0	96	288	4
TAP	12	240	4
TAP	12	288	4
HLD	13	0	3	672
HLD	13	0	5	288
TAP	13	336	5
HLD	14	0	6	672
TAP	14	336	3
HLD	15	0	4	240
STR	15	288	4
SF_	15	288	4	96	192	0
HLD	17	0	1	256
TAP	17	0	7
HLD	17	192	3	256
HLD	18	0	4	256
HLD	18	192	5	192
XHO	19	0	2	192
TAP	19	64	4
HLD	19	192	5	192
TAP	19	256	3
HLD	20	0	2	192
TAP	20	64	3
HLD	20	192	4	192
TAP	20	256	3
HLD	21	0	2	64
HLD	21	64	1	64
HLD	21	128	0	64
HLD	21	192	7	64
HLD	21	256	6	64
HLD	21	320	5	64
HLD	22	0	4	64
HLD	22	64	5	64
HLD	22	128	6	64
HLD	22	192	7	64
HLD	22	256	0	64
HLD	22	320	1	448
HLD	23	0	2	768
TTP	24	192	4	B	0	M1
TTP	24	192	5	B	0	M1
TTP	24	192	5	E	0	M1
HLD	25	0	3	384
TTP	25	192	0	C	1	M1
HLD	26	0	1	384
TAP	26	64	2
TTP	26	192	0	C	1	M1
HLD	27	0	0	480
TAP	27	64	2
TTP	27	192	0	C	1	M1
HLD	28	0	1	768
TTP	28	192	0	C	1	M1
HLD	29	0	7	192
TAP	29	256	7
TAP	29	320	7
HLD	30	0	6	384
HLD	30	64	7	64
TTP	30	192	0	C	1	M1
HLD	31	0	5	384
TAP	31	64	6
TTP	31	192	0	C	1	M1
HLD	32	0	6	320
STR	33	0	0
SI_	33	0	0	96	48	4
STR	33	48	1
SCL	33	48	1	96	144	6
STR	33	288	4
SI_	33	288	4	96	48	0
STR	33	336	5
SCL	33	336	5	96	144	2
STR	34	192	1
SI_	34	192	1	96	48	5
STR	34	240	0
SCR	34	240	0	96	144	3
STR	35	96	6
SI_	35	96	6	96	48	2
STR	35	144	7
SCL	35	144	7	96	144	4
STR	36	0	2
SI_	36	0	2	96	48	6
STR	36	48	3
SCL	36	48	3	96	144	0
STR	36	288	5
SI_	36	288	5	96	48	1
STR	36	336	4
SCR	36	336	4	96	144	7
STR	37	192	1
SCR	37	192	1	96	144	4
BRK	37	336	0
TAP	38	96	7
TAP	38	144	7
TAP	38	192	0
TAP	38	192	6
TAP	38	240	1
TAP	38	240	5
TAP	38	288	2
TAP	38	288	4
BRK	38	336	2
BRK	38	336	4
STR	39	0	1
SI_	39	0	1	96	48	3
SI_	39	0	1	96	48	5
TAP	39	24	1
TAP	39	48	1
STR	39	192	4
SI_	39	192	4	96	48	0
SI_	39	192	4	96	48	1
TAP	39	216	4
TAP	39	240	4
STR	40	0	7
SI_	40	0	7	96	48	3
SI_	40	0	7	96	48	5
TAP	40	24	7
TAP	40	48	7
STR	40	192	2
SI_	40	192	2	96	48	0
STR	40	192	4
SI_	40	192	4	96	48	0
TAP	40	216	2
TAP	40	216	4
TAP	40	240	2
TAP	40	240	4
STR	41	0	7
SI_	41	0	7	96	48	3
SI_	41	0	7	96	48	4
TAP	41	24	7
TAP	41	48	7
STR	41	192	2
SI_	41	192	2	96	48	6
SI_	41	192	2	96	48	7
TAP	41	216	2
TAP	41	240	2
STR	42	0	0
SI_	42	0	0	96	48	4
STR	42	0	5
SI_	42	0	5	96	48	0
TAP	42	24	0
TAP	42	24	5
TAP	42	48	0
TAP	42	48	5
STR	42	192	3
SI_	42	192	3	96	48	0
STR	42	192	7
SI_	42	192	7	96	48	3
TAP	42	216	3
TAP	42	216	7
TAP	42	240	3
TAP	42	240	7
BRK	43	0	1
HLD	43	0	4	336
TAP	43	96	2
TAP	43	128	2
TAP	43	160	2
TAP	43	192	3
TAP	43	224	3
TAP	43	256	3
HLD	43	288	2	48
STR	44	0	1
SI_	44	0	1	96	48	4
STR	44	0	5
SI_	44	0	5	96	48	0
TAP	44	24	1
TAP	44	24	5
TAP	44	48	1
TAP	44	48	5
HLD	44	192	3	336
HLD	44	192	7	192
STR	45	48	7
SSR	45	48	7	96	336	3
TAP	46	192	2
TAP	46	240	1
TAP	46	288	0
TAP	46	288	6
TAP	46	336	7
TAP	47	0	0
TAP	47	0	1
TAP	47	48	2
TAP	47	96	0
TAP	47	96	7
TAP	47	144	6
TAP	47	192	5
TAP	47	192	7
TAP	47	240	6
TAP	47	288	1
TAP	47	288	7
TAP	47	336	0
TAP	48	0	6
TAP	48	0	7
TAP	48	48	5
TAP	48	96	0
TAP	48	96	7
TAP	48	144	1
TAP	48	192	0
TAP	48	192	1
TAP	48	240	2
TAP	48	288	0
TAP	48	288	2
TAP	48	336	3
TAP	49	0	6
TAP	49	0	7
TAP	49	48	5
TAP	49	96	5
TAP	49	96	7
TAP	49	144	4
HLD	49	192	2	576
HLD	49	192	6	528
TTP	51	0	2	B	0	M1
THO	51	48	0	144	C	0	M1
TTP	51	48	6	B	0	M1
XTP	51	240	7
XHO	51	288	7	288
XHO	52	48	1	144
BRK	53	96	3
BRK	53	96	4
STR	53	192	5
SV_	53	192	5	96	48	7
TAP	53	240	5
STR	53	288	0
SI_	53	288	0	96	48	4
TAP	53	336	0
STR	54	0	6
SI_	54	0	6	96	48	2
TAP	54	48	6
STR	54	96	1
SI_	54	96	1	96	48	5
TAP	54	144	1
STR	54	192	4
SV_	54	192	4	96	48	2
TAP	54	240	4
STR	54	288	1
SI_	54	288	1	96	48	5
TAP	54	336	1
STR	55	0	6
SI_	55	0	6	96	48	2
TAP	55	48	6
STR	55	96	0
SI_	55	96	0	96	48	4
TAP	55	144	0
STR	55	192	3
SI_	55	192	3	96	48	7
TAP	55	240	3
STR	55	288	2
SV_	55	288	2	96	48	4
TAP	55	336	2
STR	56	0	5
SV_	56	0	5	96	48	7
TAP	56	48	5
STR	56	96	0
SI_	56	96	0	96	48	4
TAP	56	144	0
STR	56	192	5
SI_	56	192	5	96	48	1
TAP	56	240	5
STR	56	288	2
SI_	56	288	2	96	48	6
TAP	56	336	2
TAP	57	0	4
TAP	57	48	4
BRK	57	96	7
TAP	57	192	4
TAP	57	192	5
TAP	57	240	4
TAP	57	240	5
TAP	57	288	3
TAP	57	288	4
TAP	57	336	3
TAP	57	336	4
TAP	58	0	2
TAP	58	0	3
TAP	58	48	2
TAP	58	48	3
TAP	58	96	1
TAP	58	96	4
TAP	58	144	1
TAP	58	144	4
TAP	58	192	2
TAP	58	192	3
TAP	58	240	4
TAP	58	240	5
TAP	58	288	6
TAP	58	288	7
TAP	58	336	0
TAP	58	336	1
TAP	59	0	2
TAP	59	0	3
TAP	59	48	2
TAP	59	48	3
BRK	59	96	1
BRK	59	96	4
STR	59	192	2
SV_	59	192	2	96	48	4
TAP	59	240	2
STR	59	288	6
SI_	59	288	6	96	48	2
TAP	59	336	6
STR	60	0	0
SI_	60	0	0	96	48	4
TAP	60	48	0
TAP	60	96	7
TAP	60	144	6
STR	60	192	5
SV_	60	192	5	96	48	3
TAP	60	240	5
STR	60	288	1
SI_	60	288	1	96	48	5
TAP	60	336	1
STR	61	0	7
SI_	61	0	7	96	48	3
TAP	61	48	7
TAP	61	96	0
TAP	61	144	1
STR	61	192	2
SV_	61	192	2	96	48	0
TAP	61	240	2
STR	61	288	6
SI_	61	288	6	96	48	2
TAP	61	336	6
STR	62	0	3
SI_	62	0	3	96	48	7
TAP	62	48	3
STR	62	96	5
SV_	62	96	5	96	48	3
TAP	62	144	5
STR	62	192	1
SI_	62	192	1	96	48	5
TAP	62	240	1
STR	62	288	7
SV_	62	288	7	96	48	1
TAP	62	336	7
STR	63	0	3
SI_	63	0	3	96	48	7
TAP	63	48	3
TAP	63	96	5
TAP	63	192	6
TAP	63	240	6
TAP	63	288	6
TAP	63	288	7
TAP	63	336	4
TAP	63	336	5
TAP	64	0	2
TAP	64	0	3
TAP	64	48	0
TAP	64	48	1
TAP	64	96	2
TAP	64	96	7
TAP	64	144	3
TAP	64	144	6
TAP	64	192	5
TAP	64	216	4
TAP	64	240	5
TAP	64	264	4
TAP	64	288	5
TAP	64	312	4
TAP	64	336	5
BRK	65	0	2
BRK	65	0	6
HLD	65	192	2	96
TAP	65	240	3
HLD	65	288	4	96
TAP	65	336	3
HLD	66	0	2	96
TAP	66	48	3
TTP	66	96	2	B	0	M1
TTP	66	96	3	B	0	M1
HLD	66	192	6	96
TAP	66	240	4
HLD	66	288	3	96
TAP	66	336	5
HLD	67	0	6	96
TAP	67	48	4
TTP	67	96	5	B	0	M1
TTP	67	96	6	B	0	M1
HLD	67	192	2	96
TAP	67	240	3
HLD	67	288	4	96
TAP	67	336	3
HLD	68	0	1	144
TAP	68	48	2
HLD	68	96	3	48
HLD	68	192	0	32
HLD	68	192	4	32
HLD	68	256	0	32
HLD	68	256	4	32
HLD	68	320	1	32
HLD	68	320	5	32
HLD	69	0	1	32
HLD	69	0	5	32
HLD	69	64	2	32
HLD	69	64	6	32
HLD	69	128	2	32
HLD	69	128	6	32
HLD	69	192	3	32
HLD	69	192	7	32
HLD	69	256	3	32
HLD	69	256	7	32
HLD	69	320	0	32
HLD	69	320	4	32
HLD	70	0	0	32
HLD	70	0	4	32
HLD	70	64	5	32
HLD	70	64	7	32
HLD	70	128	5	32
HLD	70	128	7	32
HLD	70	192	4	32
HLD	70	192	6	32
HLD	70	256	4	32
HLD	70	256	6	32
HLD	70	320	3	32
HLD	70	320	5	32
HLD	71	0	2	32
HLD	71	0	4	32
HLD	71	64	1	32
HLD	71	64	5	32
TAP	71	128	1
TAP	71	128	5
TTP	71	192	2	B	0	M1
TTP	71	192	2	E	0	M1
TTP	71	192	3	B	0	M1
TTP	71	192	3	E	0	M1
TTP	71	312	4	B	0	M1
TTP	71	312	5	B	0	M1
TTP	71	312	5	E	0	M1
TTP	71	312	6	E	0	M1
TTP	72	48	1	B	0	M1
TTP	72	48	2	B	0	M1
TTP	72	48	2	E	0	M1
TTP	72	48	3	E	0	M1
THO	72	144	0	96	C	0	M1
TTP	72	144	5	B	0	M1
TTP	72	144	5	E	0	M1
TTP	72	144	6	B	0	M1
TTP	72	144	6	E	0	M1
HLD	73	96	0	48
HLD	73	96	7	48
HLD	73	168	1	48
HLD	73	168	6	48
THO	73	240	0	144	C	1	M1
TTP	73	240	2	B	0	M1
TTP	73	240	5	B	0	M1
HLD	74	192	1	96
HLD	74	256	7	96
HLD	74	320	5	96
HLD	75	0	6	96
HLD	75	64	0	96
HLD	75	128	2	96
HLD	75	192	1	96
HLD	75	256	3	96
HLD	75	320	4	96
HLD	76	0	6	96
HLD	76	64	4	96
TAP	76	128	3
TTP	76	192	3	B	0	M1
TTP	76	192	3	E	0	M1
TTP	76	256	1	B	0	M1
TTP	76	256	2	E	0	M1
TTP	76	320	0	E	0	M1
TTP	76	320	7	B	0	M1
TTP	77	0	5	B	0	M1
TTP	77	0	6	E	0	M1
TTP	77	64	3	B	0	M1
TTP	77	64	4	E	0	M1
TTP	77	128	0	C	0	M1
TTP	77	192	0	B	0	M1
TTP	77	192	0	E	0	M1
TTP	77	192	1	E	0	M1
TTP	77	256	2	B	0	M1
TTP	77	256	2	E	0	M1
TTP	77	256	3	E	0	M1
TTP	77	320	4	B	0	M1
TTP	77	320	4	E	0	M1
TTP	77	320	5	E	0	M1
TTP	78	0	6	B	0	M1
TTP	78	0	6	E	0	M1
TTP	78	0	7	E	0	M1
TTP	78	64	1	B	0	M1
TTP	78	64	1	E	0	M1
TTP	78	64	2	E	0	M1
TTP	78	128	0	C	0	M1
HLD	78	192	0	32
HLD	78	192	7	32
HLD	78	256	0	32
HLD	78	256	7	32
HLD	78	320	1	32
HLD	78	320	3	32
HLD	79	0	3	32
HLD	79	0	4	32
HLD	79	64	4	32
HLD	79	64	6	32
HLD	79	128	6	32
HLD	79	128	7	32
HLD	79	192	5	32
HLD	79	192	6	32
HLD	79	256	3	32
HLD	79	256	5	32
HLD	79	320	2	32
HLD	79	320	3	32
HLD	80	0	0	32
HLD	80	0	2	32
HLD	80	64	0	32
HLD	80	64	7	32
TAP	80	128	1
TAP	80	128	6
TTP	80	192	0	B	0	M1
TTP	80	192	0	C	1	M1
TTP	80	192	1	B	0	M1
TTP	80	192	2	B	0	M1
TTP	80	192	3	B	0	M1
TTP	80	192	4	B	0	M1
TTP	80	192	5	B	0	M1
TTP	80	192	6	B	0	M1
TTP	80	192	7	B	0	M1

T_REC_TAP	186
T_REC_BRK	11
T_REC_XTP	1
T_REC_HLD	124
T_REC_XHO	3
T_REC_STR	57
T_REC_BST	0
T_REC_XST	0
T_REC_TTP	76
T_REC_THO	5
T_REC_SLD	62
T_REC_ALL	525
T_NUM_TAP	320
T_NUM_BRK	11
T_NUM_HLD	132
T_NUM_SLD	62
T_NUM_ALL	525
T_JUDGE_TAP	331
T_JUDGE_HLD	496
T_JUDGE_SLD	62
T_JUDGE_ALL	889
TTM_EACHPAIRS	88
TTM_SCR_TAP	160000
TTM_SCR_BRK	28600
TTM_SCR_HLD	132000
TTM_SCR_SLD	93000
TTM_SCR_ALL	413600
TTM_SCR_S	400150
TTM_SCR_SS	412500
TTM_RAT_ACV	10026

