VERSION	0.00.00	1.03.00
FES_MODE	0
BPM_DEF	144.000	144.000	144.000	108.000
MET_DEF	4	4
RESOLUTION	384
CLK_DEF	384
COMPATIBLE_CODE	MA2

BPM	0	0	144.000
BPM	33	0	108.000
BPM	52	192	144.000
MET	0	0	4	4
MET	33	0	4	3
MET	39	0	4	4
MET	44	0	4	2
MET	44	192	8	7
MET	45	144	8	9
MET	46	192	8	6
MET	52	192	4	4

STR	3	0	3
SXR	3	0	3	96	480	0
STR	5	0	7
SXR	5	0	7	96	480	4
STR	7	0	3
SXL	7	0	3	96	480	0
STR	9	0	7
SXL	9	0	7	96	480	4
THO	11	0	0	384	C	0	L1
TTP	13	0	4	E	0	L1
TTP	13	192	3	E	0	L1
TTP	14	0	2	E	0	L1
TTP	14	192	1	E	0	L1
TTP	15	0	0	E	0	L1
TTP	15	192	7	E	0	L1
TTP	16	0	6	E	0	L1
TTP	16	192	5	E	0	L1
TTP	17	0	4	E	0	L1
TTP	17	192	3	B	0	L1
TTP	17	192	4	B	0	L1
TTP	18	0	2	B	0	L1
TTP	18	0	5	B	0	L1
TTP	18	192	1	B	0	L1
TTP	18	192	6	B	0	L1
XST	19	0	0
SXL	19	0	0	96	384	3
XST	19	0	7
SXR	19	0	7	96	384	4
TAP	21	0	2
TAP	21	0	5
XTP	21	128	3
XTP	21	128	4
XTP	21	192	3
XTP	21	192	4
TAP	21	320	2
TAP	21	320	5
TAP	22	0	2
TAP	22	0	5
TAP	22	128	1
TAP	22	128	6
TAP	22	192	1
TAP	22	192	6
TAP	22	320	0
TAP	22	320	7
BRK	23	0	0
BST	23	0	7
SCL	23	0	7	96	480	0
HLD	25	0	1	192
HLD	25	192	0	192
HLD	26	0	7	192
TAP	26	192	6
HLD	27	0	5	192
HLD	27	192	4	192
HLD	28	0	3	192
TAP	28	192	2
HLD	29	0	2	192
HLD	29	192	3	192
HLD	30	0	4	192
TAP	30	192	5
HLD	31	0	6	192
HLD	31	192	7	192
HLD	32	0	0	192
TAP	32	192	1
STR	33	0	7
SCL	33	0	7	96	96	4
STR	33	288	3
SCL	33	288	3	96	96	0
STR	34	192	7
SCL	34	192	7	96	96	4
TAP	35	96	2
TAP	35	192	2
TAP	35	192	3
TAP	35	288	2
TAP	35	288	3
STR	36	0	1
SUR	36	0	1	96	96	5
STR	36	288	6
SUL	36	288	6	96	96	2
STR	37	192	1
SCR	37	192	1	96	96	4
TAP	38	96	3
TAP	38	96	4
TAP	38	144	3
TAP	38	144	4
XTP	38	192	2
XTP	38	192	5
XTP	38	240	2
XTP	38	240	5
XTP	38	288	1
XTP	38	288	6
XTP	38	336	1
XTP	38	336	6
HLD	39	0	7	96
TAP	39	96	0
HLD	39	192	1	96
TAP	39	288	0
HLD	40	0	2	96
TAP	40	96	3
HLD	40	192	4	96
TAP	40	288	3
HLD	41	0	5	96
TAP	41	96	4
HLD	41	192	2	96
TAP	41	288	3
HLD	42	0	1	96
TAP	42	96	0
HLD	42	192	7	96
TAP	42	288	0
HLD	43	0	6	96
TAP	43	96	7
HLD	43	192	1	96
TAP	43	288	0
TAP	44	0	2
STR	44	96	3
SCL	44	96	3	96	144	0
STR	44	96	4
SCR	44	96	4	96	144	7
TAP	45	144	7
TAP	45	192	6
TAP	45	240	5
TAP	45	288	4
TAP	45	336	3
TAP	46	0	2
TAP	46	48	1
TAP	46	96	0
TAP	46	144	7
STR	46	192	6
SI_	46	192	6	96	96	2
STR	47	96	1
SV_	47	96	1	96	96	4
STR	48	0	5
SV_	48	0	5	96	96	0
STR	48	288	1
SCR	48	288	1	96	96	4
TTP	49	192	5	B	0	L1
TTP	49	192	5	E	0	L1
TTP	49	336	3	B	0	L1
TTP	49	336	4	B	0	L1
TTP	50	96	2	B	0	L1
TTP	50	96	3	E	0	L1
TTP	50	240	1	B	0	L1
TTP	50	240	6	B	0	L1
THO	51	0	0	576	C	0	L1
XTP	53	96	0
XTP	53	96	7
BRK	53	192	6
TAP	53	240	6
TAP	53	288	6
TAP	53	288	7
TAP	54	0	1
TAP	54	48	1
TAP	54	96	0
TAP	54	96	1
TAP	54	192	2
TAP	54	240	2
TAP	54	288	3
TAP	54	336	3
TAP	55	0	4
TAP	55	48	4
TAP	55	96	3
TAP	55	96	5
TAP	55	192	2
TAP	55	240	2
TAP	55	288	2
TAP	55	288	3
TAP	56	0	5
TAP	56	48	5
TAP	56	96	4
TAP	56	96	5
TAP	56	192	6
TAP	56	240	6
TAP	56	288	7
TAP	56	336	7
TAP	57	0	0
TAP	57	48	0
TAP	57	96	7
TAP	57	192	1
TAP	57	240	1
TAP	57	288	0
TAP	57	288	1
TAP	58	0	6
TAP	58	48	6
TAP	58	96	6
TAP	58	96	7
TAP	58	192	5
TAP	58	240	5
TAP	58	288	4
TAP	58	336	4
TAP	59	0	3
TAP	59	48	3
TAP	59	96	3
TAP	59	96	4
BRK	59	192	2
TAP	59	240	2
TAP	59	288	2
TAP	59	288	3
TAP	60	0	5
TAP	60	48	5
TAP	60	96	4
TAP	60	96	5
TAP	60	192	6
TAP	60	240	6
TAP	60	288	7
TAP	60	336	7
TAP	61	0	0
TAP	61	48	0
TAP	61	96	1
TAP	61	96	7
TAP	61	192	6
TAP	61	240	6
TAP	61	288	6
TAP	61	288	7
TAP	62	0	1
TAP	62	48	1
TAP	62	96	0
TAP	62	96	1
TAP	62	192	2
TAP	62	240	2
TAP	62	288	3
TAP	62	336	3
TAP	63	0	4
TAP	63	48	4
TAP	63	96	3
TAP	63	192	5
TAP	63	240	5
TAP	63	288	4
TAP	63	288	5
TAP	64	0	2
TAP	64	48	2
TAP	64	96	2
TAP	64	96	3
TAP	64	192	1
TAP	64	240	1
TAP	64	288	0
TAP	64	336	0
TAP	65	0	0
TAP	65	0	7
TAP	65	96	1
TAP	65	96	6
HLD	65	192	6	48
HLD	65	192	7	48
TAP	65	288	6
TAP	65	288	7
HLD	66	0	0	48
HLD	66	0	1	48
TAP	66	96	0
TAP	66	96	1
HLD	66	192	6	48
HLD	66	192	7	48
TAP	66	288	6
TAP	66	288	7
HLD	67	0	4	48
HLD	67	0	5	48
TAP	67	96	3
TAP	67	96	6
HLD	67	192	2	48
HLD	67	192	3	48
TAP	67	288	1
TAP	67	288	4
HLD	68	0	0	48
HLD	68	0	7	48
TAP	68	96	1
TAP	68	96	6
STR	68	192	0
SXL	68	192	0	96	384	3
STR	68	192	7
SXR	68	192	7	96	384	4
HLD	70	192	2	192
HLD	70	192	5	192
XTP	71	192	4
XTP	71	192	5
XTP	71	312	3
XTP	71	312	6
XTP	72	48	2
XTP	72	48	3
XTP	72	144	1
XTP	72	144	4
XTP	73	96	2
XTP	73	96	5
XTP	73	192	3
XTP	73	192	4
TTP	74	0	0	C	1	L1
TTP	74	0	2	B	0	L1
TTP	74	0	5	B	0	L1
TAP	74	192	0
TAP	74	256	1
TAP	74	320	2
TAP	75	0	3
TAP	75	64	4
TAP	75	128	5
TAP	75	192	6
TAP	75	256	7
TAP	75	320	0
TAP	76	0	1
TAP	76	64	2
TAP	76	128	3
XTP	76	192	4
XTP	76	256	3
XTP	76	320	2
XTP	77	0	1
XTP	77	64	0
XTP	77	128	7
XTP	77	192	6
XTP	77	256	5
XTP	77	320	4
XTP	78	0	3
XTP	78	64	2
XTP	78	128	1
TAP	78	192	0
TAP	78	256	1
TAP	78	320	2
TAP	79	0	3
TAP	79	64	4
TAP	79	128	5
TAP	79	192	6
TAP	79	256	7
TAP	79	320	0
TAP	80	0	1
TAP	80	64	2
TAP	80	128	3
TAP	80	128	4
TTP	80	192	0	C	1	L1
TTP	80	192	2	B	0	L1
TTP	80	192	5	B	0	L1

T_REC_TAP	174
T_REC_BRK	3
T_REC_XTP	38
T_REC_HLD	36
T_REC_XHO	0
T_REC_STR	18
T_REC_BST	1
T_REC_XST	2
T_REC_TTP	29
T_REC_THO	2
T_REC_SLD	21
T_REC_ALL	324
T_NUM_TAP	261
T_NUM_BRK	4
T_NUM_HLD	38
T_NUM_SLD	21
T_NUM_ALL	324
T_JUDGE_TAP	265
T_JUDGE_HLD	140
T_JUDGE_SLD	21
T_JUDGE_ALL	426
TTM_EACHPAIRS	58
TTM_SCR_TAP	130500
TTM_SCR_BRK	10400
TTM_SCR_HLD	38000
TTM_SCR_SLD	31500
TTM_SCR_ALL	210400
TTM_SCR_S	203700
TTM_SCR_SS	210000
TTM_RAT_ACV	10019

