VERSION	0.00.00	1.03.00
FES_MODE	0
BPM_DEF	144.000	144.000	144.000	108.000
MET_DEF	4	4
RESOLUTION	384
CLK_DEF	384
COMPATIBLE_CODE	MA2

BPM	0	0	144.000
BPM	33	0	108.000
BPM	52	192	144.000
MET	0	0	4	4
MET	33	0	4	3
MET	39	0	4	4
MET	44	0	4	2
MET	44	192	8	7
MET	45	144	8	9
MET	46	192	8	6
MET	52	192	4	4

THO	1	192	0	576	C	1	L1
TTP	5	0	0	B	0	L1
TTP	6	0	7	B	0	L1
TTP	7	0	1	B	0	L1
TTP	8	0	6	B	0	L1
TTP	9	0	2	B	0	L1
TTP	10	0	5	B	0	L1
THO	11	0	0	384	C	1	L1
TTP	11	0	3	B	0	L1
TTP	11	0	4	B	0	L1
STR	13	0	0
SI_	13	0	0	96	288	3
STR	15	0	4
SI_	15	0	4	96	288	7
TAP	17	0	0
TAP	17	192	1
TAP	18	0	2
TAP	18	192	3
TAP	19	0	4
TAP	19	192	5
TAP	20	0	6
TAP	20	192	0
TAP	20	192	7
XTP	21	0	0
XTP	21	64	0
XTP	21	128	0
XTP	21	192	0
XTP	22	0	7
XTP	22	64	7
XTP	22	128	7
XTP	22	192	7
XHO	23	0	0	384
XHO	23	0	7	384
TAP	25	0	6
TAP	25	96	6
XTP	25	192	6
XTP	25	192	7
TAP	26	0	5
TAP	26	96	5
XTP	26	192	4
XTP	26	192	5
TAP	27	0	2
TAP	27	96	2
XTP	27	192	2
XTP	27	192	3
TAP	28	0	1
TAP	28	96	1
XTP	28	192	0
XTP	28	192	1
TAP	29	0	2
TAP	29	96	2
XTP	29	192	2
XTP	29	192	3
TAP	30	0	5
TAP	30	96	5
XTP	30	192	4
XTP	30	192	5
TAP	31	0	6
TAP	31	96	6
XTP	31	192	6
XTP	31	192	7
TAP	32	0	0
TAP	32	0	7
TAP	32	96	0
TAP	32	96	7
TAP	32	192	0
TAP	32	192	7
XHO	33	0	6	144
XHO	33	0	7	144
TAP	33	288	6
TAP	33	288	7
XHO	34	192	4	144
XHO	34	192	5	144
TAP	35	96	4
TAP	35	96	5
XHO	36	0	2	144
XHO	36	0	3	144
TAP	36	288	2
TAP	36	288	3
XHO	37	192	0	144
XHO	37	192	1	144
TAP	38	96	0
TAP	38	96	1
BRK	39	0	0
TAP	39	96	0
TAP	39	192	1
TAP	39	288	1
TAP	40	0	2
TAP	40	96	2
TAP	40	192	3
TAP	40	192	4
TAP	40	288	3
TAP	40	288	4
TAP	41	0	4
TAP	41	96	4
TAP	41	192	5
TAP	41	288	5
TAP	42	0	6
TAP	42	96	6
TAP	42	192	7
TAP	42	288	0
TAP	42	288	7
STR	43	0	0
SI_	43	0	0	96	192	3
STR	43	0	7
SI_	43	0	7	96	192	4
TTP	44	192	0	C	1	L1
TAP	45	144	0
TAP	45	192	0
TAP	45	240	0
TAP	45	288	0
TAP	46	48	7
TAP	46	96	7
TAP	46	144	7
TAP	46	192	7
TAP	46	336	6
TAP	46	336	7
TAP	47	96	5
TAP	47	240	4
TAP	47	240	5
TAP	48	0	3
TAP	48	144	2
TAP	48	144	3
TAP	48	288	1
TAP	49	48	0
TAP	49	48	1
HLD	49	192	0	288
HLD	49	192	1	288
HLD	51	0	6	240
HLD	51	0	7	240
XTP	52	192	0
XTP	52	192	7
TAP	53	192	0
TAP	53	240	0
TAP	53	288	0
TAP	54	0	1
TAP	54	96	1
TAP	54	192	2
TAP	54	240	2
TAP	54	288	2
TAP	55	0	2
TAP	55	0	3
TAP	55	96	2
TAP	55	96	3
TAP	55	192	4
TAP	55	240	4
TAP	55	288	4
TAP	56	0	5
TAP	56	96	5
TAP	56	192	6
TAP	56	240	6
TAP	56	288	6
TAP	57	0	6
TAP	57	0	7
TAP	57	192	0
TAP	57	240	0
TAP	57	288	0
TAP	58	0	7
TAP	58	48	7
TAP	58	96	7
TAP	58	192	0
TAP	58	192	7
TAP	58	240	0
TAP	58	240	7
TAP	58	288	0
TAP	58	288	7
BRK	59	0	1
BRK	59	0	6
TAP	59	192	7
TAP	59	240	7
TAP	59	288	7
TAP	60	0	6
TAP	60	96	5
TAP	60	192	4
TAP	60	240	4
TAP	60	288	4
TAP	61	0	3
TAP	61	96	2
TAP	61	192	1
TAP	61	240	1
TAP	61	288	1
TAP	62	0	0
TAP	62	96	7
TAP	62	192	6
TAP	62	240	6
TAP	62	288	6
TAP	63	0	6
TAP	63	0	7
TAP	63	96	6
TAP	63	96	7
TAP	63	192	0
TAP	63	240	0
TAP	63	288	0
TAP	64	0	0
TAP	64	0	1
TAP	64	96	0
TAP	64	96	1
TAP	64	192	7
TAP	64	240	7
TAP	64	288	7
BRK	65	0	0
BRK	65	0	6
STR	65	192	7
SI_	65	192	7	96	288	2
STR	67	192	1
SI_	67	192	1	96	288	4
STR	69	192	5
SI_	69	192	5	96	288	1
STR	71	192	0
SI_	71	192	0	96	672	3
STR	71	192	7
SI_	71	192	7	96	672	4
TAP	74	192	2
TAP	74	256	2
TAP	74	320	2
TAP	75	0	2
TAP	75	0	3
TAP	75	192	1
TAP	75	256	1
TAP	75	320	1
TAP	76	0	0
TAP	76	0	1
TAP	76	192	6
TAP	76	256	6
TAP	76	320	6
TAP	77	0	6
TAP	77	0	7
TAP	77	192	5
TAP	77	256	5
TAP	77	320	5
TAP	78	0	4
TAP	78	0	5
TAP	78	192	3
TAP	78	256	3
TAP	78	320	3
TAP	79	0	4
TAP	79	64	4
TAP	79	128	4
TAP	79	192	3
TAP	79	192	4
TAP	79	256	3
TAP	79	256	4
TAP	79	320	3
TAP	79	320	4
TAP	80	0	2
TAP	80	0	5
TAP	80	64	2
TAP	80	64	5
TAP	80	128	2
TAP	80	128	5
BRK	80	192	1
BRK	80	192	6

T_REC_TAP	178
T_REC_BRK	7
T_REC_XTP	24
T_REC_HLD	4
T_REC_XHO	10
T_REC_STR	9
T_REC_BST	0
T_REC_XST	0
T_REC_TTP	9
T_REC_THO	2
T_REC_SLD	9
T_REC_ALL	252
T_NUM_TAP	220
T_NUM_BRK	7
T_NUM_HLD	16
T_NUM_SLD	9
T_NUM_ALL	252
T_JUDGE_TAP	227
T_JUDGE_HLD	128
T_JUDGE_SLD	9
T_JUDGE_ALL	364
TTM_EACHPAIRS	55
TTM_SCR_TAP	110000
TTM_SCR_BRK	18200
TTM_SCR_HLD	16000
TTM_SCR_SLD	13500
TTM_SCR_ALL	157700
TTM_SCR_S	152300
TTM_SCR_SS	157000
TTM_RAT_ACV	10044

