VERSION	0.00.00	1.03.00
FES_MODE	0
BPM_DEF	210.000	210.000	210.000	210.000
MET_DEF	4	4
RESOLUTION	384
CLK_DEF	384
COMPATIBLE_CODE	MA2

BPM	0	0	210.000
MET	0	0	4	4

BRK	2	0	3
TAP	2	16	4
TAP	2	32	3
STR	2	48	4
SI_	2	48	4	96	384	0
TAP	3	288	7
TAP	3	312	0
TAP	3	336	7
XTP	4	0	1
XTP	4	0	6
TAP	4	96	2
TAP	4	96	4
TAP	4	144	3
TAP	4	192	6
TAP	4	240	5
TAP	4	288	2
TAP	4	288	4
TAP	4	336	1
TAP	5	0	0
STR	5	0	6
SI_	5	0	6	96	48	2
STR	5	96	3
SI_	5	96	3	96	48	0
BRK	5	288	1
BRK	5	288	5
HLD	6	0	2	48
HLD	6	0	4	48
HLD	6	96	2	48
HLD	6	96	4	48
TAP	6	192	5
TAP	6	216	4
TAP	6	240	5
TAP	6	288	6
TAP	6	336	6
TAP	7	0	2
TAP	7	24	3
TAP	7	48	2
TAP	7	96	1
TAP	7	144	1
TAP	7	192	0
TAP	7	192	6
TAP	7	240	0
TAP	7	240	6
HLD	7	288	1	24
HLD	7	288	5	24
XTP	8	0	2
XTP	8	0	4
TAP	8	96	3
TAP	8	96	5
TAP	8	144	4
TAP	8	192	1
TAP	8	240	2
TAP	8	288	3
TAP	8	288	5
TAP	8	336	6
TAP	9	0	2
STR	9	0	7
SI_	9	0	7	96	48	2
STR	9	96	3
SI_	9	96	3	96	48	0
TAP	9	288	1
TAP	9	288	5
TAP	10	0	4
TAP	10	48	4
TAP	10	96	3
TAP	10	144	3
TAP	10	192	4
TAP	10	216	3
TAP	10	240	4
TAP	10	264	3
STR	10	288	4
SSL	10	288	4	96	192	0
TAP	10	312	3
TAP	10	336	4
TAP	10	360	3
TAP	11	0	4
STR	11	192	1
SI_	11	192	1	96	48	5
BRK	11	288	7
HLD	12	0	3	48
HLD	12	0	6	48
HLD	12	72	3	48
HLD	12	72	6	48
TAP	12	144	3
TAP	12	144	6
TAP	12	192	5
TAP	12	216	4
TAP	12	240	5
TAP	12	288	3
TAP	12	288	4
TAP	12	336	2
TAP	13	0	0
TAP	13	0	1
TAP	13	48	7
TAP	13	96	3
TAP	13	96	6
TAP	13	144	5
TAP	13	168	4
TAP	13	192	5
TAP	13	240	3
TAP	13	240	6
TAP	13	288	2
TAP	13	336	1
HLD	14	0	0	48
HLD	14	0	5	48
HLD	14	72	1	48
HLD	14	72	4	48
TAP	14	144	1
TAP	14	144	4
TAP	14	192	2
TAP	14	216	3
TAP	14	240	2
TAP	14	288	3
TAP	14	288	4
TAP	14	336	4
TAP	14	336	5
TAP	15	0	3
TAP	15	0	6
TAP	15	48	1
TAP	15	72	0
TAP	15	120	2
TAP	15	144	3
TAP	15	192	6
TAP	15	216	7
TAP	15	264	5
TAP	15	288	4
TAP	15	336	3
TAP	15	336	5
HLD	16	0	2	48
HLD	16	0	6	48
HLD	16	72	2	48
HLD	16	72	6	48
TAP	16	144	3
TAP	16	144	5
TAP	16	192	2
TAP	16	216	3
TAP	16	240	2
TAP	16	288	1
TAP	16	288	4
TAP	16	336	1
TAP	16	336	4
TAP	17	0	2
TAP	17	0	3
TAP	17	48	4
TAP	17	96	3
TAP	17	96	5
TAP	17	144	6
TAP	17	168	7
TAP	17	192	6
TAP	17	240	0
TAP	17	288	1
TAP	17	288	7
TAP	17	336	2
TAP	17	336	6
HLD	18	0	3	48
HLD	18	0	5	48
HLD	18	72	3	48
HLD	18	72	5	48
HLD	18	144	2	48
HLD	18	144	4	48
HLD	18	216	2	48
HLD	18	216	4	48
TAP	18	288	1
TAP	18	288	5
TAP	18	336	0
TAP	19	0	1
STR	19	0	7
SI_	19	0	7	96	48	3
STR	19	48	6
SI_	19	48	6	96	48	2
TAP	19	96	7
TAP	19	144	6
TAP	19	240	1
TAP	19	288	1
TAP	19	288	7
HLD	20	0	0	192
HLD	20	192	5	192
HLD	21	0	0	192
HLD	21	192	4	192
HLD	22	0	0	192
HLD	22	192	3	192
HLD	23	0	0	192
HLD	23	192	2	192
HLD	24	0	0	192
HLD	24	192	1	192
HLD	25	0	2	192
HLD	25	192	3	192
HLD	26	0	4	192
HLD	26	192	5	480
HLD	27	0	3	288
TTP	28	0	0	E	0	M1
TTP	28	96	0	C	0	M1
TTP	28	192	5	B	0	M1
TTP	28	240	4	B	0	M1
TTP	28	288	3	B	0	M1
TTP	28	336	2	B	0	M1
TTP	29	48	6	B	0	M1
TTP	29	48	7	E	0	M1
TTP	29	144	1	B	0	M1
TTP	29	144	1	E	0	M1
TTP	29	240	5	B	0	M1
TTP	29	288	2	B	0	M1
TTP	30	0	4	E	0	M1
TTP	30	96	0	C	0	M1
TTP	30	192	2	B	0	M1
TTP	30	240	3	B	0	M1
TTP	30	288	4	B	0	M1
TTP	30	336	5	B	0	M1
TTP	31	48	1	B	0	M1
TTP	31	48	1	E	0	M1
TTP	31	144	6	B	0	M1
TTP	31	144	7	E	0	M1
TTP	31	240	5	E	0	M1
TTP	31	288	4	E	0	M1
TTP	31	336	3	E	0	M1
TTP	32	96	0	C	0	M1
TTP	32	192	6	B	0	M1
TTP	32	240	4	B	0	M1
TTP	32	288	3	B	0	M1
TTP	32	336	0	B	0	M1
TTP	32	336	1	B	0	M1
TTP	33	48	6	B	0	M1
TTP	33	48	7	B	0	M1
TTP	33	144	0	C	0	M1
TTP	33	240	3	E	0	M1
TTP	33	288	4	E	0	M1
TTP	33	336	5	E	0	M1
TAP	34	96	2
TAP	34	96	6
TAP	34	192	3
TAP	34	240	3
TAP	34	288	5
TAP	34	336	5
STR	35	0	4
SI_	35	0	4	96	48	0
BRK	35	192	7
STR	36	0	3
SCL	36	0	3	96	192	7
TAP	36	0	4
TAP	36	96	4
TAP	36	192	4
TAP	36	288	4
TAP	37	0	4
TAP	37	0	7
TAP	37	96	4
TAP	37	96	6
TAP	37	192	4
TAP	37	192	5
TAP	37	288	3
TAP	37	336	3
TAP	38	0	3
STR	38	0	4
SCR	38	0	4	96	192	0
TAP	38	96	3
TAP	38	192	3
TAP	38	288	3
TAP	39	0	0
TAP	39	0	3
TAP	39	96	1
TAP	39	96	3
TAP	39	192	2
TAP	39	192	3
TAP	39	288	4
TAP	39	336	4
TAP	40	0	3
TAP	40	0	4
TAP	40	96	4
TAP	40	96	5
TAP	40	192	2
TAP	40	192	4
TAP	40	288	4
TAP	40	288	6
TAP	41	0	0
TAP	41	0	5
TAP	41	48	1
TAP	41	96	2
TAP	41	96	6
TAP	41	144	5
TAP	41	192	1
TAP	41	192	4
TAP	41	240	2
TAP	41	288	3
TAP	41	288	7
TAP	41	336	6
XTP	42	0	2
HLD	42	0	5	384
TAP	42	48	2
TAP	42	96	2
TAP	42	144	2
XTP	42	192	1
TAP	42	240	1
TAP	42	288	1
TAP	42	336	1
XHO	43	0	0	192
TAP	43	96	1
TTP	43	192	2	E	0	M1
TTP	43	204	2	B	0	M1
TTP	43	216	3	B	0	M1
TTP	43	228	4	B	0	M1
TTP	43	240	5	B	0	M1
TTP	43	252	6	E	0	M1
HLD	44	0	0	96
BRK	44	0	6
TAP	44	96	6
TAP	44	120	5
TAP	44	144	4
TAP	44	168	3
TAP	44	192	7
TAP	44	216	6
TAP	44	240	5
TAP	44	264	4
TAP	44	288	0
TAP	44	312	7
TAP	44	336	6
TAP	44	360	5
TAP	45	0	1
TAP	45	24	0
TAP	45	48	7
TAP	45	72	6
TAP	45	96	2
TAP	45	120	1
TAP	45	144	0
TAP	45	168	7
TAP	45	192	3
TAP	45	216	2
TAP	45	240	1
TAP	45	264	0
TTP	45	288	0	C	0	M1
TAP	46	0	0
TAP	46	24	6
TAP	46	48	0
TAP	46	72	6
TAP	46	96	1
TAP	46	120	5
TAP	46	144	1
TAP	46	168	5
TAP	46	192	2
TAP	46	216	4
TAP	46	240	2
TAP	46	264	4
TAP	46	288	3
TAP	46	312	5
TAP	46	336	3
TAP	46	360	5
TAP	47	0	4
TAP	47	24	6
TAP	47	48	4
TAP	47	72	6
STR	47	96	3
SI_	47	96	3	96	48	0
TAP	47	120	7
TAP	47	144	3
TAP	47	168	7
STR	47	192	3
SI_	47	192	3	96	48	6
STR	47	288	3
SCL	47	288	3	96	288	5
TTP	48	0	0	C	1	M1
BRK	48	288	0
TAP	49	0	7
TAP	49	24	6
TAP	49	48	5
TAP	49	72	4
TAP	49	96	0
TAP	49	120	7
TAP	49	144	6
TAP	49	168	5
TAP	49	192	1
TAP	49	216	0
TAP	49	240	7
TAP	49	264	6
TTP	49	288	0	C	0	M1
TAP	50	0	1
TAP	50	24	7
TAP	50	48	1
TAP	50	72	7
TAP	50	96	2
TAP	50	120	6
TAP	50	144	2
TAP	50	168	6
TAP	50	192	3
TAP	50	216	5
TAP	50	240	3
TAP	50	264	5
STR	50	288	2
SUR	50	288	2	96	192	5
TAP	50	312	4
TAP	50	336	2
TAP	50	360	4
TAP	51	0	2
TAP	51	288	3
TAP	51	288	6
BST	52	0	4
SI_	52	0	4	96	48	0
HLD	52	0	5	24
HLD	52	48	5	24
HLD	52	96	5	24
HLD	52	144	5	24
STR	52	192	3
SI_	52	192	3	96	48	1
HLD	52	192	5	24
HLD	52	240	5	24
HLD	52	288	5	24
HLD	52	336	5	24
STR	53	0	4
SI_	53	0	4	96	48	0
HLD	53	0	5	24
HLD	53	48	5	24
HLD	53	96	5	24
HLD	53	144	5	24
XTP	53	192	0
XTP	53	192	5
XTP	53	288	3
XTP	53	288	4
HLD	54	0	2	24
STR	54	0	3
SI_	54	0	3	96	48	7
HLD	54	48	2	24
HLD	54	96	2	24
HLD	54	144	2	24
HLD	54	192	2	24
STR	54	192	4
SI_	54	192	4	96	48	0
HLD	54	240	2	24
HLD	54	288	2	24
HLD	54	336	2	24
HLD	55	0	2	24
STR	55	0	3
SI_	55	0	3	96	48	7
HLD	55	48	2	24
HLD	55	96	2	24
HLD	55	144	2	24
XTP	55	192	2
XTP	55	192	7
TAP	55	288	4
TAP	55	288	5
STR	56	0	3
SI_	56	0	3	96	48	7
HLD	56	0	6	24
HLD	56	48	6	24
HLD	56	96	6	24
HLD	56	144	6	24
STR	56	192	4
SI_	56	192	4	96	48	1
HLD	56	192	6	24
HLD	56	240	6	24
HLD	56	288	6	24
HLD	56	336	6	24
STR	57	0	3
SI_	57	0	3	96	48	7
HLD	57	0	5	24
HLD	57	48	5	24
HLD	57	96	5	24
HLD	57	144	5	24
TAP	57	192	4
TAP	57	192	6
BRK	57	288	2
BRK	57	288	7
HLD	58	0	1	24
STR	58	0	4
SI_	58	0	4	96	48	0
HLD	58	48	1	24
HLD	58	96	1	24
HLD	58	144	1	24
HLD	58	192	1	24
STR	58	192	2
SI_	58	192	2	96	48	7
HLD	58	240	1	24
HLD	58	288	1	24
HLD	58	336	1	24
HLD	59	0	2	24
STR	59	0	5
SI_	59	0	5	96	48	0
HLD	59	48	2	24
HLD	59	96	2	24
HLD	59	144	2	24
XTP	59	192	2
XTP	59	192	7
TAP	59	288	3
TAP	59	288	4
BST	60	0	2
SI_	60	0	2	96	48	6
TAP	60	48	2
STR	60	96	7
SI_	60	96	7	96	48	3
TAP	60	144	7
STR	60	192	0
SI_	60	192	0	96	48	4
TAP	60	240	0
TAP	60	288	7
TAP	60	336	6
STR	61	0	5
SI_	61	0	5	96	48	2
TAP	61	48	5
STR	61	96	1
SCL	61	96	1	96	48	6
TAP	61	144	1
XTP	61	192	3
TAP	61	288	2
TAP	61	288	4
STR	62	0	1
SI_	62	0	1	96	48	4
TAP	62	48	1
STR	62	96	7
SI_	62	96	7	96	48	3
TAP	62	144	7
STR	62	192	2
SI_	62	192	2	96	48	7
TAP	62	240	2
TAP	62	288	6
TAP	62	336	5
STR	63	0	4
SI_	63	0	4	96	48	0
TAP	63	48	4
STR	63	96	2
SCR	63	96	2	96	48	5
TAP	63	144	2
XTP	63	192	7
TAP	63	288	0
TAP	63	288	6
TAP	64	0	1
TAP	64	0	7
TAP	64	48	1
TAP	64	48	7
TAP	64	96	2
TAP	64	144	2
TAP	64	192	3
TAP	64	192	5
TAP	64	240	3
TAP	64	240	5
TAP	64	288	4
TAP	64	336	4
TAP	65	0	3
TAP	65	48	2
TAP	65	96	1
TAP	65	144	0
TAP	65	192	7
TAP	65	240	6
TAP	65	288	5
TAP	65	336	4
TAP	66	0	3
TAP	66	24	4
TAP	66	48	5
TAP	66	72	6
TAP	66	96	7
TAP	66	120	0
TAP	66	144	1
TAP	66	168	2
TAP	66	192	3
TAP	66	216	4
TAP	66	240	5
TAP	66	264	6
STR	66	288	7
SCL	66	288	7	96	192	0
TAP	67	0	0
XTP	67	0	7
BRK	67	240	7
BRK	67	288	0
STR	68	0	1
SI_	68	0	1	96	24	4
TAP	68	24	0
TAP	68	48	1
TAP	68	72	0
BRK	68	96	1
STR	68	144	6
SI_	68	144	6	96	24	3
TAP	68	168	7
TAP	68	192	6
TAP	68	216	7
BRK	68	240	6
STR	68	288	1
SCR	68	288	1	96	24	4
TAP	68	312	0
TAP	68	336	1
TAP	68	360	0
BRK	69	0	1
STR	69	48	6
SI_	69	48	6	96	24	2
TAP	69	72	7
TAP	69	96	6
TAP	69	120	7
BRK	69	144	6
BRK	69	192	1
BRK	69	216	7
BRK	69	240	1
BRK	69	264	7
BRK	69	288	1
STR	70	0	5
SI_	70	0	5	96	24	0
TAP	70	24	4
TAP	70	48	5
TAP	70	72	4
BRK	70	96	5
STR	70	144	2
SI_	70	144	2	96	24	7
TAP	70	168	3
TAP	70	192	2
TAP	70	216	3
BRK	70	240	2
TAP	70	288	6
TAP	70	312	0
TAP	70	336	6
TAP	70	360	0
BST	71	0	6
SV_	71	0	6	96	24	3
TAP	71	12	5
TAP	71	24	4
TAP	71	36	3
STR	71	48	2
SV_	71	48	2	96	24	7
TAP	71	60	1
TAP	71	72	0
TAP	71	84	7
XTP	71	96	6
XTP	71	144	2
TAP	71	192	4
TAP	71	240	0
BRK	71	288	2
BRK	71	288	6
BRK	72	0	3
BST	72	0	7
SI_	72	0	7	96	48	3
TAP	72	48	7
TAP	72	96	1
TAP	72	144	1
XTP	72	192	3
TAP	72	216	2
TAP	72	240	1
TAP	72	264	0
TAP	72	288	6
TAP	72	312	5
TAP	72	336	4
TAP	72	360	3
STR	73	0	0
SI_	73	0	0	96	48	4
TAP	73	48	0
TAP	73	96	6
TAP	73	144	6
XTP	73	192	4
TAP	73	216	5
TAP	73	240	6
TAP	73	264	7
TAP	73	288	1
TAP	73	312	2
TAP	73	336	3
TAP	73	360	4
STR	74	0	6
SCL	74	0	6	96	48	3
TAP	74	48	6
TAP	74	96	2
TAP	74	144	2
HLD	74	192	0	72
STR	74	192	1
SI_	74	192	1	96	48	4
TAP	74	264	1
TAP	74	288	0
TAP	74	336	5
TAP	75	0	6
TAP	75	0	7
TAP	75	96	0
TAP	75	96	7
TAP	75	144	0
TAP	75	144	7
BRK	75	192	0
BRK	75	192	7
TAP	75	204	1
TAP	75	204	6
TAP	75	216	2
TAP	75	216	5
TAP	75	228	3
TAP	75	228	4
XTP	75	288	0
XTP	75	288	7
XTP	76	0	1
XTP	76	0	6
TAP	76	168	2
TTP	76	168	5	B	0	M1
TTP	76	360	2	B	0	M1
TAP	76	360	4
STR	77	96	1
SI_	77	96	1	96	48	4
STR	77	144	4
SI_	77	144	4	96	48	1
BST	77	192	1
SLL	77	192	1	96	96	4
XTP	78	0	5
STR	78	96	6
SI_	78	96	6	96	48	4
STR	78	96	7
SI_	78	96	7	96	48	3
STR	78	192	6
SI_	78	192	6	96	48	2
TAP	78	192	7
STR	78	288	1
SI_	78	288	1	96	48	5
TAP	78	288	6
TAP	79	0	1
STR	79	0	4
SI_	79	0	4	96	48	7
STR	79	96	2
SI_	79	96	2	96	48	0
STR	79	96	4
SI_	79	96	4	96	48	0
TAP	79	144	3
TAP	79	192	2
TAP	79	192	4
HLD	79	288	2	0
HLD	79	288	7	0
BRK	80	0	0
TAP	80	24	0
TAP	80	48	0
TAP	80	72	0
TAP	80	96	0
TAP	80	120	0
TAP	80	144	0
TAP	80	168	0
BRK	80	192	0
TAP	80	216	0
TAP	80	240	0
TAP	80	264	0
TAP	80	288	0
TAP	80	312	0
TAP	80	336	0
TAP	80	360	0
BRK	81	0	0
TAP	81	24	0
TAP	81	48	0
TAP	81	72	0
TAP	81	96	0
TAP	81	120	0
TAP	81	144	0
TAP	81	168	0
BRK	81	192	0
TAP	81	216	0
TAP	81	240	0
TAP	81	264	0
TAP	81	288	0
TAP	81	312	0
TAP	81	336	0
TAP	81	360	0
BRK	82	0	0
TAP	82	24	0
TAP	82	48	0
TAP	82	72	0
BRK	82	96	0
TAP	82	120	0
TAP	82	144	0
TAP	82	168	0
BRK	82	192	0
TAP	82	216	0
TAP	82	240	0
TAP	82	264	0
BRK	82	288	0
TAP	82	312	0
TAP	82	336	0
TAP	82	360	0
BRK	83	0	0
TAP	83	0	7
BRK	83	48	1
TAP	83	48	6
BRK	83	96	2
TAP	83	96	5
BRK	83	144	3
TAP	83	144	4
STR	83	192	3
SI_	83	192	3	96	48	0
BST	83	192	4
SI_	83	192	4	96	48	7
TTP	84	0	0	B	0	M1
TTP	84	0	0	C	1	M1
TTP	84	0	1	B	0	M1
TTP	84	0	2	B	0	M1
TTP	84	0	3	B	0	M1
TTP	84	0	4	B	0	M1
TTP	84	0	4	E	0	M1
TTP	84	0	5	B	0	M1
TTP	84	0	6	B	0	M1
TTP	84	0	7	B	0	M1
THO	88	0	0	384	C	0	M1
TTP	88	0	5	B	0	M1
TTP	88	0	6	B	0	M1
STR	89	0	7
SSR	89	0	7	96	192	3
STR	89	192	1
SI_	89	192	1	96	48	5
BRK	89	288	1
XTP	90	0	6
XTP	90	0	7
TAP	90	48	5
TAP	90	96	3
TAP	90	96	4
TAP	90	144	2
TAP	90	192	1
TAP	90	216	0
TAP	90	240	2
TAP	90	288	3
STR	90	288	7
SI_	90	288	7	96	48	3
STR	90	336	6
SI_	90	336	6	96	48	2
STR	91	0	7
SLR	91	0	7	96	96	5
TAP	91	48	6
TAP	91	96	7
TAP	91	144	4
TAP	91	240	6
TAP	91	288	0
STR	91	288	6
SCL	91	288	6	96	48	3
TAP	92	0	3
TAP	92	48	2
TAP	92	96	0
TAP	92	96	1
TAP	92	144	2
TAP	92	144	7
TAP	92	192	6
TAP	92	216	4
TAP	92	240	5
TAP	92	288	2
TAP	92	288	4
TAP	92	336	1
TAP	92	336	3
TAP	93	0	0
TAP	93	0	4
TAP	93	48	6
TAP	93	72	7
TAP	93	96	5
TAP	93	144	0
TAP	93	144	4
STR	93	192	1
SI_	93	192	1	96	48	4
STR	93	240	0
SI_	93	240	0	96	48	5
TAP	93	288	1
TAP	93	336	0
STR	94	0	3
SCL	94	0	3	96	48	0
SCR	94	0	3	96	48	6
BRK	94	96	3
XTP	94	192	7
TAP	94	240	7
TAP	94	288	6
TAP	94	336	0
STR	94	336	5
SI_	94	336	5	96	48	2
STR	95	48	1
SI_	95	48	1	96	48	5
STR	95	48	5
SI_	95	48	5	96	48	0
STR	95	144	1
SCR	95	144	1	96	48	3
TAP	95	144	5
XTP	95	240	7
XTP	95	256	6
XTP	95	272	5
BRK	95	288	4
TAP	96	0	5
TAP	96	48	4
TAP	96	48	6
TAP	96	96	2
TAP	96	144	1
TAP	96	144	3
TAP	96	192	0
TAP	96	216	6
TAP	96	240	1
TAP	96	264	5
TAP	96	288	2
STR	96	336	3
SI_	96	336	3	96	48	1
STR	96	336	4
SI_	96	336	4	96	48	6
TAP	97	48	3
TAP	97	48	4
TAP	97	144	0
TAP	97	144	7
STR	97	192	1
SF_	97	192	1	96	48	5
TAP	97	192	6
BRK	97	288	1
TAP	98	0	3
TAP	98	0	7
TAP	98	48	6
TAP	98	96	1
TAP	98	96	5
TAP	98	144	2
TAP	98	192	5
TAP	98	216	4
TAP	98	240	6
STR	98	288	0
SI_	98	288	0	96	48	4
TAP	98	288	7
STR	98	336	1
SI_	98	336	1	96	48	5
STR	99	0	0
SLL	99	0	0	96	96	2
TAP	99	48	1
TAP	99	96	0
TAP	99	144	3
TAP	99	240	1
STR	99	288	1
SCR	99	288	1	96	48	4
TAP	99	288	7
TAP	100	0	4
TAP	100	48	5
TAP	100	96	6
TAP	100	96	7
TAP	100	144	0
TAP	100	144	5
TAP	100	192	2
TAP	100	216	3
TAP	100	240	1
TAP	100	288	0
TAP	100	288	6
TAP	100	336	1
TAP	100	336	5
TAP	101	0	2
TAP	101	0	4
TAP	101	48	5
TAP	101	72	4
TAP	101	96	6
TAP	101	144	3
TAP	101	144	7
TAP	101	192	0
TAP	101	192	2
TAP	101	240	1
TAP	101	264	3
TAP	101	288	2
TAP	101	312	4
TAP	101	336	3
TAP	101	360	5
STR	102	0	4
SF_	102	0	4	96	48	0
BRK	102	96	4
TTP	102	108	4	B	0	M1
TTP	102	120	0	C	1	M1
TTP	102	132	0	B	0	M1
TAP	102	192	2
TAP	102	192	6
TAP	102	240	2
TAP	102	240	6
TAP	102	288	1
STR	102	336	0
SI_	102	336	0	96	48	4
STR	102	336	7
SI_	102	336	7	96	48	5
BST	103	48	0
SI_	103	48	0	96	48	2
BST	103	48	7
SI_	103	48	7	96	48	3
BRK	103	144	0
BRK	103	144	7
TAP	103	240	5
TAP	103	264	4
TAP	103	288	5
TAP	103	336	3
TAP	103	336	6
STR	104	0	2
SI_	104	0	2	96	48	7
STR	104	0	7
SI_	104	0	7	96	48	3
BRK	104	96	2
BRK	104	96	7
XTP	104	192	1
XTP	104	192	4
TAP	104	240	1
TAP	104	240	4
TAP	104	288	2
TAP	104	288	5
TAP	104	336	2
TAP	104	336	5
BRK	105	0	3
TAP	105	12	4
TAP	105	24	5
TAP	105	36	6
TAP	105	48	7
TAP	105	60	0
TAP	105	72	1
TAP	105	84	2
BRK	105	96	3
TAP	105	108	4
TAP	105	120	5
TAP	105	132	6
TAP	105	144	7
TAP	105	156	0
TAP	105	168	1
TAP	105	180	2
BST	105	192	3
SI_	105	192	3	96	48	7
BST	105	288	6
SCL	105	288	6	96	864	0
HLD	109	0	0	96
STR	109	96	3
SUR	109	96	3	96	120	4
TAP	109	144	3
TTP	109	192	0	C	1	M1
HLD	110	0	6	48
TAP	110	48	7
HLD	110	72	5	48
TAP	110	120	0
HLD	110	144	4	48
TAP	110	192	1
HLD	110	216	3	48
TAP	110	264	2
TAP	110	288	3
TAP	110	336	1
TAP	110	336	4
TAP	111	0	6
TAP	111	24	7
TAP	111	48	6
TAP	111	96	0
TAP	111	96	5
TAP	111	144	2
TAP	111	168	3
TAP	111	216	6
TAP	111	240	4
TAP	111	288	2
TAP	111	288	5
TAP	111	336	1
TAP	111	336	6
BRK	112	0	0
BRK	112	0	7
BRK	112	96	3
BRK	112	96	4
BRK	112	192	6
BRK	112	192	7
BRK	112	240	6
BRK	112	240	7
BRK	112	264	0
BRK	112	264	5
BRK	112	288	1
BRK	112	288	4
BRK	112	336	0
BRK	112	336	1
BRK	112	360	2
BRK	112	360	7
BRK	113	0	3
BRK	113	0	6
BRK	113	48	3
BRK	113	48	6
BRK	113	96	1
BRK	113	96	4
BRK	113	144	1
BRK	113	144	4
BST	113	192	0
SV_	113	192	0	96	48	3
BST	113	192	7
SV_	113	192	7	96	48	4
TTP	113	288	0	C	1	M1
TAP	114	0	2
TAP	114	0	5
TAP	114	48	6
TAP	114	72	7
TAP	114	120	2
TAP	114	144	3
TAP	114	192	1
TAP	114	216	0
TAP	114	264	5
TAP	114	288	4
TAP	114	336	2
TAP	114	336	3
TAP	115	0	1
TAP	115	24	0
TAP	115	48	2
TAP	115	72	7
HLD	115	96	3	48
TAP	115	144	5
TAP	115	168	4
TAP	115	216	1
TAP	115	240	3
TAP	115	288	0
TAP	115	288	7
TAP	115	336	1
TAP	115	336	6
TAP	116	0	2
TAP	116	24	3
TAP	116	48	1
TAP	116	72	5
TAP	116	96	4
TAP	116	120	6
TAP	116	144	2
TAP	116	168	3
TAP	116	192	0
TAP	116	216	5
TAP	116	240	4
TAP	116	264	7
TAP	116	288	2
TAP	116	312	4
TAP	116	336	0
STR	117	0	1
SI_	117	0	1	96	48	4
STR	117	0	5
SI_	117	0	5	96	48	0
BRK	117	96	1
BRK	117	96	5
TTP	117	97	0	B	0	M1
TTP	117	97	0	C	1	M1
TTP	117	97	1	B	0	M1
TTP	117	97	2	B	0	M1
TTP	117	97	2	E	0	M1
TTP	117	97	3	B	0	M1
TTP	117	97	4	B	0	M1
TTP	117	97	5	B	0	M1
TTP	117	97	6	B	0	M1
TTP	117	97	6	E	0	M1
TTP	117	97	7	B	0	M1

T_REC_TAP	622
T_REC_BRK	76
T_REC_XTP	34
T_REC_HLD	100
T_REC_XHO	1
T_REC_STR	85
T_REC_BST	12
T_REC_XST	0
T_REC_TTP	76
T_REC_THO	1
T_REC_SLD	98
T_REC_ALL	1105
T_NUM_TAP	817
T_NUM_BRK	88
T_NUM_HLD	102
T_NUM_SLD	98
T_NUM_ALL	1105
T_JUDGE_TAP	905
T_JUDGE_HLD	175
T_JUDGE_SLD	98
T_JUDGE_ALL	1178
TTM_EACHPAIRS	181
TTM_SCR_TAP	408500
TTM_SCR_BRK	228800
TTM_SCR_HLD	102000
TTM_SCR_SLD	147000
TTM_SCR_ALL	886300
TTM_SCR_S	851200
TTM_SCR_SS	877500
TTM_RAT_ACV	10100

