VERSION	0.00.00	1.03.00
FES_MODE	0
BPM_DEF	210.000	210.000	210.000	210.000
MET_DEF	4	4
RESOLUTION	384
CLK_DEF	384
COMPATIBLE_CODE	MA2

BPM	0	0	210.000
MET	0	0	4	4

STR	2	0	5
SCL	2	0	5	96	576	2
TAP	4	0	3
TAP	4	96	4
TAP	4	192	2
TAP	4	288	5
TAP	5	0	0
TAP	5	96	1
TAP	5	96	7
TAP	5	192	2
TAP	5	192	6
TAP	6	0	4
TAP	6	0	5
TAP	6	96	6
TAP	6	96	7
TAP	6	192	4
TAP	6	192	5
TAP	6	288	1
TAP	6	288	6
TAP	7	0	2
TAP	7	0	3
TAP	7	96	0
TAP	7	96	1
TAP	7	192	2
TAP	7	192	3
TAP	7	288	1
TAP	7	288	6
TAP	8	0	3
TAP	8	96	4
TAP	8	192	2
TAP	8	288	5
TAP	9	0	0
TAP	9	96	1
TAP	9	96	7
TAP	9	192	2
TAP	9	192	6
TAP	10	0	4
TAP	10	0	5
TAP	10	96	6
TAP	10	96	7
TAP	10	192	0
TAP	10	192	1
TAP	10	288	2
STR	10	288	3
SI_	10	288	3	96	240	7
TAP	11	288	0
TAP	12	0	5
TAP	12	96	4
TAP	12	96	6
TAP	12	192	3
TAP	12	192	5
TAP	12	288	1
TAP	12	288	7
TAP	13	0	2
TAP	13	96	1
TAP	13	96	3
TAP	13	192	2
TAP	13	192	4
TAP	13	288	0
TAP	13	288	6
STR	14	0	1
SUR	14	0	1	96	96	5
STR	14	192	6
SUL	14	192	6	96	96	2
TAP	15	0	0
TAP	15	96	2
TAP	15	192	4
TAP	15	288	0
TAP	15	288	6
TAP	16	0	2
TAP	16	96	1
TAP	16	96	3
TAP	16	192	2
TAP	16	192	4
TAP	16	288	0
TAP	16	288	6
TAP	17	0	5
TAP	17	96	4
TAP	17	96	6
TAP	17	192	3
TAP	17	192	5
TAP	17	288	1
TAP	17	288	7
STR	18	0	6
SI_	18	0	6	96	48	4
TAP	18	96	3
STR	18	192	1
SI_	18	192	1	96	48	3
TAP	18	288	4
STR	19	0	6
SUL	19	0	6	96	288	3
BRK	20	0	0
HLD	21	0	7	192
HLD	22	0	2	192
HLD	23	0	5	192
STR	24	0	3
SCL	24	0	3	96	96	0
TAP	24	192	5
STR	25	0	7
SCL	25	0	7	96	96	4
TAP	25	192	1
STR	26	0	3
SI_	26	0	3	96	96	7
TAP	26	192	5
STR	27	0	7
SSR	27	0	7	96	192	3
TAP	28	0	2
TAP	28	96	3
TAP	28	192	1
HLD	28	192	4	144
TAP	28	336	3
TAP	29	48	4
TAP	29	144	3
TAP	29	144	5
TAP	29	240	6
TAP	29	288	6
TAP	30	0	5
TAP	30	96	4
HLD	30	192	3	144
TAP	30	192	6
TAP	30	336	4
TAP	31	48	3
TAP	31	144	2
TAP	31	144	4
TAP	31	240	1
TAP	31	288	1
TAP	31	336	0
TAP	32	96	2
TAP	32	96	7
TAP	32	192	0
TAP	32	192	5
TAP	32	288	1
TAP	32	336	1
TAP	33	48	2
TAP	33	48	3
TAP	33	144	4
TAP	33	144	5
TAP	33	240	6
TAP	33	288	6
TAP	33	336	7
TAP	34	96	0
TAP	34	96	5
TAP	34	192	2
TAP	34	192	7
TAP	34	288	1
TAP	34	288	6
HLD	34	336	1	240
HLD	34	336	6	240
TAP	36	0	0
STR	36	0	7
SLL	36	0	7	96	288	3
TAP	36	96	1
TAP	36	192	1
TAP	36	288	1
TAP	37	0	2
TAP	37	96	2
TAP	37	192	2
TAP	37	288	1
TAP	37	288	3
STR	38	0	0
SLR	38	0	0	96	288	4
TAP	38	0	4
TAP	38	96	6
TAP	38	192	6
TAP	38	288	6
TAP	39	0	5
TAP	39	96	5
TAP	39	192	5
TAP	39	288	4
TAP	39	288	6
TAP	40	0	3
TAP	40	0	7
TAP	40	96	3
TAP	40	96	6
TAP	40	192	3
TAP	40	192	5
TAP	40	288	3
TAP	40	288	4
TAP	41	0	2
TAP	41	0	4
TAP	41	96	1
TAP	41	96	4
TAP	41	192	0
TAP	41	192	4
TAP	41	288	0
TAP	41	288	7
BRK	42	0	2
TAP	42	48	3
TAP	42	96	3
TAP	42	144	3
BRK	42	192	1
TAP	42	240	5
TAP	42	288	5
TAP	42	336	5
BRK	43	0	0
TAP	43	48	7
STR	43	96	7
SF_	43	96	7	96	96	3
TAP	43	144	7
TAP	44	0	1
TAP	44	0	5
TAP	44	96	2
TAP	44	96	3
TAP	44	192	2
TAP	44	192	3
TAP	44	288	5
TAP	44	288	6
TAP	45	0	5
TAP	45	0	6
TAP	45	96	2
TAP	45	96	3
TAP	45	192	5
TAP	45	192	6
BRK	45	288	2
BST	45	288	3
SI_	45	288	3	96	48	7
TAP	46	0	0
TAP	46	96	2
TAP	46	192	4
TAP	46	192	5
TAP	46	288	4
TAP	46	288	5
TAP	47	0	1
TAP	47	0	2
TAP	47	96	4
TAP	47	96	5
TAP	47	192	1
TAP	47	192	2
STR	47	288	3
SXR	47	288	3	96	288	0
STR	47	288	4
SXL	47	288	4	96	288	7
TAP	49	0	1
TAP	49	0	6
TAP	49	96	4
TAP	49	96	5
TAP	49	192	2
TAP	49	192	3
TAP	49	288	0
TAP	49	288	7
TAP	50	0	2
TAP	50	0	5
TAP	50	96	0
TAP	50	96	1
TAP	50	192	6
TAP	50	192	7
TAP	50	288	3
STR	50	288	4
SUL	50	288	4	96	240	3
TAP	51	288	0
STR	52	0	2
SI_	52	0	2	96	48	4
HLD	52	0	6	672
STR	52	192	1
SI_	52	192	1	96	48	3
STR	53	0	0
SI_	53	0	0	96	48	2
STR	53	192	7
SI_	53	192	7	96	48	1
STR	54	0	2
SCR	54	0	2	96	48	4
HLD	54	0	5	672
STR	54	192	1
SCR	54	192	1	96	48	3
STR	55	0	0
SCR	55	0	0	96	48	2
STR	55	192	7
SCR	55	192	7	96	48	1
HLD	56	0	2	672
STR	56	0	5
SI_	56	0	5	96	48	3
STR	56	192	6
SI_	56	192	6	96	48	4
STR	57	0	7
SI_	57	0	7	96	48	5
STR	57	192	0
SI_	57	192	0	96	48	6
HLD	58	0	1	672
STR	58	0	5
SCL	58	0	5	96	48	3
STR	58	192	6
SCL	58	192	6	96	48	4
STR	59	0	7
SCL	59	0	7	96	48	5
STR	59	192	0
SCL	59	192	0	96	48	6
TAP	60	0	2
TAP	60	96	2
TAP	60	192	2
TAP	60	192	4
TAP	60	288	3
TAP	60	336	3
TAP	61	0	4
TAP	61	96	4
STR	61	192	1
SI_	61	192	1	96	48	3
TAP	61	192	3
TAP	62	0	5
TAP	62	96	5
TAP	62	192	3
TAP	62	192	5
TAP	62	288	4
TAP	62	336	4
TAP	63	0	3
TAP	63	96	3
TAP	63	192	4
STR	63	192	6
SI_	63	192	6	96	48	4
TAP	64	0	2
TAP	64	48	2
TAP	64	96	3
TAP	64	144	3
TAP	64	192	1
TAP	64	240	1
TAP	64	288	7
TAP	64	336	7
TAP	65	0	0
TAP	65	48	0
TAP	65	96	6
TAP	65	144	6
TAP	65	192	4
TAP	65	240	4
TAP	65	288	5
TAP	65	336	5
XTP	66	0	3
XTP	66	24	4
XTP	66	48	3
XTP	66	72	4
XTP	66	96	3
XTP	66	120	4
XTP	66	144	3
XTP	66	168	4
XTP	66	192	3
XTP	66	216	4
XTP	66	240	3
XTP	66	264	4
XTP	66	288	3
XTP	66	312	4
XTP	66	336	3
XTP	66	360	4
TTP	67	0	0	C	1	M1
TAP	67	192	7
BRK	67	240	0
BRK	67	288	0
TAP	68	0	2
TAP	68	48	3
TAP	68	96	1
TAP	68	144	5
TAP	68	192	4
TAP	68	240	6
TAP	68	288	1
TAP	68	336	0
TAP	69	0	1
TAP	69	48	6
TAP	69	96	7
TAP	69	144	6
TAP	69	192	2
TAP	69	240	3
BRK	69	288	1
BRK	69	288	4
TAP	70	0	5
TAP	70	48	4
TAP	70	96	6
TAP	70	144	0
TAP	70	192	0
TAP	70	240	7
TAP	70	288	2
TAP	70	336	3
STR	71	0	1
SCR	71	0	1	96	48	4
STR	71	48	5
SV_	71	48	5	96	48	0
TAP	71	240	1
BRK	71	288	2
BRK	71	288	7
TAP	72	0	4
STR	72	0	5
SI_	72	0	5	96	48	0
TAP	72	96	2
TAP	72	144	2
TAP	72	192	1
TAP	72	240	0
TAP	72	288	2
TAP	72	288	7
STR	73	0	2
SI_	73	0	2	96	48	7
TAP	73	0	3
TAP	73	96	5
TAP	73	144	5
TAP	73	192	6
TAP	73	240	7
TAP	73	288	0
TAP	73	288	5
STR	74	0	4
SI_	74	0	4	96	48	0
TAP	74	0	5
TAP	74	96	7
TAP	74	144	7
HLD	74	192	6	72
HLD	74	264	4	72
TAP	74	336	3
TAP	75	0	3
TAP	75	0	4
TAP	75	96	1
STR	75	96	6
SV_	75	96	6	96	48	4
STR	75	192	2
SV_	75	192	2	96	48	0
TTP	76	0	6	B	0	M1
TTP	76	0	7	E	0	M1
TTP	76	192	3	B	0	M1
TTP	76	192	3	E	0	M1
TTP	77	0	5	B	0	M1
TTP	77	0	5	E	0	M1
TAP	77	192	2
STR	77	192	3
SI_	77	192	3	96	48	7
TAP	77	288	0
TAP	77	336	0
TTP	78	96	0	C	1	M1
TTP	78	96	1	B	0	M1
TTP	78	96	2	B	0	M1
TTP	78	96	2	E	0	M1
TTP	78	192	0	B	0	M1
TTP	78	192	0	C	1	M1
TTP	78	192	0	E	0	M1
TTP	78	192	7	B	0	M1
TTP	78	288	0	C	1	M1
TTP	78	288	5	B	0	M1
TTP	78	288	6	B	0	M1
TTP	78	288	6	E	0	M1
TTP	79	0	0	C	1	M1
TTP	79	0	3	B	0	M1
TTP	79	0	4	B	0	M1
TTP	79	0	4	E	0	M1
BRK	79	96	0
BRK	79	96	7
BRK	79	144	0
BRK	79	144	7
BRK	79	192	0
BRK	79	192	7
BRK	79	288	2
BRK	79	288	5
TAP	80	0	0
XTP	80	0	7
XTP	80	48	7
TAP	80	96	0
XTP	80	96	7
XTP	80	144	7
TAP	80	192	1
XTP	80	192	7
XTP	80	240	7
TAP	80	288	1
XTP	80	288	7
XTP	80	336	7
TAP	81	0	2
XTP	81	0	7
XTP	81	48	7
TAP	81	96	2
XTP	81	96	7
XTP	81	144	7
TAP	81	192	3
XTP	81	192	7
XTP	81	240	7
TAP	81	288	3
XTP	81	288	7
XTP	81	336	7
HLD	82	0	3	288
XST	82	0	7
SCL	82	0	7	96	192	0
TAP	83	0	0
TAP	83	48	1
TAP	83	96	2
TAP	83	144	3
TAP	83	192	4
BRK	83	288	0
BRK	83	288	7
TTP	84	0	0	C	1	M1
TTP	84	0	1	B	0	M1
TTP	84	0	2	B	0	M1
TTP	84	0	2	E	0	M1
TTP	84	0	5	B	0	M1
TTP	84	0	6	B	0	M1
TTP	84	0	6	E	0	M1
HLD	89	0	0	192
HLD	89	0	7	192
BRK	89	288	1
BRK	89	288	6
TAP	90	0	5
TAP	90	0	7
TAP	90	48	5
TAP	90	48	7
TAP	90	144	4
TAP	90	192	4
TAP	90	240	2
TAP	90	288	3
STR	90	336	1
SI_	90	336	1	96	48	3
STR	91	48	7
SI_	91	48	7	96	48	5
STR	91	144	0
SI_	91	144	0	96	48	4
TAP	91	240	7
TAP	91	288	7
TAP	92	0	1
TAP	92	0	3
TAP	92	48	1
TAP	92	48	3
TAP	92	144	0
TAP	92	192	0
TAP	92	240	6
TAP	92	288	7
HLD	92	336	5	96
TAP	93	48	4
TAP	93	96	5
TAP	93	144	3
TAP	93	144	6
TAP	93	240	2
TAP	93	288	3
TAP	93	336	1
STR	93	336	4
SI_	93	336	4	96	72	7
HLD	94	96	0	96
TAP	94	192	7
TAP	94	240	0
TAP	94	288	1
TAP	94	288	6
TAP	94	336	1
TAP	94	336	6
TAP	95	48	5
TAP	95	48	7
TAP	95	144	0
TAP	95	144	2
TAP	95	240	3
TAP	95	240	4
STR	95	288	3
SI_	95	288	3	96	48	0
TAP	95	288	4
TAP	96	0	7
TAP	96	96	4
TAP	96	96	6
TAP	96	144	4
TAP	96	144	6
TAP	96	240	1
TAP	96	240	3
STR	96	336	0
SI_	96	336	0	96	48	4
STR	96	336	7
SI_	96	336	7	96	48	3
XTP	97	144	2
XTP	97	144	5
XTP	97	192	2
XTP	97	192	5
BRK	97	288	0
BRK	97	288	7
TAP	98	0	0
TAP	98	0	2
TAP	98	48	0
TAP	98	48	2
TAP	98	144	3
TAP	98	192	3
TAP	98	240	5
TAP	98	288	4
STR	98	336	6
SI_	98	336	6	96	48	4
STR	99	48	0
SI_	99	48	0	96	48	2
STR	99	144	7
SI_	99	144	7	96	48	3
TAP	99	240	0
TAP	99	288	0
TAP	100	0	4
TAP	100	0	6
TAP	100	48	4
TAP	100	48	6
TAP	100	144	7
TAP	100	192	7
TAP	100	240	1
TAP	100	288	0
HLD	100	336	2	96
TAP	101	48	3
TAP	101	96	2
TAP	101	144	1
TAP	101	144	4
TAP	101	240	5
TAP	101	288	4
STR	101	336	3
SI_	101	336	3	96	72	0
TAP	101	336	6
HLD	102	96	7	96
TAP	102	192	0
TAP	102	240	7
TAP	102	288	1
TAP	102	288	6
TAP	102	336	1
TAP	102	336	6
STR	103	48	3
SCL	103	48	3	96	72	0
STR	103	48	4
SCR	103	48	4	96	72	7
TAP	103	288	1
TAP	103	288	6
TAP	104	0	3
TAP	104	0	4
TAP	104	96	1
HLD	104	96	5	96
TAP	104	192	4
TAP	104	240	4
TAP	104	288	6
TAP	104	336	6
TAP	105	0	0
TAP	105	24	7
TAP	105	48	0
TAP	105	72	7
TAP	105	96	0
TAP	105	120	7
TAP	105	144	0
TAP	105	168	7
TAP	105	192	0
BRK	105	288	1
BRK	105	288	6
TTP	106	96	0	C	0	M1
TTP	106	192	2	E	0	M1
TTP	106	240	2	B	0	M1
TTP	106	288	3	B	0	M1
TTP	106	336	4	E	0	M1
TTP	107	48	5	B	0	M1
TTP	107	48	5	E	0	M1
TTP	107	144	2	B	0	M1
TTP	107	144	3	E	0	M1
TTP	107	240	0	E	0	M1
TTP	107	288	0	C	0	M1
TTP	107	336	4	E	0	M1
TTP	108	96	0	B	0	M1
TTP	108	96	7	B	0	M1
TTP	108	192	6	E	0	M1
TTP	108	240	5	B	0	M1
TTP	108	288	4	B	0	M1
TTP	108	336	4	E	0	M1
BRK	109	96	0
BRK	109	96	7
BST	109	144	2
SI_	109	144	2	96	48	5
BST	109	144	6
SI_	109	144	6	96	48	1
TAP	110	0	0
TAP	110	0	7
TAP	110	72	2
TAP	110	144	4
TAP	110	144	5
TAP	110	216	7
TAP	110	288	1
TAP	110	336	1
TAP	111	0	3
TAP	111	48	2
TAP	111	96	5
TAP	111	144	5
TAP	111	192	4
TAP	111	240	6
TAP	111	288	0
TAP	111	336	0
XTP	112	0	1
XTP	112	0	2
XTP	112	96	5
XTP	112	96	6
XTP	112	192	0
XTP	112	192	7
XTP	112	240	3
XTP	112	264	4
XTP	112	288	3
XTP	112	336	2
XTP	112	336	5
BRK	113	0	1
BRK	113	0	6
BRK	113	48	1
BRK	113	48	6
BRK	113	96	1
BRK	113	96	6
BRK	113	144	1
BRK	113	144	6
BST	113	192	1
SI_	113	192	1	96	48	3
BST	113	192	6
SI_	113	192	6	96	48	4
XTP	113	288	1
XTP	113	288	6
TAP	114	0	0
TAP	114	0	7
TAP	114	72	5
TAP	114	144	2
TAP	114	144	3
TAP	114	216	0
TAP	114	288	6
TAP	114	336	6
TAP	115	0	4
TAP	115	48	5
TAP	115	96	2
TAP	115	144	2
TAP	115	192	3
TAP	115	240	1
TAP	115	288	4
TAP	115	336	4
XHO	116	0	2	48
XHO	116	0	3	48
XHO	116	72	0	48
XHO	116	72	1	48
XHO	116	144	6	48
XHO	116	144	7	48
XHO	116	216	4	48
XHO	116	216	5	48
XTP	116	288	3
XTP	116	288	7
XST	116	336	3
SXR	116	336	3	96	72	3
XST	116	336	7
SI_	116	336	7	96	72	4
TTP	117	96	0	C	1	M1

T_REC_TAP	423
T_REC_BRK	37
T_REC_XTP	51
T_REC_HLD	21
T_REC_XHO	8
T_REC_STR	56
T_REC_BST	5
T_REC_XST	3
T_REC_TTP	49
T_REC_THO	0
T_REC_SLD	64
T_REC_ALL	717
T_NUM_TAP	582
T_NUM_BRK	42
T_NUM_HLD	29
T_NUM_SLD	64
T_NUM_ALL	717
T_JUDGE_TAP	624
T_JUDGE_HLD	120
T_JUDGE_SLD	64
T_JUDGE_ALL	808
TTM_EACHPAIRS	163
TTM_SCR_TAP	291000
TTM_SCR_BRK	109200
TTM_SCR_HLD	29000
TTM_SCR_SLD	96000
TTM_SCR_ALL	525200
TTM_SCR_S	505400
TTM_SCR_SS	521000
TTM_RAT_ACV	10080

