VERSION	0.00.00	1.03.00
FES_MODE	0
BPM_DEF	210.000	210.000	210.000	210.000
MET_DEF	4	4
RESOLUTION	384
CLK_DEF	384
COMPATIBLE_CODE	MA2

BPM	0	0	210.000
MET	0	0	4	4

STR	2	0	3
SXR	2	0	3	96	480	0
STR	2	0	4
SXL	2	0	4	96	480	7
TAP	4	0	7
TAP	4	96	7
TAP	4	192	0
TAP	4	192	7
TAP	5	0	1
TAP	5	96	1
TAP	5	192	0
TAP	5	192	1
TAP	6	0	6
TAP	6	96	6
TAP	6	192	6
TAP	6	192	7
TAP	7	0	0
TAP	7	96	0
TAP	7	192	1
TAP	7	192	7
TAP	8	0	2
TAP	8	96	2
TAP	8	192	2
TAP	8	192	3
TAP	9	0	5
TAP	9	96	5
TAP	9	192	4
TAP	9	192	5
TAP	10	0	2
TAP	10	96	2
TAP	10	192	3
TAP	10	288	3
BRK	11	0	3
BRK	11	0	4
TAP	12	0	5
TAP	12	96	5
TAP	12	192	4
TAP	12	288	4
TAP	13	0	3
TAP	13	96	3
TAP	13	192	2
TAP	13	192	4
TAP	14	0	1
TAP	14	96	1
TAP	14	192	0
TAP	14	288	0
TAP	15	0	7
TAP	15	96	7
TAP	15	192	0
TAP	15	192	7
TAP	16	0	1
TAP	16	96	1
TAP	16	192	2
TAP	16	288	2
TAP	17	0	3
TAP	17	96	3
TAP	17	192	2
TAP	17	192	4
TAP	18	0	5
TAP	18	96	5
TAP	18	192	4
TAP	18	288	4
TAP	19	0	3
TAP	19	0	4
TAP	19	96	3
TAP	19	96	4
BRK	19	192	3
BRK	19	192	4
TTP	20	0	4	E	0	L1
TTP	21	0	3	E	0	L1
TTP	22	0	2	E	0	L1
TTP	23	0	1	E	0	L1
TTP	24	0	0	E	0	L1
TTP	25	0	7	E	0	L1
TTP	26	0	6	E	0	L1
TTP	27	0	5	E	0	L1
XHO	28	0	5	192
TAP	28	192	4
HLD	29	0	2	192
TAP	29	192	3
HLD	30	0	5	192
TAP	30	192	4
TAP	31	0	3
TAP	31	0	4
TAP	31	192	2
TAP	31	192	3
HLD	32	0	1	192
TAP	32	192	0
HLD	33	0	6	192
TAP	33	192	7
HLD	34	0	1	192
TAP	34	192	0
HLD	35	0	0	192
HLD	35	0	7	192
TAP	36	0	6
TAP	36	96	6
TAP	36	192	7
TAP	36	288	7
TAP	37	0	0
TAP	37	96	0
TAP	37	192	1
TAP	37	192	7
TAP	38	0	2
TAP	38	96	2
TAP	38	192	3
TAP	38	288	3
TAP	39	0	4
TAP	39	96	4
TAP	39	192	3
TAP	39	192	4
TAP	40	0	2
TAP	40	96	3
TAP	40	192	4
TAP	40	288	5
TAP	41	0	4
TAP	41	96	3
TAP	41	192	2
TAP	41	288	1
TAP	42	0	0
TAP	42	0	7
TAP	42	48	0
TAP	42	48	7
TAP	42	96	0
TAP	42	96	7
TAP	42	192	1
TAP	42	192	6
TAP	42	240	1
TAP	42	240	6
TAP	42	288	1
TAP	42	288	6
BRK	43	0	2
BRK	43	0	5
TTP	44	0	0	B	0	L1
TTP	44	96	7	B	0	L1
TTP	44	192	6	B	0	L1
TTP	44	288	5	B	0	L1
TTP	45	0	4	B	0	L1
TTP	45	96	3	B	0	L1
TTP	45	192	2	B	0	L1
TTP	45	288	1	B	0	L1
TTP	46	0	0	B	0	L1
TTP	46	96	7	B	0	L1
TTP	46	192	6	B	0	L1
TTP	46	288	5	B	0	L1
TTP	47	0	4	B	0	L1
TTP	47	96	3	B	0	L1
THO	47	192	0	192	C	1	L1
XTP	49	0	7
XTP	49	96	7
TAP	49	192	6
TAP	49	288	5
TAP	50	0	3
TAP	50	0	4
TAP	50	96	2
TAP	50	96	5
TAP	50	192	1
TAP	50	192	6
TAP	50	288	0
TAP	50	288	7
BRK	51	0	0
BRK	51	0	7
STR	52	0	6
SI_	52	0	6	96	192	2
STR	53	0	1
SI_	53	0	1	96	192	5
STR	54	0	6
SI_	54	0	6	96	192	3
STR	55	0	2
SI_	55	0	2	96	192	7
STR	56	0	6
SCL	56	0	6	96	192	3
STR	57	0	2
SCL	57	0	2	96	192	7
STR	58	0	6
SUL	58	0	6	96	192	2
STR	59	0	1
SUR	59	0	1	96	192	5
TAP	60	0	6
TAP	60	96	6
TAP	60	192	6
TAP	60	192	7
TAP	61	0	1
TAP	61	96	1
TAP	61	192	0
TAP	61	192	1
TAP	62	0	2
TAP	62	96	2
TAP	62	192	2
TAP	62	192	3
TAP	63	0	4
TAP	63	96	4
TAP	63	192	3
TAP	63	192	5
TAP	64	0	4
TAP	64	96	4
TAP	64	192	2
TAP	64	288	2
TAP	65	0	3
TAP	65	96	4
TAP	65	192	5
TAP	65	288	6
TAP	66	0	0
TAP	66	0	7
TAP	66	48	0
TAP	66	48	7
TAP	66	96	0
TAP	66	96	7
TAP	66	192	1
TAP	66	192	6
TAP	66	240	1
TAP	66	240	6
TAP	66	288	1
TAP	66	288	6
TTP	67	0	0	C	1	L1
BRK	68	0	7
TAP	68	96	7
TAP	68	192	6
TAP	68	192	7
TAP	68	288	6
TAP	68	288	7
TAP	69	0	5
TAP	69	96	4
TAP	69	192	3
TAP	69	192	5
TAP	70	0	2
TAP	70	96	2
TAP	70	192	2
TAP	70	192	3
TAP	70	288	2
TAP	70	288	3
XTP	71	0	1
XTP	71	96	0
XTP	71	192	0
XTP	71	192	7
TAP	72	0	1
TAP	72	96	1
TAP	72	192	0
TAP	72	192	1
TAP	72	288	0
TAP	72	288	1
TAP	73	0	2
TAP	73	96	3
TAP	73	192	2
TAP	73	192	4
TAP	74	0	5
TAP	74	96	5
TAP	74	192	3
TAP	74	192	4
TAP	74	288	3
TAP	74	288	4
TAP	75	0	2
TAP	75	0	5
TAP	75	96	2
TAP	75	96	5
TAP	75	192	1
TAP	75	192	6
TAP	75	288	1
TAP	75	288	6
TTP	76	0	0	C	1	L1
XHO	77	0	0	96
XHO	77	0	7	96
XTP	77	192	1
XTP	77	192	6
TAP	77	288	1
TAP	77	288	6
TAP	78	0	7
BRK	78	96	7
TAP	78	192	0
TAP	78	288	1
TAP	79	0	2
TAP	79	96	3
TAP	79	96	4
TAP	79	192	2
TAP	79	192	5
TAP	80	0	6
TAP	80	96	6
TAP	80	192	6
TAP	80	192	7
TAP	81	0	1
TAP	81	96	1
TAP	81	192	0
TAP	81	192	1
TAP	82	0	0
TAP	82	0	7
TAP	82	48	0
TAP	82	48	7
TAP	82	96	0
TAP	82	96	7
TAP	82	192	1
TAP	82	192	6
TAP	82	240	1
TAP	82	240	6
TAP	82	288	1
TAP	82	288	6
TAP	83	0	2
TAP	83	0	5
TAP	83	48	2
TAP	83	48	5
TAP	83	96	2
TAP	83	96	5
TAP	83	192	3
TAP	83	192	4
BST	84	0	3
SXR	84	0	3	96	480	4
BRK	84	0	4
STR	86	0	4
SXL	86	0	4	96	480	3
HLD	88	0	2	384
TAP	89	0	3
TAP	89	96	2
TAP	89	96	3
TAP	89	192	2
TAP	89	192	3
BRK	90	0	1
TAP	90	96	0
TAP	90	96	1
TAP	90	192	1
TAP	90	288	0
TAP	90	288	1
TAP	91	0	2
TAP	91	96	3
TAP	91	192	4
TAP	91	288	5
TAP	92	0	6
TAP	92	96	6
TAP	92	96	7
TAP	92	192	6
TAP	92	288	6
TAP	92	288	7
TAP	93	0	5
TAP	93	96	4
TAP	93	192	3
TAP	93	192	5
HLD	94	0	2	96
TAP	94	96	3
TAP	94	192	3
TAP	94	192	4
TAP	94	288	3
TAP	94	288	4
HLD	95	0	5	96
TAP	95	96	4
TAP	95	192	3
TAP	95	192	4
TAP	96	0	3
TAP	96	96	3
TAP	96	192	4
TAP	96	288	3
TAP	96	288	4
XTP	96	336	3
XTP	96	336	4
XHO	97	48	2	144
XHO	97	48	5	144
BRK	98	0	6
TAP	98	96	6
TAP	98	96	7
TAP	98	192	6
TAP	98	288	6
TAP	98	288	7
TAP	99	0	5
TAP	99	96	4
TAP	99	192	3
TAP	99	288	2
TAP	100	0	1
TAP	100	96	0
TAP	100	96	1
TAP	100	192	1
TAP	100	288	0
TAP	100	288	1
TAP	101	0	2
TAP	101	96	3
TAP	101	192	2
TAP	101	192	4
TAP	102	0	2
TAP	102	96	3
TAP	102	192	4
TAP	102	288	5
TAP	103	0	4
TAP	103	96	3
TAP	103	192	2
TAP	103	288	1
TAP	104	0	0
TAP	104	0	7
TAP	104	48	0
TAP	104	48	7
TAP	104	96	0
TAP	104	96	7
TAP	104	192	1
TAP	104	192	6
TAP	104	240	1
TAP	104	240	6
TAP	104	288	1
TAP	104	288	6
TAP	105	0	2
TAP	105	0	5
TAP	105	48	2
TAP	105	48	5
TAP	105	96	2
TAP	105	96	5
BRK	105	192	3
BRK	105	192	4
TTP	106	0	4	E	0	L1
TTP	107	0	0	C	0	L1
TTP	108	0	0	E	0	L1
STR	109	0	0
SI_	109	0	0	96	192	3
STR	109	0	7
SI_	109	0	7	96	192	4
TAP	110	0	5
TAP	110	96	4
TAP	110	96	5
TAP	110	192	2
TAP	110	288	2
TAP	110	288	3
TAP	111	0	3
TAP	111	0	4
TAP	111	96	2
TAP	111	96	5
TAP	111	192	1
TAP	111	192	6
XTP	112	0	0
XTP	112	0	7
XTP	112	96	0
XTP	112	96	7
XTP	112	192	0
XTP	112	240	0
XTP	112	288	0
XTP	113	0	7
XTP	113	48	7
XTP	113	96	7
BRK	113	192	0
BRK	113	192	7
BRK	113	288	0
BRK	113	288	7
TAP	114	0	1
TAP	114	96	0
TAP	114	96	1
TAP	114	192	6
TAP	114	288	6
TAP	114	288	7
TAP	115	0	0
TAP	115	0	7
TAP	115	96	1
TAP	115	96	6
TAP	115	192	2
TAP	115	192	5
TAP	115	288	3
TAP	115	288	4
XTP	116	0	3
XTP	116	0	4
XTP	116	96	2
XTP	116	96	5
XTP	116	192	1
XTP	116	192	6
XHO	116	288	0	96
XHO	116	288	7	96
TTP	117	96	0	C	1	L1
TTP	117	96	1	B	0	L1
TTP	117	96	6	B	0	L1

T_REC_TAP	337
T_REC_BRK	19
T_REC_XTP	26
T_REC_HLD	10
T_REC_XHO	7
T_REC_STR	13
T_REC_BST	1
T_REC_XST	0
T_REC_TTP	30
T_REC_THO	1
T_REC_SLD	14
T_REC_ALL	458
T_NUM_TAP	406
T_NUM_BRK	20
T_NUM_HLD	18
T_NUM_SLD	14
T_NUM_ALL	458
T_JUDGE_TAP	426
T_JUDGE_HLD	62
T_JUDGE_SLD	14
T_JUDGE_ALL	502
TTM_EACHPAIRS	122
TTM_SCR_TAP	203000
TTM_SCR_BRK	52000
TTM_SCR_HLD	18000
TTM_SCR_SLD	21000
TTM_SCR_ALL	294000
TTM_SCR_S	283250
TTM_SCR_SS	292000
TTM_RAT_ACV	10068

